osu file format v5

[General]
AudioFilename: max_300.mp3
AudioLeadIn: 0
PreviewTime: -1
Countdown: 1
SampleSet: Normal
EditorBookmarks: 810,7010,13610,20010,26410,36010,45610,55010,61610,74410,80810,85610

[Metadata]
Title:MAX 300
Artist:Omega
Creator:Reikin
Version:Oni

[Difficulty]
HPDrainRate:4
CircleSize:6
OverallDifficulty:9
SliderMultiplier:1
SliderTickRate:2

[Events]
//Background and Video events
//Break Periods
2,25600,34450
2,57400,60050
//Storyboard Layer 0 (Background)
//Storyboard Layer 1 (Failing)
//Storyboard Layer 2 (Passing)
//Storyboard Layer 3 (Foreground)
//Storyboard Sound Samples
//Background Colour Transformations
3,100,163,162,255

[TimingPoints]
0,200,4,1,0,100

[HitObjects]
0,0,6400,1,0
96,8,6600,1,0
192,24,6800,1,0
192,24,6900,1,0
120,96,7100,1,0
120,96,7200,1,0
216,120,7400,1,0
312,144,7600,1,0
312,144,7700,1,0
368,192,7900,1,0
368,192,8000,1,0
272,232,8200,1,0
184,272,8400,1,0
184,272,8500,1,0
136,360,8700,1,0
136,360,8800,1,0
232,360,9000,1,0
328,360,9200,1,0
416,184,9600,5,4
416,80,9800,1,0
312,88,10000,1,0
312,88,10100,1,0
208,88,10300,1,0
208,88,10400,1,4
104,88,10600,1,0
104,184,10800,1,0
104,184,10900,1,0
200,184,11100,1,0
248,184,11200,1,4
248,184,11300,1,4
248,184,11400,1,4
248,280,11600,1,4
248,280,11700,1,4
248,280,11800,1,4
336,232,12000,1,4
336,232,12100,1,4
336,232,12200,1,4
336,128,12400,1,4
336,128,12500,1,4
336,128,12600,1,4
256,64,12800,5,4
152,64,13000,1,0
80,192,13300,1,0
176,192,13500,1,0
176,192,13600,1,0
272,192,13800,1,0
424,192,14100,1,0
376,280,14300,1,0
376,280,14400,1,0
272,280,14600,1,0
120,288,14900,1,0
80,192,15100,1,0
128,192,15200,2,0,L|128:96|128:80,3,100
224,96,16000,5,4
320,96,16200,1,0
320,248,16500,1,0
416,248,16700,1,0
416,248,16800,1,0
416,144,17000,1,0
272,192,17300,1,0
168,192,17500,1,0
168,192,17600,1,0
88,128,17800,1,0
232,80,18100,1,0
328,80,18300,1,0
328,128,18400,2,0,L|328:240,3,100
256,296,19200,5,4
152,296,19400,1,0
80,168,19700,1,0
176,168,19900,1,0
176,168,20000,1,0
272,168,20200,1,0
424,168,20500,1,0
376,80,20700,1,0
376,80,20800,1,0
272,80,21000,1,0
120,72,21300,1,0
80,168,21500,1,0
128,168,21600,2,0,L|128:264|128:280,3,100
224,264,22400,5,4
320,264,22600,1,0
320,112,22900,1,0
416,112,23100,1,0
416,112,23200,1,4
416,216,23400,1,0
272,168,23700,1,0
168,168,23900,1,0
168,168,24000,1,4
88,232,24200,1,0
88,232,24300,1,4
168,288,24500,1,0
168,288,24600,1,4
256,336,24800,1,4
256,336,24900,1,4
256,336,25000,1,4
256,232,25200,1,4
256,232,25300,1,4
256,232,25400,1,4
256,192,35200,5,4
256,88,35400,1,0
152,88,35600,2,0,L|152:200,1,100
48,192,36000,1,0
40,288,36200,1,0
136,280,36400,2,0,L|256:280,3,100
336,304,37200,1,0
432,304,37400,1,0
432,200,37600,2,0,L|432:96,1,100
328,104,38000,1,0
328,200,38200,1,0
256,128,38400,1,0
176,192,38600,2,0,L|72:192,4,100
440,48,40000,5,4
440,144,40200,1,0
440,240,40400,2,0,L|336:240,1,100
248,200,40800,1,0
248,96,41000,1,0
144,96,41200,2,0,L|72:168,3,100
72,264,42000,1,0
168,264,42200,1,0
264,264,42400,2,0,L|368:264,1,100
368,160,42800,1,0
312,72,43000,1,0
208,72,43200,1,0
160,160,43400,1,0
256,160,43600,1,4
160,160,43800,1,0
256,160,44000,1,4
160,160,44200,1,0
216,240,44400,1,4
304,48,44800,5,4
200,48,45000,1,0
128,120,45200,1,0
128,120,45300,1,0
128,216,45500,1,0
128,216,45600,1,0
192,288,45800,1,0
288,288,46000,1,0
288,288,46100,1,0
360,216,46300,1,0
360,216,46400,1,0
360,112,46600,1,0
272,64,46800,1,0
272,64,46900,1,0
256,160,47100,1,0
256,160,47200,1,0
256,256,47400,1,0
256,352,47600,1,0
208,48,48000,5,4
312,48,48200,1,0
384,120,48400,1,0
384,120,48500,1,0
384,216,48700,1,0
384,216,48800,1,0
320,288,49000,1,0
224,288,49200,1,0
224,288,49300,1,0
152,216,49500,1,0
152,216,49600,1,0
152,112,49800,1,0
240,64,50000,1,0
240,64,50100,1,0
256,160,50300,1,0
256,160,50400,1,0
256,256,50600,1,0
256,352,50800,1,0
400,240,51200,5,4
400,136,51400,1,0
328,64,51600,1,0
328,64,51700,1,0
232,64,51900,1,0
232,64,52000,1,0
160,128,52200,1,0
160,224,52400,1,0
160,224,52500,1,0
232,296,52700,1,0
232,296,52800,1,0
336,296,53000,1,0
384,208,53200,1,0
384,208,53300,1,0
288,192,53500,1,0
288,192,53600,1,0
192,192,53800,1,0
96,192,54000,1,0
112,240,54400,5,4
112,136,54600,1,0
184,64,54800,1,0
184,64,54900,1,0
280,64,55100,1,0
280,64,55200,1,4
352,128,55400,1,0
352,224,55600,1,0
352,224,55700,1,0
280,296,55900,1,0
256,248,56000,1,4
256,248,56133,1,0
256,248,56266,1,0
192,224,56400,1,4
192,224,56533,1,0
192,224,56666,1,0
248,184,56800,1,4
248,184,56933,1,0
248,184,57066,1,0
248,184,57200,1,4
0,352,60800,5,4
0,248,61000,1,0
0,144,61200,1,0
0,40,61400,1,0
80,96,61600,1,0
80,192,61800,1,0
80,288,62000,1,0
168,240,62200,1,0
168,136,62400,1,0
248,192,62600,1,0
248,88,62800,1,0
168,24,63000,1,0
88,80,63200,1,0
88,176,63400,1,0
168,240,63600,1,0
256,288,63800,1,0
352,288,64000,5,0
352,184,64200,1,0
248,184,64400,1,0
248,80,64600,1,0
296,168,64800,1,0
352,248,65000,1,0
408,168,65200,1,0
456,80,65400,1,0
352,80,65600,1,0
264,136,65800,1,0
176,80,66000,1,0
176,176,66200,1,0
176,272,66400,1,0
272,272,66600,1,0
272,368,66800,1,0
168,368,67000,1,0
64,368,67200,5,4
64,368,67300,1,4
64,368,67400,1,4
64,368,67500,1,4
64,216,67800,1,4
64,216,67900,1,4
64,216,68000,1,4
64,216,68100,1,4
216,216,68400,1,4
216,216,68500,1,4
216,216,68600,1,4
216,216,68700,1,4
256,72,69000,5,4
256,72,69100,1,4
256,72,69200,1,4
256,72,69300,1,4
304,216,69600,1,4
304,216,69700,1,4
304,216,69800,1,4
304,216,69900,1,4
256,360,70200,1,4
256,360,70300,1,4
256,360,70400,1,4
256,360,70500,1,4
256,208,70800,1,4
256,208,70900,1,4
256,208,71000,1,4
256,208,71100,1,4
408,208,71400,5,4
408,208,71500,1,4
408,208,71600,1,4
408,208,71700,1,4
408,56,72000,1,4
408,56,72100,1,4
408,56,72200,1,4
408,56,72300,1,4
256,56,72600,1,4
256,104,72700,1,4
256,152,72800,1,4
256,200,72900,1,4
256,248,73000,1,4
256,296,73100,1,4
256,344,73200,1,4
304,344,73300,1,4
160,296,73600,5,4
144,192,73800,1,0
144,192,73900,1,0
240,72,74200,1,0
336,72,74400,1,0
296,160,74600,1,0
392,160,74800,1,0
256,304,75200,5,4
352,328,75400,1,0
352,328,75500,1,0
256,208,75800,1,0
160,192,76000,1,0
232,120,76200,1,0
328,144,76400,1,0
144,72,76800,5,4
72,144,77000,1,0
72,144,77100,1,0
72,296,77400,1,0
168,296,77600,1,4
184,200,77800,1,0
184,200,77900,1,0
336,200,78200,1,0
408,272,78400,1,4
472,192,78600,1,0
472,192,78700,1,0
384,64,79000,1,0
296,112,79200,1,0
256,200,79400,5,4
256,56,79700,1,4
408,56,80000,5,4
480,128,80200,1,0
480,128,80300,1,0
480,280,80600,1,0
384,280,80800,1,4
368,184,81000,1,0
368,184,81100,1,0
216,184,81400,1,0
144,256,81600,1,4
80,176,81800,1,0
80,176,81900,1,0
168,48,82200,1,0
256,96,82400,1,4
296,184,82600,1,0
296,184,82700,1,0
256,328,83000,1,0
352,328,83200,1,4
416,248,83400,1,0
416,248,83500,1,0
336,120,83800,1,0
232,120,84000,1,4
256,216,84200,1,0
256,216,84300,1,0
104,192,84600,1,0
104,88,84800,5,4
104,88,84933,1,0
104,88,85066,1,0
368,96,85600,1,4
368,96,85733,1,0
368,96,85866,1,0
256,336,86400,1,4
256,336,86533,1,0
256,336,86666,1,0
256,280,86800,1,4
256,224,86933,1,0
216,192,87066,1,0
208,248,87200,1,0
