osu file format v4

[General]
AudioFilename: Ome Henk - ik ben een lekker wijf.mp3
AudioLeadIn: 0
AudioHash: 9a3b217f1dcc9b7f639ebf0bcb2139ac
PreviewTime: -1
Countdown: 1
SampleSet: None
EditorBookmarks: 10842,26073,54457,54688,54919,55150,55380,55611,55842,56073,56303,56534,56765,56996,57226,57457,57688,57919,58150,58380,58611,66457,101534,101765,101996,102226,102457,102688,102919,103150,103380,103611,103842,104073

[Metadata]
Title:Ik Ben een Lekker Wijf
Artist:Ome Henk
Creator:Enok Walker
Version:Insane

[Difficulty]
HPDrainRate:7
CircleSize:5
OverallDifficulty:6
SliderMultiplier: 2
SliderTickRate: 1

[Events]
//Background and Video events
//Break Periods
2,51196,57792
2,96426,103946
//Storyboard Layer 0 (Background)
//Storyboard Layer 1 (Failing)
//Storyboard Layer 2 (Passing)
//Storyboard Layer 3 (Foreground)
//Storyboard Sound Samples
//Background Colour Transformations
3,100,163,162,255

[TimingPoints]
4150,461.538461538462,4,0,0,100

[HitObjects]
256,32,26303,1,2
256,32,26534,1,6
192,96,26765,1,2
192,96,26996,1,4
128,160,27226,1,2
128,160,27457,1,4
64,224,27688,1,2
64,224,27919,1,4
128,288,28150,6,2,L|128:288|320:80,3,200
432,80,29996,1,0
352,128,30226,1,0
272,176,30457,1,0
352,224,30688,1,0
432,272,30919,1,0
272,336,31380,1,2
48,48,32303,5,0
48,144,32534,1,0
48,240,32765,2,0,L|48:240|256:240,1,200
368,48,33919,1,0
464,48,34150,1,0
464,144,34380,1,0
464,240,34611,2,0,L|464:240|256:240,1,200
176,240,35303,1,6
80,240,35534,5,0
80,336,35765,1,0
80,240,35996,1,0
80,144,36226,1,0
80,240,36457,1,0
256,192,36919,12,0,38303
128,80,39226,2,0,B|128:80|16:80,2,100
128,80,39919,1,0
192,80,40150,2,0,B|192:80|368:192,1,200
368,272,41073,1,4
336,320,41303,2,0,B|336:320|128:320,1,200
80,320,41996,1,0
80,224,42457,1,0
96,112,44073,5,0
96,112,44303,1,2
96,112,44535,1,4
160,192,44996,1,0
160,192,45227,1,2
160,192,45458,1,4
224,272,45919,1,0
224,272,46150,1,2
224,272,46380,2,2,B|224:272|368:272,1,100
384,272,46842,1,0
384,272,47073,1,2
384,272,47303,2,2,B|384:272|384:128,1,100
384,112,47765,5,0
384,112,47996,1,2
384,112,48226,2,2,B|384:112|304:48|256:48,1,100
240,80,48688,1,0
240,80,48919,1,2
240,80,49149,2,2,B|240:80|160:144|112:144,1,100
112,192,49611,1,0
112,192,49842,1,2
112,192,50072,2,4,B|112:192|176:272|176:320,2,100
80,128,50765,5,2
80,128,50996,1,2
64,64,58842,6,0,B|64:64|160:0|224:64,1,100
208,96,59303,1,4
352,128,59765,1,0
400,176,59996,1,0
352,224,60226,1,2
240,336,60688,2,2,B|240:336|144:256|32:288,1,200
256,192,61842,1,2
256,192,62303,1,2
256,192,62534,2,2,B|256:192|336:128,1,100
334,129,62996,1,2
256,48,63457,1,4
256,192,63919,12,0,65996
144,80,66919,1,2
144,80,67150,1,2
224,208,67380,1,2
224,208,67611,1,2
352,224,67842,2,2,B|352:224|352:16,1,200
448,48,68534,1,0
448,336,68996,1,0
352,224,69226,1,0
288,176,69457,1,0
224,208,69688,2,0,B|224:208|128:160|144:352|0:160,2,200
224,128,70842,1,0
256,48,71073,1,0
336,96,71303,1,0
400,144,71534,2,0,B|400:144|320:336,2,200
336,96,72688,1,0
256,160,72919,1,0
192,80,73150,1,0
160,160,73380,2,0,B|160:160|48:336,1,200
144,304,74303,5,2
144,304,74534,1,2
224,176,74764,1,2
224,176,74995,1,2
352,160,75226,2,2,B|352:160|352:368,1,200
448,336,75918,1,0
448,224,76150,1,0
448,96,76380,1,0
352,32,76611,1,0
272,96,76842,1,0
224,176,77072,2,0,B|224:176|128:224|144:32|0:224,2,200
256,336,78457,1,0
336,288,78687,1,0
400,240,78918,2,0,B|400:240|320:48,2,200
336,288,80072,1,0
256,224,80303,1,0
192,304,80534,1,0
160,224,80764,2,0,B|160:224|48:48,1,200
192,64,81688,6,0,B|192:64|192:160,1,100
256,336,82150,2,0,B|256:336|256:224,1,100
320,64,82611,2,0,B|320:64|320:160,1,100
384,336,83073,2,0,B|384:336|384:240,1,100
464,192,83534,5,2
384,192,83996,1,2
304,192,84457,1,2
224,192,84919,1,4
320,64,85380,6,0,B|320:64|320:160,1,100
256,336,85842,2,0,B|256:336|256:224,1,100
192,64,86303,2,0,B|192:64|192:160,1,100
128,336,86765,2,0,B|128:336|128:240,1,100
256,192,87226,5,6
256,192,87457,2,0,B|256:192|368:96,2,100
256,192,88150,1,4
256,192,88380,2,0,B|256:192|208:240,2,100
192,320,89073,6,0,B|192:320|192:224,1,100
256,48,89535,2,0,B|256:48|256:160,1,100
320,320,89996,2,0,B|320:320|320:224,1,100
384,48,90458,2,0,B|384:48|384:144,1,100
464,192,90919,5,2
384,192,91381,1,2
304,192,91842,1,2
224,192,92304,1,4
320,320,92765,6,0,B|320:320|320:224,1,100
256,48,93227,2,0,B|256:48|256:160,1,100
192,320,93688,2,0,B|192:320|192:224,1,100
128,48,94150,2,0,B|128:48|128:144,1,100
256,192,94611,5,6
256,192,94842,2,0,B|256:192|368:288,2,100
256,192,95535,1,4
256,192,95765,2,0,B|256:192|208:144,2,100
64,80,104996,5,2
64,80,105226,1,2
64,80,105457,1,4
144,144,105919,2,0,B|144:144|192:192|256:128,2,100
448,240,106842,1,2
448,240,107072,1,2
448,240,107303,1,4
368,304,107765,2,0,B|368:304|320:352|256:288,2,100
64,256,108688,5,2
64,192,108919,1,2
64,128,109150,1,4
208,128,109611,1,2
256,192,109842,1,2
304,256,110073,1,4
256,192,110534,12,0,111457
448,64,112380,6,0,B|448:64|352:0|288:64,1,100
304,96,112841,1,4
160,128,113303,1,0
112,176,113534,1,0
160,224,113764,1,2
272,336,114226,2,2,B|272:336|368:256|480:288,1,200
256,192,115380,1,2
256,192,115841,1,2
256,192,116072,2,2,B|256:192|176:128,1,100
178,129,116534,1,2
256,48,116995,1,4
256,192,117457,12,0,119073
448,64,119765,6,0,B|448:64|352:0|288:64,1,100
304,96,120226,1,4
160,128,120688,1,0
112,176,120919,1,0
160,224,121149,1,2
272,336,121611,2,2,B|272:336|368:256|480:288,1,200
256,192,122765,1,2
256,192,123226,1,2
256,192,123457,2,2,B|256:192|176:128,1,100
178,129,123919,1,2
256,48,124380,1,4
256,192,124842,12,0,126919
192,320,127842,6,0,B|192:320|192:224,1,100
256,48,128304,2,0,B|256:48|256:160,1,100
320,320,128765,2,0,B|320:320|320:224,1,100
384,48,129227,2,0,B|384:48|384:144,1,100
464,192,129688,5,2
384,192,130150,1,2
304,192,130611,1,2
224,192,131073,1,4
320,320,131534,6,0,B|320:320|320:224,1,100
256,48,131996,2,0,B|256:48|256:160,1,100
192,320,132457,2,0,B|192:320|192:224,1,100
128,48,132919,2,0,B|128:48|128:144,1,100
256,192,133380,5,6
256,192,133611,2,0,B|256:192|368:288,2,100
256,192,134304,1,4
256,192,134534,2,0,B|256:192|208:144,2,100
192,64,135227,6,0,B|192:64|192:160,1,100
256,336,135689,2,0,B|256:336|256:224,1,100
320,64,136150,2,0,B|320:64|320:160,1,100
384,336,136612,2,0,B|384:336|384:240,1,100
464,192,137073,5,2
384,192,137535,1,2
304,192,137996,1,2
224,192,138458,1,4
320,64,138919,6,0,B|320:64|320:160,1,100
256,336,139381,2,0,B|256:336|256:224,1,100
192,64,139842,2,0,B|192:64|192:160,1,100
128,336,140304,2,0,B|128:336|128:240,1,100
256,192,140765,5,6
256,192,140996,2,0,B|256:192|368:96,2,100
256,192,141689,1,4
256,192,141919,2,0,B|256:192|208:240,2,100
368,80,142611,1,2
368,80,142842,1,2
288,208,143072,1,2
288,208,143303,1,2
160,224,143534,2,2,B|160:224|160:16,1,200
64,48,144226,1,0
64,336,144688,1,0
160,224,144918,1,0
224,176,145149,1,0
288,208,145380,2,0,B|288:208|384:160|368:352|512:160,2,200
288,128,146534,1,0
256,48,146765,1,0
176,96,146995,1,0
112,144,147226,2,0,B|112:144|192:336,2,200
176,96,148380,1,0
256,160,148611,1,0
320,80,148842,1,0
352,160,149072,2,0,B|352:160|464:336,1,200
368,304,149995,5,2
368,304,150226,1,2
288,176,150456,1,2
288,176,150687,1,2
160,160,150918,2,2,B|160:160|160:368,1,200
64,336,151610,1,0
64,224,151842,1,0
64,96,152072,1,0
160,32,152303,1,0
240,96,152534,1,0
288,176,152764,2,0,B|288:176|384:224|368:32|512:224,2,200
256,336,154149,1,0
176,288,154379,1,0
112,240,154610,2,0,B|112:240|192:48,2,200
176,288,155764,1,0
256,224,155995,1,0
320,304,156226,1,0
352,224,156456,2,0,B|352:224|464:48,1,200
320,64,157380,6,0,B|320:64|320:160,1,100
256,336,157842,2,0,B|256:336|256:224,1,100
192,64,158303,2,0,B|192:64|192:160,1,100
128,336,158765,1,4
48,192,159226,5,2
112,192,159457,1,2
176,192,159688,1,2
240,192,159919,1,2
320,192,160150,2,4,B|320:192|320:96|416:96|416:192|416:288|320:288|320:176,1,300
320,336,161303,1,2
256,336,161534,1,2
192,336,161765,1,2
128,336,161996,2,0,B|128:336|128:288,2,100
64,240,162688,1,4
128,64,163150,1,2
192,64,163380,1,2
256,64,163611,1,2
320,64,163842,2,0,B|320:64|320:144,2,100
256,192,164765,12,0,171688
192,64,172150,6,0,B|192:64|192:160,1,100
256,336,172612,2,0,B|256:336|256:224,1,100
320,64,173073,2,0,B|320:64|320:160,1,100
384,336,173535,2,0,B|384:336|384:240,1,100
464,192,173996,5,2
384,192,174458,1,2
304,192,174919,1,2
224,192,175381,1,4
320,64,175842,6,0,B|320:64|320:144,1,100
256,336,176304,2,0,B|256:336|256:224,1,100
192,64,176765,2,0,B|192:64|192:160,1,100
128,336,177227,2,0,B|128:336|128:240,1,100
256,192,177688,5,6
256,192,177919,2,0,B|256:192|368:96,2,100
256,192,178612,1,4
256,192,178842,2,0,B|256:192|208:240,2,100
192,320,179535,6,0,B|192:320|192:224,1,100
256,48,179997,2,0,B|256:48|256:160,1,100
320,320,180458,2,0,B|320:320|320:224,1,100
384,48,180920,2,0,B|384:48|384:144,1,100
464,192,181381,5,2
384,192,181843,1,2
304,192,182304,1,2
224,192,182766,1,4
320,320,183227,6,0,B|320:320|320:224,1,100
256,48,183689,2,0,B|256:48|256:160,1,100
192,320,184150,2,0,B|192:320|192:224,1,100
128,48,184612,2,0,B|128:48|128:144,1,100
256,192,185073,5,6
256,192,185304,2,0,B|256:192|368:288,2,100
256,192,185997,1,4
256,192,186227,2,0,B|256:192|208:144,2,100
