osu file format v14

[General]
AudioFilename: U.mp3
AudioLeadIn: 0
PreviewTime: 45372
Countdown: 0
SampleSet: Soft
StackLeniency: 0.7
Mode: 0
LetterboxInBreaks: 0
WidescreenStoryboard: 0

[Editor]
DistanceSpacing: 1.1
BeatDivisor: 4
GridSize: 4
TimelineZoom: 2.999999

[Metadata]
Title:Up
TitleUnicode:Up
Artist:Olly Murs feat. Demi Lovato
ArtistUnicode:Olly Murs feat. Demi Lovato
Creator:Sister Jude
Version:Insane
Source:
Tags:
BeatmapID:737756
BeatmapSetID:333369

[Difficulty]
HPDrainRate:6
CircleSize:4.5
OverallDifficulty:7
ApproachRate:9
SliderMultiplier:2.5
SliderTickRate:1

[Events]
//Background and Video events
0,0,"anime-scenery-wallpaper-rain-images-6.jpg",0,0
//Break Periods
//Storyboard Layer 0 (Background)
//Storyboard Layer 1 (Fail)
//Storyboard Layer 2 (Pass)
//Storyboard Layer 3 (Foreground)
//Storyboard Sound Samples

[TimingPoints]
503,521.739130434783,4,2,0,70,1,0
8850,-125,4,2,0,70,0,0
46416,-100,4,2,0,70,0,1
46546,-100,4,2,0,70,0,0
63111,-100,4,2,0,70,0,1
79807,-100,4,2,0,70,0,0

[Colours]
Combo1 : 177,219,252
Combo2 : 174,174,174
Combo3 : 221,158,74

[HitObjects]
232,168,8850,6,0,P|220:112|240:72,1,100,0|0,1:0|0:0,0:0:0:0:
392,132,9372,2,0,P|404:188|384:228,1,100,2|0,0:0|0:0,0:0:0:0:
232,288,9894,2,0,L|112:292,1,100,0|0,1:0|0:0,0:0:0:0:
60,256,10285,2,0,P|56:224|64:188,1,50,0|2,0:0|0:0,0:0:0:0:
180,96,10676,1,0,0:0:0:0:
336,36,10937,6,0,L|448:32,1,100,0|0,1:0|0:0,0:0:0:0:
296,120,11459,2,0,L|408:116,1,100,2|0,0:0|0:0,0:0:0:0:
264,208,11981,2,0,L|152:204,1,100,0|0,1:0|0:0,0:0:0:0:
304,292,12503,2,0,L|192:288,1,100,2|0,0:0|0:0,0:0:0:0:
44,332,13024,5,0,1:0:0:0:
16,168,13285,2,0,P|4:120|32:56,1,100,0|2,0:0|0:0,0:0:0:0:
176,120,13807,1,0,0:0:0:0:
336,72,14068,2,0,L|460:68,1,100,0|0,1:0|0:0,0:0:0:0:
504,112,14459,2,0,P|508:140|500:176,1,50,0|2,0:0|0:0,0:0:0:0:
400,284,14850,1,0,0:0:0:0:
192,256,15111,6,0,P|160:228|100:224,1,100,0|0,1:0|0:0,0:0:0:0:
192,128,15633,2,0,P|220:96|224:36,1,100,2|0,0:0|0:0,0:0:0:0:
320,128,16155,2,0,P|352:156|412:160,1,100,0|0,1:0|0:0,0:0:0:0:
320,256,16676,2,0,P|292:288|288:348,1,100,2|0,0:0|0:0,0:0:0:0:
124,328,17198,5,0,1:0:0:0:
24,196,17459,2,0,L|24:64,1,100,0|2,0:0|0:0,0:0:0:0:
176,32,17981,1,0,0:0:0:0:
344,40,18242,2,0,P|360:88|340:144,1,100,0|0,1:0|0:0,0:0:0:0:
232,88,18633,2,0,L|281:90,1,50,0|2,0:0|0:0,0:0:0:0:
416,180,19024,1,0,0:0:0:0:
256,256,19285,6,0,L|248:364,1,100,0|0,1:0|0:0,0:0:0:0:
176,208,19807,2,0,L|168:307,1,100,2|0,0:0|0:0,0:0:0:0:
0,240,20329,2,0,L|7:140,1,100,0|0,1:0|0:0,0:0:0:0:
80,272,20850,2,0,L|87:172,1,100,2|0,0:0|0:0,0:0:0:0:
212,68,21372,6,0,P|264:56|312:72,1,100,0|0,1:0|0:0,0:0:0:0:
352,228,21894,2,0,P|300:240|252:224,1,100,2|0,0:0|0:0,0:0:0:0:
416,180,22416,2,0,P|428:232|412:280,1,100,0|0,1:0|0:0,0:0:0:0:
348,324,22807,2,0,L|284:328,1,50,0|2,0:0|0:0,0:0:0:0:
140,284,23198,1,0,0:0:0:0:
56,140,23459,6,0,L|52:28,1,100,0|0,1:0|0:0,0:0:0:0:
136,80,23981,2,0,L|140:180,1,100,2|0,0:0|0:0,0:0:0:0:
248,260,24503,2,0,L|251:160,1,100,0|0,1:0|0:0,0:0:0:0:
335,120,25025,2,0,L|331:232,1,100,2|0,0:0|0:0,0:0:0:0:
464,312,25546,5,0,1:0:0:0:
404,160,25807,2,0,B|392:108|424:108|396:32,1,100,0|2,0:0|0:0,0:0:0:0:
240,76,26329,1,0,0:0:0:0:
80,100,26589,2,0,P|88:152|136:192,1,100,0|0,1:0|0:0,0:0:0:0:
200,196,26981,2,0,L|276:192,1,50,0|2,0:0|0:0,0:0:0:0:
392,112,27372,1,0,0:0:0:0:
324,256,27633,6,0,B|352:284|352:284|408:312,1,100,0|0,1:0|0:0,0:0:0:0:
192,260,28155,2,0,B|164:288|164:288|136:344,1,100,2|0,0:0|0:0,0:0:0:0:
188,128,28676,2,0,B|160:100|160:100|104:72,1,100,0|0,1:0|0:0,0:0:0:0:
320,124,29198,2,0,B|348:96|348:96|376:40,1,100,2|0,0:0|0:0,0:0:0:0:
212,16,29720,5,0,1:0:0:0:
88,120,29981,2,0,B|88:152|88:152|104:192|104:192|104:228,1,100,0|2,0:0|0:0,0:0:0:0:
12,352,30503,1,0,0:0:0:0:
172,288,30763,2,0,P|228:280|284:296,1,100,0|0,1:0|0:0,0:0:0:0:
348,320,31155,2,0,P|380:324|412:316,1,50,0|2,0:0|0:0,0:0:0:0:
484,184,31546,1,0,0:0:0:0:
328,128,31807,6,0,L|324:12,1,100,0|0,1:0|0:0,0:0:0:0:
160,16,32329,2,0,L|163:115,1,100,2|0,0:0|0:0,0:0:0:0:
248,268,32850,2,0,L|244:152,1,100,0|0,1:0|0:0,0:0:0:0:
80,156,33372,2,0,L|83:255,1,100,2|0,0:0|0:0,0:0:0:0:
248,336,33894,6,0,P|296:344|360:332,1,100,0|0,1:0|0:0,0:0:0:0:
408,184,34416,2,0,P|360:176|296:188,1,100,2|0,0:0|0:0,0:0:0:0:
492,236,34937,2,0,L|496:108,1,100,0|0,1:0|0:0,0:0:0:0:
464,60,35329,2,0,L|460:-8,1,50,0|2,0:0|0:0,0:0:0:0:
296,0,35720,1,0,0:0:0:0:
172,112,35981,6,0,P|128:124|56:104,1,100,0|0,1:0|0:0,0:0:0:0:
176,276,36503,2,0,P|188:320|168:392,1,100,2|0,0:0|0:0,0:0:0:0:
340,272,37024,2,0,P|384:260|456:280,1,100,0|0,1:0|0:0,0:0:0:0:
336,108,37546,2,0,P|324:64|344:-8,1,100,2|0,0:0|0:0,0:0:0:0:
488,60,38068,5,0,1:0:0:0:
412,204,38329,2,0,L|408:316,1,100,0|2,0:0|0:0,0:0:0:0:
252,352,38850,1,0,0:0:0:0:
116,264,39111,2,0,L|128:44,1,200,0|2,1:0|0:0,0:0:0:0:
284,12,39894,1,0,0:0:0:0:
464,108,40155,6,0,P|408:120|352:104,1,100,0|0,1:0|0:0,0:0:0:0:
216,56,40676,2,0,P|167:47|118:59,1,100,2|0,0:0|0:0,0:0:0:0:
36,196,41198,2,0,L|28:316,1,100,0|0,1:0|0:0,0:0:0:0:
188,348,41720,2,0,L|194:248,1,100,2|0,0:0|0:0,0:0:0:0:
296,124,42242,6,0,P|340:112|404:132,1,100,0|0,1:0|0:0,0:0:0:0:
336,276,42763,2,0,P|292:288|228:268,1,100,2|0,0:0|0:0,0:0:0:0:
96,200,43285,2,0,L|108:-4,1,200,0|2,1:0|0:0,0:0:0:0:
260,56,44068,1,0,0:0:0:0:
416,8,44329,2,0,P|428:56|408:120,1,100,0|0,1:0|0:0,0:0:0:0:
296,248,44850,2,0,P|284:200|304:136,1,100,2|0,0:0|0:0,0:0:0:0:
44,240,46416,6,0,P|80:168|152:160,1,125,4|0,1:0|0:0,0:0:0:0:
184,232,46807,2,0,P|160:240|112:224,1,62.5,0|2,0:0|0:0,0:0:0:0:
204,64,47198,1,0,0:0:0:0:
384,32,47459,1,0,1:0:0:0:
444,100,47589,2,0,L|448:232,1,125
396,300,47981,2,0,B|336:320|336:276|264:308,1,125,2|0,0:0|0:0,0:0:0:0:
192,344,48372,1,0,0:0:0:0:
96,244,48503,6,0,L|92:104,1,125,0|0,1:0|0:0,0:0:0:0:
160,56,48894,1,0,0:0:0:0:
20,144,49024,2,0,L|24:224,1,62.5,2|2,0:0|0:0,0:0:0:0:
168,224,49285,2,0,L|164:161,1,62.5
296,56,49546,2,0,P|352:40|432:68,1,125,0|0,1:0|0:0,0:0:0:0:
356,128,49937,1,0,0:0:0:0:
292,224,50068,2,0,P|288:264|300:308,1,62.5,2|0,0:0|0:0,0:0:0:0:
412,328,50329,2,0,P|416:288|404:244,1,62.5
292,224,50589,6,0,L|160:220,1,125,0|0,1:0|0:0,0:0:0:0:
76,244,50981,1,0,0:0:0:0:
12,144,51111,2,0,B|8:120|8:120|16:68,1,62.5,2|2,0:0|0:0,0:0:0:0:
120,32,51372,2,0,B|124:56|124:56|116:108,1,62.5
192,196,51633,2,0,B|224:208|252:196|252:196|260:200|260:200|284:192|324:204,1,125,0|0,1:0|0:0,0:0:0:0:
392,252,52024,1,0,0:0:0:0:
420,128,52155,2,0,L|424:44,1,62.5,2|0,0:0|0:0,0:0:0:0:
512,108,52416,2,0,L|509:170,1,62.5
476,296,52676,6,0,P|444:336|356:336,1,125,0|0,1:0|0:0,0:0:0:0:
392,252,53068,1,0,0:0:0:0:
328,160,53198,2,0,P|324:120|336:76,1,62.5,2|2,0:0|0:0,0:0:0:0:
436,60,53459,2,0,P|440:90|436:121,1,62.5
328,160,53720,2,0,L|204:164,1,125,0|0,1:0|0:0,0:0:0:0:
112,152,54111,1,0,0:0:0:0:
20,232,54242,2,0,P|16:272|24:308,1,62.5,2|0,0:0|0:0,0:0:0:0:
128,352,54503,2,0,L|192:352,1,62.5
336,280,54763,6,0,P|360:220|328:156,1,125,4|0,1:0|0:0,0:0:0:0:
220,225,55155,2,0,L|300:221,1,62.5,0|2,0:0|0:0,0:0:0:0:
416,136,55416,1,2,0:0:0:0:
252,148,55546,2,0,L|124:156,1,125,0|0,0:0|1:0,0:0:0:0:
40,128,55937,2,0,B|28:160|40:188|40:188|36:196|36:196|44:220|32:260,1,125
0,336,56329,2,0,P|32:344|76:332,1,62.5,2|0,0:0|0:0,0:0:0:0:
204,272,56589,2,0,P|172:264|128:276,1,62.5
256,328,56850,6,0,P|280:276|244:200,1,125,0|0,1:0|0:0,0:0:0:0:
172,160,57242,1,0,0:0:0:0:
188,40,57372,2,0,L|124:44,1,62.5,2|2,0:0|0:0,0:0:0:0:
109,163,57633,2,0,L|171:159,1,62.5
48,104,57894,2,0,P|28:164|56:228,1,125,0|0,1:0|0:0,0:0:0:0:
128,264,58285,1,0,0:0:0:0:
256,200,58416,2,0,P|280:184|324:172,1,62.5,2|0,0:0|0:0,0:0:0:0:
324,264,58676,2,0,P|352:262|396:273,1,62.5
492,336,58937,6,0,P|512:280|488:204,1,125,0|0,1:0|0:0,0:0:0:0:
385,268,59329,1,0,0:0:0:0:
400,156,59459,2,0,L|396:72,1,62.5,2|2,0:0|0:0,0:0:0:0:
304,68,59720,2,0,L|306:130,1,62.5
232,252,59981,2,0,P|160:272|100:232,1,125
176,184,60372,1,0,0:0:0:0:
44,280,60503,2,0,B|32:248|44:220|44:220|40:212|40:212|48:188|36:148,1,125,2|0,0:0|0:0,0:0:0:0:
8,72,60894,1,0,0:0:0:0:
160,48,61024,6,0,L|224:44,1,62.5,0|0,1:0|0:0,0:0:0:0:
352,128,61285,2,0,L|288:124,1,62.5
128,32,61546,2,0,L|192:28,1,62.5,2|2,0:0|0:0,0:0:0:0:
368,144,61807,2,0,L|224:132,1,125,0|0,0:0|1:0,0:0:0:0:
168,184,62198,1,0,0:0:0:0:
60,132,62329,2,0,P|40:192|80:260,1,125,0|2,0:0|0:0,0:0:0:0:
252,296,62850,1,0,0:0:0:0:
424,228,63111,6,0,L|428:96,1,125,4|0,0:0|0:0,0:0:0:0:
344,40,63503,2,0,P|308:36|276:40,1,62.5,0|2,0:0|0:0,0:0:0:0:
308,124,63763,1,0,0:0:0:0:
212,196,63894,2,0,P|188:256|216:320,1,125,0|0,0:0|1:0,0:0:0:0:
340,252,64285,2,0,L|260:256,1,62.5
120,328,64546,1,0,0:0:0:0:
44,216,64676,2,0,B|28:152|72:156|40:60,1,125,2|0,0:0|0:0,0:0:0:0:
8,12,65068,1,0,0:0:0:0:
152,56,65198,6,0,B|200:80|204:124|204:124|232:120|260:128,1,125,0|0,1:0|0:0,0:0:0:0:
324,156,65589,2,0,P|332:128|323:95,1,62.5,0|2,0:0|0:0,0:0:0:0:
260,32,65850,1,0,0:0:0:0:
260,220,65981,2,0,P|320:240|400:208,1,125,0|0,0:0|1:0,0:0:0:0:
436,156,66372,1,0,0:0:0:0:
356,112,66503,2,0,B|372:68|424:64|424:64|432:20,2,125,0|2|0,0:0|0:0|0:0,0:0:0:0:
460,232,67155,1,0,0:0:0:0:
312,304,67285,6,0,B|284:312|256:300|256:300|252:308|252:308|224:296|188:312,1,125,0|0,1:0|0:0,0:0:0:0:
80,340,67676,2,0,P|72:308|88:268,1,62.5,0|2,0:0|0:0,0:0:0:0:
140,140,67937,2,0,P|148:172|132:212,1,62.5
56,168,68198,1,0,0:0:0:0:
124,56,68329,2,0,P|200:76|224:120,1,125,0|0,1:0|0:0,0:0:0:0:
324,112,68720,2,0,P|304:188|260:212,1,125,2|0,0:0|0:0,0:0:0:0:
268,312,69111,2,0,P|192:292|168:248,1,125,0|0,0:0|1:0,0:0:0:0:
256,32,69633,6,0,L|392:24,1,125,0|2,0:0|0:0,0:0:0:0:
480,80,70024,1,0,0:0:0:0:
392,164,70155,1,0,0:0:0:0:
456,276,70285,1,0,0:0:0:0:
356,364,70416,2,0,P|292:348|268:284,1,125,0|0,1:0|0:0,0:0:0:0:
288,208,70807,1,0,0:0:0:0:
200,84,70937,2,0,L|196:156,1,62.5,2|0,0:0|0:0,0:0:0:0:
116,264,71198,2,0,L|119:201,1,62.5
151,344,71459,6,0,P|90:350|40:316,1,125,0|0,1:0|0:0,0:0:0:0:
119,201,71850,1,0,0:0:0:0:
84,116,71981,2,0,L|80:28,1,62.5,2|0,0:0|0:0,0:0:0:0:
156,0,72242,2,0,P|224:4|256:72,1,125,0|0,0:0|1:0,0:0:0:0:
272,168,72633,2,0,B|272:240|272:240|296:256|316:308,1,125
192,332,73024,2,0,L|52:336,1,125,2|0,0:0|0:0,0:0:0:0:
24,252,73416,1,0,0:0:0:0:
84,136,73546,6,0,L|92:56,1,62.5,0|0,1:0|0:0,0:0:0:0:
184,116,73807,2,0,L|264:123,1,62.5
368,84,74068,2,0,L|374:146,1,62.5,2|0,0:0|0:0,0:0:0:0:
417,239,74329,2,0,L|354:245,1,62.5
232,216,74589,2,0,P|224:248|236:288,1,62.5,0|0,1:0|0:0,0:0:0:0:
168,152,74850,2,0,P|136:144|96:156,1,62.5
248,104,75111,2,0,P|256:72|244:32,1,62.5,2|0,0:0|0:0,0:0:0:0:
320,168,75372,2,0,P|352:176|392:164,1,62.5
456,72,75633,6,0,P|488:100|500:188,1,125,0|0,1:0|0:0,0:0:0:0:
464,260,76024,2,0,L|468:348,1,62.5,0|2,0:0|0:0,0:0:0:0:
384,360,76285,1,0,0:0:0:0:
296,336,76416,2,0,L|293:273,1,62.5
400,156,76676,2,0,P|348:116|288:116,1,125,0|0,1:0|0:0,0:0:0:0:
316,204,77068,1,0,0:0:0:0:
192,196,77198,2,0,L|120:200,1,62.5,2|0,0:0|0:0,0:0:0:0:
0,116,77459,2,0,L|62:112,1,62.5
216,88,77720,6,0,P|280:116|300:172,1,125,0|0,1:0|0:0,0:0:0:0:
284,260,78111,2,0,P|280:304|288:332,1,62.5,0|2,0:0|0:0,0:0:0:0:
412,356,78372,2,0,P|416:312|408:284,1,62.5
460,136,78763,1,0,1:0:0:0:
256,56,79024,1,0,0:0:0:0:
52,136,79285,1,2,0:0:0:0:
256,328,79546,1,0,0:0:0:0:
392,220,79807,6,0,L|388:76,1,125,2|0,0:0|0:0,0:0:0:0:
123,95,80329,2,0,L|120:220,1,125,2|0,0:0|0:0,0:0:0:0:
416,256,80850,2,0,L|412:112,1,125,2|0,0:0|0:0,0:0:0:0:
96,128,81372,2,0,L|92:252,1,125,2|0,0:0|0:0,0:0:0:0:
