osu file format v12

[General]
AudioFilename: Olivia Noelle - Skyscraper (Nightcore Version).mp3
AudioLeadIn: 2000
PreviewTime: 159671
Countdown: 0
SampleSet: Soft
StackLeniency: 0.4
Mode: 0
LetterboxInBreaks: 0

[Editor]
DistanceSpacing: 1.2
BeatDivisor: 4
GridSize: 8

[Metadata]
Title:Skyscraper (Nightcore Mix)
TitleUnicode:Skyscraper (Nightcore Mix)
Artist:Olivia Noelle
ArtistUnicode:Olivia Noelle
Creator:BounceBabe
Version:Normal
Source:
Tags:demi lovato cover
BeatmapID:209417
BeatmapSetID:36400

[Difficulty]
HPDrainRate:4
CircleSize:3
OverallDifficulty:4
ApproachRate:5
SliderMultiplier:1.4
SliderTickRate:2

[Events]
//Background and Video events
0,0,"Lightning.jpg",0,0
//Break Periods
2,115604,122137
//Storyboard Layer 0 (Background)
//Storyboard Layer 1 (Fail)
//Storyboard Layer 2 (Pass)
//Storyboard Layer 3 (Foreground)
//Storyboard Sound Samples
//Background Colour Transformations
3,100,255,255,255

[TimingPoints]
20,480.769230769231,4,2,1,20,1,0
7592,-100,4,2,1,35,0,0
15284,-100,4,2,1,40,0,0
53866,-100,4,2,1,40,0,1
59515,-100,4,2,1,5,0,1
60356,-100,4,2,1,40,0,0
61438,-100,4,1,1,40,0,0
84635,-100,4,1,1,50,0,1
92207,-100,4,1,1,50,0,0
92327,-100,4,1,1,50,0,1
96053,-100,4,1,1,50,0,0
96173,-100,4,1,1,50,0,1
107592,-100,4,1,1,50,0,0
107712,-100,4,1,1,50,0,1
111438,-100,4,1,1,50,0,0
111558,-100,4,1,1,50,0,1
115404,-100,4,1,1,50,0,0
133553,-100,4,2,1,5,0,0
134515,-100,4,2,1,40,0,0
149419,-100,4,1,1,50,0,0
157712,-100,4,1,1,50,0,1
161438,-100,4,1,1,50,0,0
161558,-100,4,1,1,50,0,1
172976,-100,4,2,1,50,0,1
173577,-100,4,2,1,20,0,0
176822,-200,4,2,1,20,0,0

[Colours]
Combo1 : 160,100,150
Combo2 : 255,255,255
Combo3 : 175,175,175
SliderBorder : 255,255,255

[HitObjects]
64,144,19,2,0,P|64:48|160:48,1,210,2|8,0:0|0:0,0:0:0:0:
214,203,1221,1,2,0:0:0:0:
298,203,1462,1,0,0:0:0:0:
336,128,1702,1,2,0:0:0:0:
354,45,1943,2,0,P|448:48|448:144,1,210,2|8,0:0|0:0,0:0:0:0:
32,240,3866,6,0,L|112:224,2,70,2|2|0,0:0|0:0|0:0,0:0:0:0:
32,240,4587,2,0,P|48:304|112:336,1,140,8|0,0:0|0:0,0:0:0:0:
176,288,5308,1,2,0:0:0:0:
256,256,5548,1,2,0:0:0:0:
336,288,5789,1,0,0:0:0:0:
401,335,6029,2,0,P|464:304|480:240,1,140,2|10,0:0|0:0,0:0:0:0:
96,64,7712,22,0,P|192:48|211:138,2,210,4|2|0,0:0|0:0|0:0,0:0:0:0:
80,144,9395,2,0,L|120:208,1,70,2|4,0:0|0:0,0:0:0:0:
176,264,9875,1,2,0:0:0:0:
256,296,10116,1,2,0:0:0:0:
336,264,10356,2,0,P|432:280|451:189,1,210,2|0,0:0|0:0,0:0:0:0:
375,39,11558,6,0,L|295:159,1,140,4|0,0:0|0:0,0:0:0:0:
215,155,12279,2,0,L|137:38,1,140,2|0,0:0|0:0,0:0:0:0:
136,208,13241,2,0,P|256:272|376:208,1,280,2|0,0:0|0:0,0:0:0:0:
48,56,15404,21,4,0:0:0:0:
140,56,15645,2,0,L|212:56,1,70,2|0,0:0|0:0,0:0:0:0:
300,56,16125,2,0,P|372:64|428:112,2,140,2|2|0,0:0|0:0|0:0,0:0:0:0:
210,56,17327,6,0,L|160:112,1,70,6|2,0:0|0:0,0:0:0:0:
112,176,17808,1,2,0:0:0:0:
64,256,18048,2,0,P|80:320|144:320,1,140,2|0,0:0|0:0,0:0:0:0:
368,192,19250,22,0,L|304:320,1,140,4|0,0:0|0:0,0:0:0:0:
206,317,19971,2,0,L|144:192,1,140,2|2,0:0|0:0,0:0:0:0:
256,80,20933,2,0,B|208:190|64:-33|18:74,1,280,2|8,0:0|0:0,0:0:0:0:
128,208,22375,1,0,0:0:0:0:
172,280,22616,1,0,0:0:0:0:
256,304,22856,6,0,B|304:272|368:336|400:304,2,140,4|2|8,0:0|0:0|0:0,0:0:0:0:
240,224,24058,2,0,L|296:168,1,70,2|0,0:0|0:0,0:0:0:0:
344,112,24539,1,2,0:0:0:0:
400,48,24779,22,0,B|456:59|456:149|501:149,2,140,2|2|8,0:0|0:0|0:0,0:0:0:0:
344,112,25981,2,0,L|276:88,1,70,0|0,0:0|0:0,0:0:0:0:
200,56,26462,1,2,0:0:0:0:
120,32,26702,6,0,P|64:56|56:128,1,140,2|0,0:0|0:0,0:0:0:0:
48,296,27664,2,0,P|104:272|112:200,1,140,2|0,0:0|0:0,0:0:0:0:
256,120,28625,2,0,B|216:224|296:224|256:328,1,210,2|0,0:0|0:0,0:0:0:0:
424,344,29827,21,2,0:0:0:0:
432,256,30068,1,0,0:0:0:0:
496,192,30308,1,2,0:0:0:0:
464,112,30548,22,0,P|400:64|336:64,3,140,4|2|2|2,0:0|0:0|0:0|0:0,0:0:0:0:
169,62,32471,1,2,0:0:0:0:
96,112,32712,1,8,0:0:0:0:
176,144,32952,2,0,L|224:208,2,70,2|0|2,0:0|0:0|0:0,0:0:0:0:
424,192,34154,1,0,0:0:0:0:
320,328,34635,6,0,P|377:326|441:278,2,140,4|2|0,0:0|0:0|0:0,0:0:0:0:
184,224,36077,1,2,0:0:0:0:
24,304,36558,1,2,0:0:0:0:
104,264,36798,21,0,0:0:0:0:
64,192,37039,2,0,L|112:128,1,70,2|2,0:0|0:0,0:0:0:0:
80,56,37520,2,0,P|144:40|180:96,1,140,2|0,0:0|0:0,0:0:0:0:
256,192,38481,12,8,40404,0:0:0:0:
342,62,40885,5,2,0:0:0:0:
416,112,41125,1,0,0:0:0:0:
448,192,41366,2,0,L|400:256,2,70,2|0|0,0:0|0:0|0:0,0:0:0:0:
416,112,42087,1,2,0:0:0:0:
256,48,42568,1,2,0:0:0:0:
256,192,42688,12,8,44250,0:0:0:0:
32,332,45212,21,2,0:0:0:0:
32,332,45452,1,2,0:0:0:0:
80,264,45693,2,0,L|128:200,1,70,2|0,0:0|0:0,0:0:0:0:
176,136,46173,5,4,0:0:0:0:
256,96,46414,1,2,0:0:0:0:
374,216,46894,1,2,0:0:0:0:
256,336,47375,1,2,0:0:0:0:
256,96,47856,21,2,0:0:0:0:
192,160,48096,1,8,0:0:0:0:
256,224,48337,1,2,0:0:0:0:
320,160,48577,1,2,0:0:0:0:
256,96,48818,1,0,0:0:0:0:
464,192,50019,6,0,P|448:304|352:320,1,210,4|0,0:0|0:0,0:0:0:0:
320,256,50981,1,2,0:0:0:0:
256,192,51221,1,0,0:0:0:0:
192,256,51462,1,2,0:0:0:0:
145,324,51702,22,0,P|64:304|48:192,1,210,8|2,0:0|0:0,0:0:0:0:
80,112,52664,1,2,0:0:0:0:
144,48,52904,2,0,L|256:48,2,105,2|0|0,0:0|0:0|0:0,0:0:0:0:
256,192,53866,12,8,55789,0:0:0:0:
170,125,56269,6,0,L|218:61,1,70,8|0,0:0|0:0,0:0:0:0:
298,69,56750,2,0,L|340:125,2,70,8|10|2,0:0|0:0|0:0,0:0:0:0:
256,192,57712,12,0,59635,0:0:0:0:
256,192,60356,21,2,0:0:0:0:
384,352,61558,6,2,L|432:288,1,70,10|2,0:0|0:0,0:0:0:0:
480,224,62039,1,0,0:0:0:0:
448,144,62279,2,2,P|464:84|400:64,1,140
320,64,63000,1,0,0:0:0:0:
320,64,63241,6,0,L|240:64,1,70,0|10,0:0|0:0,0:0:0:0:
160,64,63721,2,0,L|96:112,1,70,2|0,0:0|0:0,0:0:0:0:
32,160,64202,2,2,P|16:220|77:241,1,140
148,288,64923,1,0,0:0:0:0:
185,214,65164,22,2,L|329:214,2,140,4|2|0,0:0|0:0|0:0,0:0:0:0:
160,128,66366,1,2,0:0:0:0:
216,64,66606,1,0,0:0:0:0:
296,64,66846,1,2,0:0:0:0:
352,128,67087,1,0,0:0:0:0:
408,64,67327,2,2,P|436:112|432:160,2,105,10|2|2,0:0|0:0|0:0,0:0:0:0:
256,136,68529,5,0,0:0:0:0:
184,88,68769,1,0,0:0:0:0:
96,96,69010,1,0,0:0:0:0:
64,176,69250,2,2,P|80:240|144:272,1,140,10|2,0:0|0:0,0:0:0:0:
188,344,69971,2,0,L|332:344,1,140,2|0,0:0|0:0,0:0:0:0:
384,272,70693,21,0,0:0:0:0:
416,192,70933,2,0,L|384:128,1,70,0|10,0:0|0:0,0:0:0:0:
320,64,71414,2,0,P|256:40|192:64,1,140,0|2,0:0|0:0,0:0:0:0:
96,304,72616,5,0,0:0:0:0:
96,304,72856,2,0,L|32:336,2,70,0|2|8,0:0|0:0|0:0,0:0:0:0:
176,256,73577,1,0,0:0:0:0:
176,168,73818,22,0,P|140:108|176:56,1,140,2|0,0:0|0:0,0:0:0:0:
256,84,74539,1,0,0:0:0:0:
336,56,74779,1,0,0:0:0:0:
416,84,75019,2,2,P|440:128|416:172,2,105,10|2|2,0:0|0:0|0:0,0:0:0:0:
256,120,76221,5,0,0:0:0:0:
272,208,76462,1,0,0:0:0:0:
336,272,76702,1,0,0:0:0:0:
416,308,76943,2,2,P|367:352|297:348,1,140,10|2,0:0|0:0,0:0:0:0:
212,348,77664,2,2,P|142:352|93:307,1,140
64,224,78385,21,0,0:0:0:0:
96,144,78625,1,0,0:0:0:0:
112,64,78866,2,2,B|160:32|160:32|216:96,1,140,10|2,0:0|0:0,0:0:0:0:
297,93,79587,2,2,B|352:32|352:32|400:64,1,140
416,144,80308,5,0,0:0:0:0:
448,224,80548,1,0,0:0:0:0:
372,260,80789,2,2,P|364:324|300:348,1,140,0|0,0:0|0:0,0:0:0:0:
212,348,81510,2,2,P|148:324|140:260,1,140,0|0,0:0|0:0,0:0:0:0:
64,224,82231,1,0,0:0:0:0:
96,144,82471,1,0,0:0:0:0:
176,180,82712,2,2,L|282:181,2,105,2|2|2,0:0|0:0|0:0,0:0:0:0:
361,319,84635,6,2,L|137:319,1,210,6|2,0:0|0:0,0:0:0:0:
68,172,85837,1,0,0:0:0:0:
76,84,86077,1,8,0:0:0:0:
160,48,86318,1,0,0:0:0:0:
156,136,86558,2,2,L|236:232,2,105
151,319,88000,1,8,0:0:0:0:
151,319,88481,6,2,L|375:319,1,210
444,172,89683,1,0,0:0:0:0:
436,84,89923,1,8,0:0:0:0:
352,48,90164,1,0,0:0:0:0:
356,136,90404,2,2,L|276:232,2,105
272,96,91366,2,2,L|192:192,2,105
256,192,92327,12,8,93770,0:0:0:0:
256,88,94250,21,0,0:0:0:0:
144,208,94731,1,0,0:0:0:0:
192,272,94971,1,8,0:0:0:0:
256,320,95212,2,0,P|336:320|352:272,1,140,8|0,0:0|0:0,0:0:0:0:
400,208,95933,1,4,0:0:0:0:
256,192,96173,12,8,98096,0:0:0:0:
406,144,99058,5,2,0:0:0:0:
438,224,99298,1,0,0:0:0:0:
406,304,99539,1,10,0:0:0:0:
326,336,99779,2,2,L|182:336,3,140,0|0|0|0,0:0|0:0|0:0|0:0,0:0:0:0:
96,192,101702,21,2,0:0:0:0:
64,112,101943,1,0,0:0:0:0:
148,124,102183,1,2,0:0:0:0:
148,124,102423,2,0,L|212:76,1,70,0|2,0:0|0:0,0:0:0:0:
256,336,103385,1,8,0:0:0:0:
406,240,103866,5,2,0:0:0:0:
438,160,104106,1,0,0:0:0:0:
406,80,104346,1,2,0:0:0:0:
326,48,104587,2,2,L|182:48,2,140
80,112,106270,21,2,0:0:0:0:
96,192,106510,1,0,0:0:0:0:
80,272,106750,2,2,P|132:348|240:328,1,210
256,192,107712,12,8,109154,0:0:0:0:
252,316,109635,5,0,0:0:0:0:
176,164,110116,1,8,0:0:0:0:
216,92,110356,1,0,0:0:0:0:
296,92,110596,2,0,L|336:168,2,70
256,192,111558,12,12,113481,0:0:0:0:
320,320,114202,21,2,0:0:0:0:
256,264,114443,2,2,L|256:148,2,105,0|0|0,0:0|0:0|0:0,0:0:0:0:
192,320,115404,1,4,0:0:0:0:
36,272,123337,5,4,0:0:0:0:
36,96,123818,1,2,0:0:0:0:
180,192,124298,1,2,0:0:0:0:
36,272,124779,1,2,0:0:0:0:
180,192,125260,6,2,L|260:192,2,70,8|2|8,0:0|0:0|0:0,0:0:0:0:
144,112,125981,2,0,P|192:64|256:80,1,140,8|8,0:0|0:0,0:0:0:0:
256,79,126702,2,2,P|320:63|368:111,1,140,8|0,0:0|0:0,0:0:0:0:
400,192,127423,1,8,0:0:0:0:
352,264,127664,2,2,P|256:300|160:264,1,210,4|8,0:0|0:0,0:0:0:0:
160,96,128866,21,0,0:0:0:0:
88,52,129106,1,0,0:0:0:0:
84,136,129346,2,0,L|48:196,2,70
256,160,130308,1,8,0:0:0:0:
256,160,130548,1,0,0:0:0:0:
256,192,130789,12,0,134154,0:0:0:0:
480,320,134635,21,8,0:0:0:0:
448,240,134875,2,0,L|416:176,1,70,0|2,0:0|0:0,0:0:0:0:
452,100,135356,2,0,P|388:88|340:140,1,140,2|0,0:0|0:0,0:0:0:0:
171,138,136318,2,0,P|124:88|60:100,1,140,2|0,0:0|0:0,0:0:0:0:
95,177,137039,2,0,L|64:240,1,70,2|2,0:0|0:0,0:0:0:0:
256,64,138000,5,0,0:0:0:0:
215,227,138481,2,0,B|171:291|171:291|215:339,1,140,8|0,0:0|0:0,0:0:0:0:
299,335,139202,2,0,B|341:289|341:289|297:225,1,140,2|2,0:0|0:0,0:0:0:0:
360,68,140164,22,0,L|136:68,1,210,4|2,0:0|0:0,0:0:0:0:
80,112,141125,1,2,0:0:0:0:
48,192,141366,2,0,P|16:240|32:288,1,105,2|0,0:0|0:0,0:0:0:0:
256,192,142327,12,2,144250,0:0:0:0:
256,64,144731,5,2,0:0:0:0:
256,144,144971,2,0,L|256:224,1,70,0|2,0:0|0:0,0:0:0:0:
312,280,145452,2,0,P|256:316|200:280,1,140,0|2,0:0|0:0,0:0:0:0:
256,192,146173,12,2,148096,0:0:0:0:
48,336,149058,21,2,0:0:0:0:
48,336,149539,1,8,0:0:0:0:
96,176,150020,6,2,P|52:100|144:64,1,210,4|0,0:0|0:0,0:0:0:0:
320,244,151462,1,8,0:0:0:0:
280,320,151702,1,0,0:0:0:0:
369,321,151943,2,2,P|460:284|416:208,1,210,4|0,0:0|0:0,0:0:0:0:
208,64,153385,21,8,0:0:0:0:
186,145,153625,2,2,L|330:145,3,140
256,304,155548,1,2,0:0:0:0:
115,94,156270,6,2,L|67:158,1,70,8|0,0:0|0:0,0:0:0:0:
71,234,156750,2,2,L|113:290,2,70,8|8|0,0:0|0:0|0:0,0:0:0:0:
144,192,157471,1,10,0:0:0:0:
256,192,157712,12,8,159154,0:0:0:0:
252,244,159635,21,0,0:0:0:0:
144,112,160116,1,8,0:0:0:0:
216,70,160356,1,0,0:0:0:0:
296,70,160596,1,8,0:0:0:0:
368,112,160837,2,0,L|432:176,2,70,8|0|0,0:0|0:0|0:0,0:0:0:0:
256,192,161558,12,12,163481,0:0:0:0:
128,320,164202,5,12,0:0:0:0:
384,320,164923,1,12,0:0:0:0:
416,240,165404,22,0,P|440:136|408:40,2,210,4|0|0,0:0|0:0|0:0,0:0:0:0:
328,96,167327,2,0,B|368:160|320:208|320:208|312:256|336:296,2,210,4|0|0,0:0|0:0|0:0,0:0:0:0:
256,144,169010,1,0,0:0:0:0:
184,96,169250,6,0,B|144:160|192:208|192:208|200:256|176:296,2,210,4|0|0,0:0|0:0|0:0,0:0:0:0:
96,240,171173,2,0,P|72:136|104:40,2,210,4|0|0,0:0|0:0|0:0,0:0:0:0:
256,296,173096,21,2,0:0:0:0:
256,296,173577,1,2,0:0:0:0:
80,48,175500,6,0,L|144:96,1,70,2|0,0:0|0:0,0:0:0:0:
216,64,175981,1,2,0:0:0:0:
296,64,176221,1,0,0:0:0:0:
376,90,176462,2,0,L|432:48,1,70,0|2,0:0|0:0,0:0:0:0:
256,192,176943,12,4,178866,0:0:0:0:
