osu file format v12

[General]
AudioFilename: Olivia Noelle - Skyscraper (Nightcore Version).mp3
AudioLeadIn: 2000
PreviewTime: 159671
Countdown: 0
SampleSet: Normal
StackLeniency: 0.6
Mode: 0
LetterboxInBreaks: 0

[Editor]
DistanceSpacing: 1.3
BeatDivisor: 4
GridSize: 8

[Metadata]
Title:Skyscraper (Nightcore Mix)
TitleUnicode:Skyscraper (Nightcore Mix)
Artist:Olivia Noelle
ArtistUnicode:Olivia Noelle
Creator:BounceBabe
Version:Hard
Source:
Tags:demi lovato cover
BeatmapID:117613
BeatmapSetID:36400

[Difficulty]
HPDrainRate:6
CircleSize:4
OverallDifficulty:6
ApproachRate:7
SliderMultiplier:1.5
SliderTickRate:1

[Events]
//Background and Video events
0,0,"Lightning.jpg",0,0
//Break Periods
2,115604,122437
//Storyboard Layer 0 (Background)
//Storyboard Layer 1 (Fail)
//Storyboard Layer 2 (Pass)
//Storyboard Layer 3 (Foreground)
//Storyboard Sound Samples
//Background Colour Transformations
3,100,255,255,255

[TimingPoints]
20,480.769230769231,4,2,1,20,1,0
7592,-100,4,2,1,35,0,0
15044,-100,4,2,1,40,0,0
53866,-100,4,2,1,40,0,1
59515,-100,4,2,1,5,0,1
60356,-100,4,2,1,40,0,0
61438,-100,4,1,1,40,0,0
84635,-100,4,1,1,50,0,1
92207,-100,4,1,1,50,0,0
92327,-100,4,1,1,50,0,1
96053,-100,4,1,1,50,0,0
96173,-100,4,1,1,50,0,1
107592,-100,4,1,1,50,0,0
107712,-100,4,1,1,50,0,1
111438,-100,4,1,1,50,0,0
111558,-100,4,1,1,50,0,1
115404,-100,4,1,1,50,0,0
134034,-100,4,2,1,5,0,0
134515,-100,4,2,1,40,0,0
149899,-100,4,1,1,50,0,0
157712,-100,4,1,1,50,0,1
161438,-100,4,1,1,50,0,0
161558,-100,4,1,1,50,0,1
172976,-100,4,2,1,50,0,1
173577,-100,4,2,1,20,0,0
176822,-200,4,2,1,20,0,0

[Colours]
Combo1 : 160,100,150
Combo2 : 255,255,255
Combo3 : 175,175,175
SliderBorder : 255,255,255

[HitObjects]
72,152,19,1,2,0:0:0:0:
144,88,260,1,0,0:0:0:0:
160,184,500,1,8,0:0:0:0:
160,184,741,1,0,0:0:0:0:
128,344,1221,2,0,B|208:344,1,75
256,264,1702,1,0,0:0:0:0:
312,344,1943,5,2,0:0:0:0:
360,256,2183,1,0,0:0:0:0:
456,240,2423,1,8,0:0:0:0:
360,256,2664,1,0,0:0:0:0:
256,48,3385,1,2,0:0:0:0:
128,136,3866,22,0,B|72:184,1,75,2|0,0:0|0:0,0:0:0:0:
152,240,4346,2,0,B|176:320,1,75,8|0,0:0|0:0,0:0:0:0:
256,136,5068,1,0,0:0:0:0:
256,40,5308,1,0,0:0:0:0:
256,136,5548,1,0,0:0:0:0:
376,256,5789,6,0,B|432:208,1,75,2|0,0:0|0:0,0:0:0:0:
360,144,6269,2,0,B|336:64,1,75,8|0,0:0|0:0,0:0:0:0:
256,248,6991,1,0,0:0:0:0:
256,344,7231,1,0,0:0:0:0:
160,320,7471,1,0,0:0:0:0:
160,320,7712,22,0,B|160:180|160:180|156:128|108:116|60:128|60:188,1,300,4|2,0:0|0:0,0:0:0:0:
60,184,8914,1,0,0:0:0:0:
72,280,9154,1,8,0:0:0:0:
160,320,9395,1,2,0:0:0:0:
160,320,9635,6,0,B|256:216|352:320,1,225,4|2,0:0|0:0,0:0:0:0:
352,320,10596,1,2,0:0:0:0:
440,280,10837,1,2,0:0:0:0:
451,184,11077,1,8,0:0:0:0:
451,184,11318,1,0,0:0:0:0:
451,184,11558,22,0,B|452:128|404:116|356:128|352:180|352:180|352:320,1,300,4|2,0:0|0:0,0:0:0:0:
352,320,12760,1,2,0:0:0:0:
160,316,13241,1,8,0:0:0:0:
256,144,13721,1,2,0:0:0:0:
256,144,13962,1,8,0:0:0:0:
256,144,14443,5,8,0:0:0:0:
224,56,14683,1,0,0:0:0:0:
136,96,14923,1,2,0:0:0:0:
168,184,15164,1,0,0:0:0:0:
168,184,15404,22,0,B|140:248|140:248|116:248|88:252|72:276|64:308|64:308|108:336,1,225,4|0,0:0|0:0,0:0:0:0:
200,336,16366,2,0,B|256:285,1,75,2|0,0:0|0:0,0:0:0:0:
256,285,16846,2,0,B|310:335,1,75,8|2,0:0|0:0,0:0:0:0:
405,333,17327,2,0,B|447:307|447:307|439:275|423:251|395:247|371:247|371:247|343:183,1,225,4|0,0:0|0:0,0:0:0:0:
384,96,18289,5,2,0:0:0:0:
304,40,18529,1,0,0:0:0:0:
208,40,18770,1,8,0:0:0:0:
128,96,19010,1,2,0:0:0:0:
40,144,19250,22,0,B|56:188|88:204|124:208|168:184,1,150,4|0,0:0|0:0,0:0:0:0:
472,144,19971,2,0,B|456:188|424:204|388:208|344:184,1,150,4|0,0:0|0:0,0:0:0:0:
256,144,20693,1,2,0:0:0:0:
256,240,20933,2,0,B|256:324,1,75,0|8,0:0|0:0,0:0:0:0:
256,315,21895,1,8,0:0:0:0:
96,328,22375,1,0,0:0:0:0:
72,232,22616,1,8,0:0:0:0:
172,224,22856,1,2,0:0:0:0:
172,224,23096,6,0,B|184:172|256:124|332:176|340:224,1,225,4|0,0:0|0:0,0:0:0:0:
340,224,24058,2,0,B|388:168,1,75,2|0,0:0|0:0,0:0:0:0:
488,184,24539,1,8,0:0:0:0:
456,272,24779,1,2,0:0:0:0:
364,308,25020,22,0,B|312:308|256:364|200:308|144:308,1,225,4|2,0:0|0:0,0:0:0:0:
48,304,25981,2,0,B|16:232,1,75,2|0,0:0|0:0,0:0:0:0:
20,148,26462,2,0,B|52:76,1,75,8|2,0:0|0:0,0:0:0:0:
144,64,26943,6,0,B|109:143|175:197,1,150,4|0,0:0|0:0,0:0:0:0:
256,136,27664,1,0,0:0:0:0:
336,197,27904,2,0,B|403:143|368:64,1,150,4|0,0:0|0:0,0:0:0:0:
256,232,28866,1,8,0:0:0:0:
256,136,29106,1,0,0:0:0:0:
381,356,29587,2,0,B|336:296,1,75,8|2,0:0|0:0,0:0:0:0:
176,296,30068,2,0,B|128:360,1,75,2|2,0:0|0:0,0:0:0:0:
132,356,30548,1,0,0:0:0:0:
80,272,30789,6,0,B|4:228|36:136,1,150,4|0,0:0|0:0,0:0:0:0:
112,88,31510,1,0,0:0:0:0:
192,144,31750,1,2,0:0:0:0:
256,72,31991,1,0,0:0:0:0:
320,144,32231,1,8,0:0:0:0:
400,88,32471,1,0,0:0:0:0:
478,143,32712,2,0,B|508:228|432:272,1,150,4|0,0:0|0:0,0:0:0:0:
256,72,33673,5,2,0:0:0:0:
208,160,33914,2,0,B|177:178|157:214,1,75,0|8,0:0|0:0,0:0:0:0:
96,288,34395,1,2,0:0:0:0:
192,304,34635,2,0,B|220:304|256:268|256:268|292:304|320:304,1,150,4|2,0:0|0:0,0:0:0:0:
416,288,35356,1,0,0:0:0:0:
355,214,35596,2,0,B|335:178|304:160,1,75,8|2,0:0|0:0,0:0:0:0:
168,296,36318,22,0,P|256:356|344:296,1,225,4|2,0:0|0:0,0:0:0:0:
376,200,37279,1,0,0:0:0:0:
304,136,37520,1,2,0:0:0:0:
208,136,37760,1,0,0:0:0:0:
136,200,38000,1,8,0:0:0:0:
136,200,38241,1,0,0:0:0:0:
40,184,38481,6,0,B|16:252|100:344|176:320,1,225,4|2,0:0|0:0,0:0:0:0:
256,160,39683,2,0,B|256:80,1,75,0|8,0:0|0:0,0:0:0:0:
256,85,40164,1,0,0:0:0:0:
256,85,40404,1,2,0:0:0:0:
40,200,40885,21,0,0:0:0:0:
120,256,41125,1,0,0:0:0:0:
208,304,41366,1,2,0:0:0:0:
304,304,41606,1,0,0:0:0:0:
392,256,41846,1,8,0:0:0:0:
472,200,42087,1,0,0:0:0:0:
472,200,42327,6,0,B|496:132|412:40|339:62,1,225,4|2,0:0|0:0,0:0:0:0:
256,224,43529,1,0,0:0:0:0:
208,312,43769,1,8,0:0:0:0:
304,313,44010,1,0,0:0:0:0:
352,232,44250,21,0,0:0:0:0:
304,152,44491,1,2,0:0:0:0:
208,152,44731,1,0,0:0:0:0:
160,232,44971,1,2,0:0:0:0:
72,200,45212,2,0,B|104:128,1,75,2|0,0:0|0:0,0:0:0:0:
172,68,45693,2,0,B|208:135,1,75,0|2,0:0|0:0,0:0:0:0:
304,136,46173,6,0,B|339:69,1,75,4|0,0:0|0:0,0:0:0:0:
417,123,46654,2,0,B|448:192,1,75,0|0,0:0|0:0,0:0:0:0:
416,268,47135,2,0,B|366:264|336:216|336:216|256:312,1,225,8|0,0:0|0:0,0:0:0:0:
256,312,48096,2,0,B|176:216|176:216|146:264|96:268,1,225,6|0,0:0|0:0,0:0:0:0:
64,184,49058,1,2,0:0:0:0:
104,104,49298,1,0,0:0:0:0:
192,80,49539,1,2,0:0:0:0:
280,80,49779,22,0,B|360:68,1,75,0|4,0:0|0:0,0:0:0:0:
440,120,50260,2,0,B|369:144,1,75,0|0,0:0|0:0,0:0:0:0:
368,240,50741,2,0,B|439:265,1,75,0|2,0:0|0:0,0:0:0:0:
354,315,51221,2,0,B|280:304,1,75,0|8,0:0|0:0,0:0:0:0:
256,208,51702,1,0,0:0:0:0:
256,208,51943,1,4,0:0:0:0:
172,68,52423,6,0,B|104:108,1,75,0|2,0:0|0:0,0:0:0:0:
56,192,52904,2,0,B|136:192,1,75,0|0,0:0|0:0,0:0:0:0:
172,316,53385,2,0,B|107:277,1,75,2|0,0:0|0:0,0:0:0:0:
256,192,53866,12,2,55789,0:0:0:0:
340,316,56269,22,0,B|408:276,1,75,0|2,0:0|0:0,0:0:0:0:
456,192,56750,2,0,B|376:192,1,75,0|2,0:0|0:0,0:0:0:0:
340,68,57231,2,0,B|404:106,1,75,2|2,0:0|0:0,0:0:0:0:
256,192,57712,12,0,59635,0:0:0:0:
256,192,60356,5,2,0:0:0:0:
256,72,61558,5,2,0:0:0:0:
256,312,62279,1,2,0:0:0:0:
88,240,62760,22,0,B|144:289,1,75,0|8,0:0|0:0,0:0:0:0:
88,144,63241,2,0,B|145:95,1,75,0|2,0:0|0:0,0:0:0:0:
400,192,64202,1,2,0:0:0:0:
256,296,64683,6,0,B|256:216,1,75,0|8,0:0|0:0,0:0:0:0:
256,221,65164,1,0,0:0:0:0:
256,128,65404,2,2,B|256:88|212:72|168:88|168:132|168:132|168:224,1,225,6|0,0:0|0:0,0:0:0:0:
344,220,66606,1,2,0:0:0:0:
256,220,66846,1,8,0:0:0:0:
256,312,67087,1,0,0:0:0:0:
256,312,67327,2,2,B|256:352|300:368|344:352|344:308|344:308|344:216,1,225,6|0,0:0|0:0,0:0:0:0:
88,188,68529,22,0,B|120:116,1,75,0|8,0:0|0:0,0:0:0:0:
208,96,69010,1,0,0:0:0:0:
256,76,69130,1,0,0:0:0:0:
304,96,69250,1,2,0:0:0:0:
394,119,69491,2,0,B|424:188,1,75,0|0,0:0|0:0,0:0:0:0:
424,188,69971,1,2,0:0:0:0:
88,320,70452,6,0,B|136:248|218:272,1,150,0|8,0:0|0:0,0:0:0:0:
256,184,71173,1,2,0:0:0:0:
296,272,71414,2,2,B|378:249|426:321,1,150,0|2,0:0|0:0,0:0:0:0:
416,144,72616,21,8,0:0:0:0:
360,72,72856,2,0,B|312:132,1,75,0|2,0:0|0:0,0:0:0:0:
256,208,73337,1,0,0:0:0:0:
256,208,73577,1,0,0:0:0:0:
200,132,73818,2,2,B|154:74,1,75,0|2,0:0|0:0,0:0:0:0:
80,136,74298,1,0,0:0:0:0:
80,232,74539,1,8,0:0:0:0:
104,328,74779,1,0,0:0:0:0:
200,312,75019,2,2,B|252:284|256:220|256:220|260:284|312:312,1,225,2|2,0:0|0:0,0:0:0:0:
488,272,76221,5,0,0:0:0:0:
480,176,76462,1,8,0:0:0:0:
408,108,76702,1,0,0:0:0:0:
372,92,76822,1,0,0:0:0:0:
336,84,76943,2,2,B|300:108|300:108|256:200|212:108|212:108|168:84,1,225,2|2,0:0|0:0,0:0:0:0:
56,224,78144,1,0,0:0:0:0:
56,224,78385,1,8,0:0:0:0:
136,272,78625,1,0,0:0:0:0:
180,192,78866,22,2,B|256:252|212:292|300:292|256:252|332:192,1,225,2|2,0:0|0:0,0:0:0:0:
488,104,80068,1,0,0:0:0:0:
448,192,80308,1,8,0:0:0:0:
392,112,80548,1,0,0:0:0:0:
393,112,80669,1,0,0:0:0:0:
392,112,80789,6,2,B|320:48|296:112|296:112|304:168|257:204,1,225,2|2,0:0|0:0,0:0:0:0:
320,280,81750,1,0,0:0:0:0:
256,352,81991,1,0,0:0:0:0:
192,280,82231,1,8,0:0:0:0:
128,352,82471,1,0,0:0:0:0:
96,320,82592,1,0,0:0:0:0:
64,280,82712,2,2,P|24:240|40:192,2,112.5
256,336,84635,6,2,B|392:336|392:192,1,225,6|2,0:0|0:0,0:0:0:0:
256,48,86077,1,8,0:0:0:0:
256,48,86558,2,2,B|120:48|120:192,1,225,6|2,0:0|0:0,0:0:0:0:
256,336,88000,1,8,0:0:0:0:
328,272,88241,1,0,0:0:0:0:
344,240,88361,1,0,0:0:0:0:
355,216,88481,6,2,B|384:152|348:88|348:88|256:88,1,225,6|2,0:0|0:0,0:0:0:0:
256,336,89923,1,8,0:0:0:0:
256,336,90404,2,2,B|164:336|164:336|128:272|160:200,1,225,6|2,0:0|0:0,0:0:0:0:
448,192,91846,1,8,0:0:0:0:
360,192,92087,1,0,0:0:0:0:
360,192,92207,1,0,0:0:0:0:
360,192,92327,1,4,0:0:0:0:
256,192,92447,12,8,93770,0:0:0:0:
120,192,94250,21,6,0:0:0:0:
392,192,94971,1,2,0:0:0:0:
120,192,95693,1,8,0:0:0:0:
208,192,95933,1,0,0:0:0:0:
208,192,96053,1,0,0:0:0:0:
208,192,96173,1,4,0:0:0:0:
256,192,96294,12,8,97616,0:0:0:0:
256,192,98096,5,4,0:0:0:0:
256,192,98818,1,0,0:0:0:0:
256,192,99058,1,8,0:0:0:0:
192,120,99298,1,0,0:0:0:0:
256,48,99539,1,8,0:0:0:0:
320,120,99779,1,0,0:0:0:0:
320,120,99899,1,0,0:0:0:0:
320,120,100020,22,2,B|412:128|412:208|412:208|344:264,1,225,6|2,0:0|0:0,0:0:0:0:
256,288,100981,2,0,B|256:212,1,75,0|0,0:0|0:0,0:0:0:0:
192,120,101462,1,8,0:0:0:0:
192,120,101702,1,0,0:0:0:0:
192,120,101943,2,2,B|100:128|100:208|100:208|163:260,1,225,6|2,0:0|0:0,0:0:0:0:
256,288,102904,2,0,B|256:213,1,75,0|0,0:0|0:0,0:0:0:0:
320,128,103385,1,8,0:0:0:0:
392,56,103625,1,0,0:0:0:0:
392,56,103866,6,2,B|448:108|448:108|464:188|408:244,1,225,6|2,0:0|0:0,0:0:0:0:
336,312,104827,1,0,0:0:0:0:
256,248,105068,1,0,0:0:0:0:
176,312,105308,1,8,0:0:0:0:
104,244,105548,1,0,0:0:0:0:
104,244,105789,2,2,B|48:188|64:108|64:108|120:56,1,225,6|2,0:0|0:0,0:0:0:0:
256,312,107231,21,8,0:0:0:0:
256,216,107471,1,0,0:0:0:0:
256,216,107592,1,0,0:0:0:0:
256,216,107712,1,4,0:0:0:0:
256,192,107832,12,8,109154,0:0:0:0:
256,192,109635,5,4,0:0:0:0:
256,96,110596,21,0,0:0:0:0:
256,288,111077,1,8,0:0:0:0:
256,192,111318,1,0,0:0:0:0:
256,192,111438,1,0,0:0:0:0:
256,192,111558,1,4,0:0:0:0:
256,192,111678,12,8,113000,0:0:0:0:
256,192,113481,5,4,0:0:0:0:
80,192,114202,21,0,0:0:0:0:
152,120,114443,2,0,B|208:72,1,75,4|0,0:0|0:0,0:0:0:0:
303,71,114923,2,0,B|359:119,1,75,0|0,0:0|0:0,0:0:0:0:
432,192,115404,1,4,0:0:0:0:
104,192,123337,5,6,0:0:0:0:
256,344,123818,1,6,0:0:0:0:
408,192,124298,1,6,0:0:0:0:
256,40,124779,1,6,0:0:0:0:
128,344,125260,6,0,B|144:308|176:288,1,75,0|10,0:0|0:0,0:0:0:0:
208,192,125741,1,0,0:0:0:0:
256,104,125981,1,2,0:0:0:0:
208,192,126221,1,0,0:0:0:0:
304,192,126462,1,0,0:0:0:0:
336,288,126702,2,0,B|369:309|385:345,1,75,8|6,0:0|0:0,0:0:0:0:
256,104,127664,1,4,0:0:0:0:
104,192,128145,22,0,B|132:116,1,75,8|2,0:0|0:0,0:0:0:0:
184,40,128625,1,0,0:0:0:0:
256,104,128866,1,2,0:0:0:0:
328,40,129106,1,0,0:0:0:0:
382,121,129346,2,0,B|408:192,1,75,0|8,0:0|0:0,0:0:0:0:
440,288,129827,1,2,0:0:0:0:
72,288,130308,1,8,0:0:0:0:
72,288,130548,1,4,0:0:0:0:
256,192,130789,12,0,134154,0:0:0:0:
256,192,134635,21,2,0:0:0:0:
320,120,134875,2,0,B|400:120,1,75
464,192,135356,1,0,0:0:0:0:
392,264,135596,2,0,B|317:264,1,75,8|0,0:0|0:0,0:0:0:0:
256,192,136077,1,0,0:0:0:0:
160,192,136318,1,0,0:0:0:0:
64,192,136558,1,2,0:0:0:0:
320,120,137520,5,8,0:0:0:0:
256,48,137760,1,0,0:0:0:0:
192,120,138000,1,0,0:0:0:0:
256,192,138241,1,2,0:0:0:0:
256,192,138481,21,2,0:0:0:0:
192,120,138721,2,0,B|112:120,1,75
56,192,139202,1,0,0:0:0:0:
120,264,139443,2,0,B|195:264,1,75,8|0,0:0|0:0,0:0:0:0:
256,192,139923,1,0,0:0:0:0:
352,192,140164,1,0,0:0:0:0:
448,192,140404,1,2,0:0:0:0:
120,264,140885,5,0,0:0:0:0:
192,328,141125,1,0,0:0:0:0:
256,256,141366,1,8,0:0:0:0:
320,328,141606,1,0,0:0:0:0:
392,264,141846,1,0,0:0:0:0:
392,264,142087,1,0,0:0:0:0:
256,160,142327,1,2,0:0:0:0:
256,192,142447,12,2,144250,0:0:0:0:
392,120,144731,21,0,0:0:0:0:
320,56,144971,1,0,0:0:0:0:
256,128,145212,1,8,0:0:0:0:
192,56,145452,1,0,0:0:0:0:
120,120,145692,1,0,0:0:0:0:
120,120,145933,1,0,0:0:0:0:
256,224,146173,1,2,0:0:0:0:
256,192,146414,12,8,149539,0:0:0:0:
72,192,150020,6,2,B|92:108|176:92,1,150,14|0,0:0|0:0,0:0:0:0:
172,92,150741,1,0,0:0:0:0:
256,144,150981,1,0,0:0:0:0:
339,92,151221,1,0,0:0:0:0:
339,92,151462,2,2,B|420:108|440:192,1,150,14|6,0:0|0:0,0:0:0:0:
176,324,152904,22,0,B|164:248,1,75,0|0,0:0|0:0,0:0:0:0:
168,152,153385,1,10,0:0:0:0:
256,104,153625,1,0,0:0:0:0:
344,152,153866,1,6,0:0:0:0:
347,249,154106,2,2,B|336:324,2,75,0|2|2,0:0|0:0|0:0,0:0:0:0:
347,249,154827,1,0,0:0:0:0:
164,249,155308,1,10,0:0:0:0:
256,72,155789,1,6,0:0:0:0:
256,220,156270,6,0,B|256:296,2,75,0|0|0,0:0|0:0|0:0,0:0:0:0:
192,144,156991,1,0,0:0:0:0:
256,72,157231,1,8,0:0:0:0:
320,144,157471,1,0,0:0:0:0:
320,144,157592,1,0,0:0:0:0:
320,144,157712,1,4,0:0:0:0:
256,192,157832,12,8,159154,0:0:0:0:
256,164,159635,21,4,0:0:0:0:
256,164,160116,6,0,B|256:88,2,75,0|0|0,0:0|0:0|0:0,0:0:0:0:
320,240,160837,1,0,0:0:0:0:
256,312,161077,1,8,0:0:0:0:
192,240,161318,1,0,0:0:0:0:
192,240,161438,1,0,0:0:0:0:
192,240,161558,1,4,0:0:0:0:
256,192,161678,12,12,163000,0:0:0:0:
108,308,163481,21,8,0:0:0:0:
404,308,164202,1,8,0:0:0:0:
256,56,164923,1,8,0:0:0:0:
440,264,165404,6,0,B|488:216|464:160|464:160|440:48,2,225,4|0|0,0:0|0:0|0:0,0:0:0:0:
256,336,167327,2,4,B|336:352|360:280|360:280|344:224|392:200,2,225,4|0|0,0:0|0:0|0:0,0:0:0:0:
256,336,169250,2,0,B|176:352|152:280|152:280|168:224|121:200,2,225,4|0|0,0:0|0:0|0:0,0:0:0:0:
72,264,171173,2,4,B|24:216|48:160|48:160|72:48,2,225,4|0|0,0:0|0:0|0:0,0:0:0:0:
256,200,173096,21,2,0:0:0:0:
256,200,173577,1,4,0:0:0:0:
104,192,175500,6,0,B|116:152|148:132,1,75,2|0,0:0|0:0,0:0:0:0:
216,64,175981,2,0,B|296:64,1,75,8|0,0:0|0:0,0:0:0:0:
364,132,176462,2,0,B|396:152|408:192,1,75,0|0,0:0|0:0,0:0:0:0:
356,272,176943,6,0,B|315:315|255:331|195:315|155:271,1,225,4|8,0:0|0:0,0:0:0:0:
256,96,178866,1,6,0:0:0:0:
