osu file format v13

[General]
AudioFilename: wish.mp3
AudioLeadIn: 0
PreviewTime: 49690
Countdown: 0
SampleSet: Soft
StackLeniency: 1
Mode: 0
LetterboxInBreaks: 0
WidescreenStoryboard: 0

[Editor]
Bookmarks: 2470,14321,38024,49690,73579,88393,100244,111911,135615,156541,159504,160800,184504,208392,214133
DistanceSpacing: 1.2
BeatDivisor: 4
GridSize: 4
TimelineZoom: 1.6

[Metadata]
Title:Wish
TitleUnicode:Wish
Artist:Olivia Lufkin
ArtistUnicode:Olivia Lufkin
Creator:Damnae
Version:707
Source:NANA
Tags:ナナ reira layla serizawa komatsu osaki hachi trapnest
BeatmapID:533434
BeatmapSetID:229217

[Difficulty]
HPDrainRate:7
CircleSize:4
OverallDifficulty:8
ApproachRate:9
SliderMultiplier:1.4
SliderTickRate:1

[Events]
//Background and Video events
0,0,"bg2.png",0,0
//Break Periods
2,76541,81867
//Storyboard Layer 0 (Background)
//Storyboard Layer 1 (Fail)
//Storyboard Layer 2 (Pass)
//Storyboard Layer 3 (Foreground)
//Storyboard Sound Samples
//Background Colour Transformations
3,100,0,0,0

[TimingPoints]
2470,370.37037037037,4,2,1,47,1,0
13766,-100,4,2,1,37,0,0
14321,740.740740740741,4,2,1,37,1,0
14321,-76.9230769230769,4,2,1,27,0,0
22098,-76.9230769230769,4,2,1,17,0,0
22283,-76.9230769230769,4,2,1,27,0,0
25802,-76.9230769230769,4,2,1,17,0,0
25987,-76.9230769230769,4,2,1,27,0,0
33209,-76.9230769230769,4,2,1,33,0,0
36728,-76.9230769230769,4,2,1,37,0,0
38024,370.37037037037,4,2,1,47,1,0
38024,-125,4,2,1,47,0,0
49505,-125,4,2,1,37,0,0
49690,-100,4,2,1,67,0,1
50061,-100,4,2,1,57,0,1
73579,740.740740740741,4,2,1,47,1,0
82467,-76.9230769230769,4,2,1,37,0,0
86912,-76.9230769230769,4,2,1,17,0,0
87467,-76.9230769230769,4,2,1,37,0,0
88393,370.37037037037,4,2,1,47,1,0
93578,-100,4,2,1,37,0,0
93763,-100,4,2,1,47,0,0
95985,-100,4,2,1,37,0,0
96170,-100,4,2,1,47,0,0
100244,-125,4,2,1,47,0,0
111726,-125,4,2,1,37,0,0
111911,-100,4,2,1,57,0,1
135522,-100,4,2,1,57,0,0
135615,-100,4,2,1,57,0,1
159318,-100,4,2,1,47,0,0
160800,-100,4,2,1,57,0,1
183948,-100,4,2,1,57,0,0
184504,-100,4,2,1,57,0,1
208392,-100,4,2,1,47,0,0
217281,-100,4,2,1,37,0,0
220244,-100,4,2,1,27,0,0
222189,-100,4,2,1,17,0,0
223207,-100,4,2,1,7,0,0
223948,-100,4,2,1,5,0,0

[Colours]
Combo1 : 255,94,55
Combo2 : 173,255,95
Combo3 : 17,254,176
Combo4 : 255,88,100

[HitObjects]
60,81,2470,5,0,1:0:0:0:
232,55,2655,1,8,0:0:0:0:
232,55,2840,1,8,0:0:0:0:
212,136,3025,1,0,1:0:0:0:
384,162,3210,1,8,0:0:0:0:
384,162,3395,1,8,0:0:0:0:
404,81,3581,1,0,1:0:0:0:
288,186,3766,6,0,P|281:243|293:336,1,140,8|8,0:0|0:0,0:0:0:0:
212,136,4321,1,8,0:0:0:0:
404,81,4507,1,0,1:0:0:0:
459,273,4692,1,8,2:0:0:0:
459,273,4877,1,8,2:0:0:0:
363,135,5062,1,0,1:0:0:0:
343,216,5247,1,8,2:0:0:0:
452,81,5432,5,0,1:0:0:0:
280,55,5617,1,8,0:0:0:0:
280,55,5802,1,8,0:0:0:0:
300,136,5987,1,0,1:0:0:0:
128,162,6172,1,8,0:0:0:0:
128,162,6357,1,8,0:0:0:0:
108,81,6543,1,0,1:0:0:0:
224,186,6728,6,0,P|231:243|219:336,1,140,8|8,0:0|0:0,0:0:0:0:
300,136,7283,1,8,0:0:0:0:
108,81,7469,1,0,1:0:0:0:
53,273,7655,1,8,2:0:0:0:
284,306,7840,1,8,2:0:0:0:
92,251,8025,1,0,1:0:0:0:
280,221,8210,1,8,2:0:0:0:
452,303,8395,5,0,1:0:0:0:
280,329,8580,1,8,0:0:0:0:
280,329,8765,1,8,0:0:0:0:
300,248,8950,1,0,1:0:0:0:
128,222,9135,1,8,0:0:0:0:
128,222,9320,1,8,0:0:0:0:
108,303,9506,1,0,1:0:0:0:
224,198,9691,6,0,P|231:141|219:48,1,140,8|8,0:0|0:0,0:0:0:0:
300,248,10246,1,8,0:0:0:0:
108,303,10432,1,0,1:0:0:0:
53,111,10617,1,8,2:0:0:0:
53,111,10802,1,8,2:0:0:0:
149,249,10987,1,0,1:0:0:0:
169,168,11172,1,8,2:0:0:0:
60,303,11357,5,0,1:0:0:0:
232,329,11544,1,8,0:0:0:0:
232,329,11729,1,8,0:0:0:0:
212,248,11914,1,0,1:0:0:0:
384,222,12099,1,8,0:0:0:0:
384,222,12284,1,8,0:0:0:0:
404,303,12468,1,0,1:0:0:0:
288,198,12655,6,0,P|281:141|293:48,1,140,8|8,0:0|0:0,0:0:0:0:
212,248,13210,1,8,0:0:0:0:
404,303,13394,1,0,1:0:0:0:
459,111,13580,1,8,2:0:0:0:
228,78,13765,5,0,1:0:0:0:
288,198,13950,1,8,2:0:0:0:
204,66,14135,1,8,2:0:0:0:
43,76,14321,5,0,1:0:0:0:
43,76,14506,1,0,1:0:0:0:
177,52,15061,1,8,0:0:0:0:
260,89,15432,1,0,1:0:0:0:
260,89,15617,2,0,L|268:152,1,45.4999979171754,0|0,1:0|0:0,0:0:0:0:
347,173,16172,1,0,0:0:0:0:
347,173,16358,1,0,1:0:0:0:
347,173,16543,2,0,L|328:320,1,136.499993751526,8|0,2:0|0:0,0:0:0:0:
329,308,17283,5,0,1:0:0:0:
329,308,17469,1,0,1:0:0:0:
416,281,17839,1,0,0:0:0:0:
416,281,18024,1,8,0:0:0:0:
458,200,18395,1,0,1:0:0:0:
458,200,18580,1,0,1:0:0:0:
458,200,18765,2,0,L|442:74,1,90.9999958343508,0|0,2:0|0:0,0:0:0:0:
446,109,19321,1,0,1:0:0:0:
416,281,19506,2,0,L|410:326,1,45.4999979171754,8|0,2:0|1:0,0:0:0:0:
410,326,19876,1,0,1:0:0:0:
357,128,20246,5,0,1:0:0:0:
357,128,20432,2,0,L|349:191,1,45.4999979171754,0|0,1:0|0:0,0:0:0:0:
223,104,20986,1,8,0:0:0:0:
140,141,21358,5,0,1:0:0:0:
140,141,21544,2,0,L|132:204,1,45.4999979171754,0|0,1:0|0:0,0:0:0:0:
79,233,21913,2,0,L|33:238,1,45.4999979171754,0|0,2:0|0:0,0:0:0:0:
134,288,22283,1,0,1:0:0:0:
134,288,22469,1,8,2:0:0:0:
223,273,22839,1,0,0:0:0:0:
312,258,23209,5,0,1:0:0:0:
312,258,23394,2,0,L|320:195,1,45.4999979171754,0|0,1:0|0:0,0:0:0:0:
460,261,23950,1,8,2:0:0:0:
405,187,24321,1,0,1:0:0:0:
405,187,24506,1,0,1:0:0:0:
405,187,24691,2,0,L|421:61,1,90.9999958343508,0|0,2:0|0:0,0:0:0:0:
416,96,25247,1,0,1:0:0:0:
447,268,25432,2,0,L|452:313,1,45.4999979171754,8|0,2:0|1:0,0:0:0:0:
291,256,25802,2,0,L|246:251,1,45.4999979171754,12|0,2:0|1:0,0:0:0:0:
246,251,26080,1,0,1:0:0:0:
246,251,26172,6,0,L|240:205,1,45.4999979171754,0|0,1:0|1:0,0:0:0:0:
257,70,26913,1,8,0:0:0:0:
176,111,27283,1,0,1:0:0:0:
176,111,27469,1,0,1:0:0:0:
76,204,28024,2,0,L|30:209,1,45.4999979171754,0|0,2:0|1:0,0:0:0:0:
30,208,28395,2,0,L|48:348,1,136.499993751526,8|0,2:0|0:0,0:0:0:0:
47,343,29135,5,0,1:0:0:0:
47,343,29321,1,0,1:0:0:0:
178,309,29876,2,0,L|191:199,1,90.9999958343508,8|0,2:0|1:0,0:0:0:0:
188,218,30432,1,0,1:0:0:0:
188,218,30617,2,0,L|297:204,1,90.9999958343508,0|0,2:0|1:0,0:0:0:0:
278,206,31172,1,0,1:0:0:0:
107,176,31358,2,0,L|61:170,1,45.4999979171754,8|0,2:0|1:0,0:0:0:0:
62,170,31728,1,0,1:0:0:0:
43,76,32098,5,0,1:0:0:0:
43,76,32283,1,0,1:0:0:0:
177,52,32838,1,8,0:0:0:0:
260,89,33209,1,0,1:0:0:0:
260,89,33395,1,0,1:0:0:0:
260,89,33580,2,0,L|271:179,1,90.9999958343508,0|0,2:0|0:0,0:0:0:0:
271,179,34135,1,0,1:0:0:0:
271,179,34321,2,0,L|316:184,1,45.4999979171754,8|0,2:0|2:0,0:0:0:0:
447,88,34691,2,0,L|401:93,1,45.4999979171754,0|0,1:0|2:0,0:0:0:0:
401,93,34969,1,8,2:0:0:0:
401,93,35061,6,0,L|406:138,1,45.4999979171754,0|0,1:0|1:0,0:0:0:0:
420,237,35432,1,0,0:0:0:0:
335,271,35802,1,8,2:0:0:0:
251,235,36172,5,0,1:0:0:0:
166,269,36358,1,0,1:0:0:0:
94,213,36543,1,2,2:0:0:0:
107,123,36728,1,8,2:0:0:0:
344,263,37098,5,0,1:0:0:0:
378,178,37284,1,8,2:0:0:0:
322,106,37469,1,0,1:0:0:0:
232,119,37654,1,0,1:0:0:0:
55,133,38024,5,0,1:0:0:0:
55,133,38209,1,0,1:0:0:0:
54,133,38394,2,0,L|61:206,1,56,8|0,2:0|0:0,0:0:0:0:
174,174,38764,1,0,1:0:0:0:
174,174,38949,1,0,1:0:0:0:
174,174,39134,2,0,L|166:247,1,56,8|0,2:0|0:0,0:0:0:0:
288,113,39505,1,0,1:0:0:0:
288,113,39690,1,0,1:0:0:0:
287,113,39875,2,0,L|294:186,1,56,8|0,2:0|0:0,0:0:0:0:
370,212,40246,5,0,1:0:0:0:
448,169,40431,1,0,1:0:0:0:
365,70,40616,1,8,2:0:0:0:
287,113,40801,1,0,1:0:0:0:
244,256,40986,2,0,P|192:274|138:264,1,112,4|8,1:0|2:0,0:0:0:0:
20,111,41542,2,0,P|74:100|126:118,1,112,0|0,1:2|1:0,0:0:0:0:
206,161,42098,1,8,0:0:0:0:
59,206,42283,1,4,1:0:0:0:
213,179,42468,6,0,L|206:252,1,56,0|0,1:0|1:0,0:0:0:0:
441,252,42838,2,0,L|435:197,1,56,8|0,2:0|2:0,0:0:0:0:
294,85,43209,1,0,1:0:0:0:
267,256,43394,1,8,0:0:0:0:
283,265,43486,1,8,0:0:0:0:
301,271,43579,1,8,0:0:0:0:
319,274,43671,1,0,1:0:0:0:
338,274,43764,1,0,1:0:0:0:
356,270,43856,1,0,1:0:0:0:
373,264,43949,6,0,L|380:191,1,56,0|0,1:0|1:0,0:0:0:0:
145,190,44319,2,0,L|151:245,1,56,8|0,2:0|2:0,0:0:0:0:
300,191,44690,2,0,P|312:137|294:85,1,112,0|8,1:2|2:0,0:0:0:0:
230,21,45246,1,0,1:0:0:0:
156,208,45430,6,0,L|150:263,1,56,0|0,1:0|2:0,0:0:0:0:
0,209,45801,2,0,P|-11:154|6:102,1,112,8|0,2:2|1:0,0:0:0:0:
83,59,46357,1,0,1:0:0:0:
166,158,46542,1,8,2:0:0:0:
88,201,46727,1,0,1:0:0:0:
249,189,46912,6,0,P|267:241|257:295,1,112,4|8,1:0|2:0,0:0:0:0:
332,162,47468,2,0,P|368:120|419:102,1,112,0|0,1:2|1:0,0:0:0:0:
166,158,48023,2,0,P|144:157|111:147,1,56,8|0,2:2|1:0,0:0:0:0:
54,78,48394,5,8,0:0:0:0:
202,326,48579,1,8,0:0:0:0:
349,43,48764,1,0,1:0:0:0:
400,236,48949,6,0,P|373:227|346:226,1,56,8|0,2:2|1:0,0:0:0:0:
62,86,49320,1,8,2:0:0:0:
214,317,49505,1,8,2:0:0:0:
35,227,49690,6,0,P|119:235|187:251,1,140,4|0,1:0|0:0,0:0:0:0:
331,147,50246,2,0,P|262:161|192:167,1,140,8|0,2:0|1:0,0:0:0:0:
257,247,50801,1,0,1:0:0:0:
183,83,50986,2,0,P|213:76|269:74,1,70,8|0,2:0|0:0,0:0:0:0:
109,127,51357,5,0,1:0:0:0:
333,94,51542,1,0,1:0:0:0:
337,267,51727,2,0,P|372:265|407:258,1,70,8|0,2:0|0:0,0:0:0:0:
461,194,52098,1,0,1:0:0:0:
237,161,52283,1,0,1:0:0:0:
233,334,52468,1,8,0:0:0:0:
35,227,52653,6,0,P|119:235|187:251,1,140,4|0,1:0|1:0,0:0:0:0:
255,358,53209,2,0,P|248:323|246:289,1,70,8|0,2:0|0:0,0:0:0:0:
314,240,53579,1,0,1:0:0:0:
165,331,53764,1,0,1:0:0:0:
70,150,53949,2,0,P|72:115|79:80,1,70,8|0,2:0|0:0,0:0:0:0:
334,101,54320,6,0,P|319:169|313:239,1,140,4|8,1:0|2:0,0:0:0:0:
184,177,54875,1,0,0:0:0:0:
247,44,55061,2,0,P|245:79|238:114,1,70,0|0,1:0|1:0,0:0:0:0:
230,248,55431,1,8,0:0:0:0:
315,146,55616,6,0,P|383:130|453:124,1,140,4|0,1:0|1:0,0:0:0:0:
230,248,56172,2,0,P|160:242|91:226,1,140,8|0,2:0|1:0,0:0:0:0:
66,146,56727,1,0,1:0:0:0:
196,325,56912,1,8,0:0:0:0:
311,227,57098,6,0,P|380:232|448:248,1,140,4|0,1:0|1:0,0:0:0:0:
463,93,57653,2,0,P|428:99|393:101,1,70,8|0,2:0|0:0,0:0:0:0:
326,51,58023,1,0,1:0:0:0:
486,174,58209,1,0,1:0:0:0:
410,323,58394,1,8,0:0:0:0:
331,263,58579,6,0,P|261:268|193:284,1,140,4|0,1:0|1:0,0:0:0:0:
7,153,59135,2,0,P|42:160|77:162,1,70,8|0,2:0|0:0,0:0:0:0:
137,104,59505,1,0,1:0:0:0:
137,104,59690,1,0,1:0:0:0:
123,231,59875,6,0,L|113:328,1,70,8|0,2:0|0:0,0:0:0:0:
226,160,60246,2,0,L|219:91,1,70,8|0,2:0|1:0,0:0:0:0:
169,23,60616,1,8,2:0:0:0:
183,350,60801,1,0,1:0:0:0:
510,336,60986,1,8,2:0:0:0:
486,254,61172,1,0,1:0:0:0:
404,278,61357,1,8,2:0:0:0:
428,360,61542,6,0,P|436:276|452:208,1,140,4|0,1:0|1:0,0:0:0:0:
500,125,62098,2,0,P|431:139|361:145,1,140,8|0,2:0|1:0,0:0:0:0:
302,86,62653,1,0,1:0:0:0:
338,226,62838,2,0,P|336:261|329:296,1,70,8|0,2:0|0:0,0:0:0:0:
218,79,63209,5,0,1:0:0:0:
150,230,63394,1,0,1:0:0:0:
138,53,63579,2,0,P|103:55|68:62,1,70,8|0,2:0|0:0,0:0:0:0:
233,316,63949,1,0,1:0:0:0:
350,290,64134,1,0,1:0:0:0:
150,230,64320,1,8,0:0:0:0:
350,290,64505,6,0,P|434:282|502:266,1,140,4|0,1:0|1:0,0:0:0:0:
255,26,65061,2,0,P|248:61|246:95,1,70,8|0,2:0|0:0,0:0:0:0:
314,144,65431,1,0,1:0:0:0:
165,53,65616,1,0,1:0:0:0:
70,234,65801,2,0,P|72:269|79:304,1,70,8|0,2:0|0:0,0:0:0:0:
334,281,66172,6,0,P|319:213|314:144,1,140,4|8,1:0|2:0,0:0:0:0:
372,85,66727,1,0,0:0:0:0:
231,222,66912,2,0,P|224:257|222:292,1,70,0|0,1:0|1:0,0:0:0:0:
230,136,67283,1,8,0:0:0:0:
452,259,67468,6,0,P|383:254|315:237,1,140,4|0,1:0|1:0,0:0:0:0:
92,157,68024,2,0,P|160:141|230:136,1,140,8|0,2:0|1:0,0:0:0:0:
66,238,68579,1,0,1:0:0:0:
196,59,68764,1,8,0:0:0:0:
448,135,68950,6,0,P|380:151|311:157,1,140,4|0,1:0|1:0,0:0:0:0:
393,283,69505,2,0,P|428:285|463:291,1,70,8|0,2:0|0:0,0:0:0:0:
326,333,69875,1,0,1:0:0:0:
486,210,70061,1,0,1:0:0:0:
410,61,70246,1,8,0:0:0:0:
193,100,70431,6,0,P|261:116|331:121,1,140,4|0,1:0|1:0,0:0:0:0:
76,221,70987,2,0,P|41:224|7:231,1,70,8|0,2:0|0:0,0:0:0:0:
137,280,71357,1,0,1:0:0:0:
137,280,71542,1,0,1:0:0:0:
115,83,71727,6,0,L|123:153,1,70,8|0,2:0|0:0,0:0:0:0:
219,293,72098,2,0,L|226:224,1,70,8|0,2:0|0:0,0:0:0:0:
183,34,72468,1,8,2:0:0:0:
169,361,72653,1,0,1:0:0:0:
309,140,72838,1,8,2:0:0:0:
137,280,73024,1,0,1:0:0:0:
119,283,73116,1,8,2:0:0:0:
101,286,73209,1,0,1:0:0:0:
227,116,73394,1,0,1:0:0:0:
457,197,73579,5,4,1:0:0:0:
92,73,82467,5,0,1:0:0:0:
92,73,82653,1,0,1:0:0:0:
92,73,82838,2,0,L|86:135,1,45.4999979171754,0|0,2:0|2:0,0:0:0:0:
124,181,83208,1,8,0:0:0:0:
251,109,83579,1,0,1:0:0:0:
322,126,83764,1,0,1:0:0:0:
272,179,83949,1,0,0:0:0:0:
370,286,84319,2,0,L|432:280,1,45.4999979171754,0|0,2:0|1:0,0:0:0:0:
415,281,84690,2,0,L|426:156,1,90.9999958343508,8|0,2:0|2:0,0:0:0:0:
420,73,85430,5,0,1:0:0:0:
420,73,85616,1,0,1:0:0:0:
420,73,85801,2,0,L|425:135,1,45.4999979171754,0|0,2:0|2:0,0:0:0:0:
388,181,86171,1,8,0:0:0:0:
263,138,86541,1,0,1:0:0:0:
263,138,86727,1,0,1:0:0:0:
263,138,86912,2,0,L|276:277,1,136.499993751526,2|0,2:0|1:0,0:0:0:0:
170,145,87653,2,0,L|164:207,1,45.4999979171754,8|0,2:0|2:0,0:0:0:0:
6,115,88023,2,0,L|0:177,1,45.4999979171754,8|0,2:0|2:0,1:0:0:0:
1,160,88301,1,0,1:0:0:0:
1,160,88393,6,0,P|35:157|70:158,1,70,0|0,1:0|1:0,0:0:0:0:
125,213,88763,2,0,P|130:282|127:352,1,140,8|0,2:0|1:0,0:0:0:0:
38,234,89318,1,0,1:0:0:0:
221,143,89504,2,0,P|215:212|218:282,1,140,8|0,2:0|1:0,0:0:0:0:
308,164,90059,5,0,1:0:0:0:
369,46,90244,2,0,P|366:81|368:116,1,70,8|0,2:0|2:0,0:0:0:0:
466,277,90615,2,0,P|475:210|430:161,1,140,0|8,1:0|0:0,0:0:0:0:
243,169,91170,1,0,1:0:0:0:
298,114,91355,6,0,P|333:113|368:116,1,70,0|0,1:0|2:0,0:0:0:0:
207,22,91726,2,0,P|161:71|171:139,1,140,8|0,2:0|1:0,0:0:0:0:
243,169,92282,1,0,1:0:0:0:
77,107,92467,2,0,P|42:104|7:105,1,70,8|0,2:0|2:0,0:0:0:0:
54,296,92837,6,8,P|120:305|170:259,1,140,0|8,1:0|2:0,2:0:0:0:
365,254,93393,1,0,0:0:0:0:
236,312,93578,2,0,P|270:311|305:314,1,70,8|4,3:0|3:0,0:0:0:0:
498,219,93948,5,8,2:0:0:0:
405,114,94133,1,8,2:0:0:0:
360,247,94318,1,0,1:0:0:0:
267,142,94504,1,0,1:0:0:0:
401,101,94689,2,0,P|404:66|403:31,1,70,8|0,2:0|2:0,0:0:0:0:
271,155,95059,2,0,P|268:190|269:225,1,70,0|0,1:0|1:0,0:0:0:0:
470,74,95430,5,8,2:0:0:0:
239,151,95615,1,0,1:0:0:0:
373,192,95800,2,0,P|376:227|375:262,1,70,0|0,1:0|1:0,0:0:0:0:
307,311,96170,1,8,0:0:0:0:
237,158,96355,6,8,P|187:111|120:120,1,140,4|0,1:0|1:0,2:0:0:0:
7,189,96911,2,0,P|42:192|77:191,1,70,8|0,2:0|2:0,0:0:0:0:
332,46,97281,5,0,1:0:0:0:
239,151,97467,1,0,1:0:0:0:
373,192,97652,1,8,0:0:0:0:
232,136,97837,2,8,P|164:127|115:173,1,140,4|0,1:0|1:0,2:0:0:0:
157,246,98392,2,0,P|192:249|227:248,1,70,8|0,2:0|2:0,0:0:0:0:
452,81,98763,5,0,1:0:0:0:
280,55,98948,1,8,0:0:0:0:
280,55,99133,1,8,0:0:0:0:
344,217,99318,1,0,1:0:0:0:
136,111,99504,5,8,2:0:0:0:
308,137,99689,1,8,2:0:0:0:
308,137,99781,1,0,1:0:0:0:
308,137,99874,1,0,1:0:0:0:
244,247,100059,1,0,1:0:0:0:
356,307,100244,5,4,1:0:0:0:
102,274,100430,1,0,1:0:0:0:
356,307,100615,2,0,L|363:234,1,56,8|0,2:0|0:0,0:0:0:0:
174,174,100985,1,0,1:0:0:0:
348,223,101170,1,0,1:0:0:0:
174,174,101355,2,0,L|166:247,1,56,8|0,2:0|0:0,0:0:0:0:
288,113,101726,1,0,1:0:0:0:
115,112,101911,1,0,1:0:0:0:
287,113,102096,2,0,L|294:186,1,56,8|0,2:0|0:0,0:0:0:0:
167,229,102467,5,0,1:0:0:0:
448,169,102652,1,0,1:0:0:0:
365,70,102837,1,8,2:0:0:0:
249,127,103022,1,0,1:0:0:0:
244,256,103207,2,0,P|192:274|138:264,1,112,4|8,1:0|2:0,0:0:0:0:
100,58,103763,2,0,P|152:39|206:50,1,112,0|0,1:2|1:0,0:0:0:0:
451,149,104319,1,8,0:0:0:0:
304,194,104504,1,4,1:0:0:0:
303,285,104689,6,0,L|296:358,1,56,0|0,1:0|1:0,0:0:0:0:
297,340,104967,1,0,1:0:0:0:
297,340,105059,2,0,L|352:334,1,56,8|0,2:0|2:0,0:0:0:0:
294,85,105430,1,0,1:0:0:0:
275,252,105615,1,8,0:0:0:0:
230,187,105800,1,8,2:0:0:0:
83,232,105985,1,0,1:0:0:0:
373,264,106170,6,0,L|446:271,1,56,0|0,1:0|1:0,0:0:0:0:
216,159,106540,2,0,L|161:165,1,56,8|0,2:0|2:0,0:0:0:0:
309,208,106911,2,0,P|321:154|303:102,1,112,0|8,1:2|2:0,0:0:0:0:
239,38,107467,1,0,1:0:0:0:
156,208,107651,6,0,L|150:263,1,56,0|0,1:0|2:0,0:0:0:0:
109,112,108022,2,0,P|164:101|216:118,1,112,8|0,2:2|1:0,0:0:0:0:
259,195,108578,1,0,1:0:0:0:
240,38,108763,1,8,2:0:0:0:
180,235,108948,1,0,1:0:0:0:
341,223,109133,6,0,P|359:275|349:329,1,112,4|8,1:0|2:0,0:0:0:0:
92,296,109689,2,0,P|128:254|179:236,1,112,0|0,1:2|1:0,0:0:0:0:
453,303,110244,2,0,P|431:302|398:292,1,56,8|0,2:2|1:0,0:0:0:0:
341,223,110615,5,8,0:0:0:0:
202,326,110800,1,8,0:0:0:0:
349,43,110985,1,0,1:0:0:0:
400,236,111170,5,8,0:0:0:0:
68,239,111355,1,0,1:0:0:0:
62,86,111541,1,8,2:0:0:0:
214,317,111726,1,8,2:0:0:0:
338,136,111911,6,0,P|407:151|477:157,1,140,4|0,1:0|0:0,0:0:0:0:
319,217,112467,2,0,P|249:223|181:237,1,140,8|0,2:0|1:0,0:0:0:0:
255,137,113022,1,0,1:0:0:0:
259,310,113207,2,0,P|294:308|329:301,1,70,8|0,2:0|0:0,0:0:0:0:
403,257,113578,5,0,1:0:0:0:
179,290,113763,1,0,1:0:0:0:
105,125,113948,2,0,P|140:118|175:117,1,70,8|0,2:0|0:0,0:0:0:0:
51,190,114319,1,0,1:0:0:0:
275,223,114504,1,0,1:0:0:0:
279,50,114689,1,8,0:0:0:0:
338,136,114874,6,0,P|407:151|477:157,1,140,4|0,1:0|1:0,0:0:0:0:
256,25,115430,2,0,P|263:60|265:95,1,70,8|0,2:0|0:0,0:0:0:0:
198,144,115800,1,0,1:0:0:0:
347,53,115985,1,0,1:0:0:0:
433,303,116170,2,0,P|440:268|442:234,1,70,8|0,2:0|0:0,0:0:0:0:
199,144,116541,6,0,P|193:214|178:283,1,140,4|8,1:0|2:0,0:0:0:0:
328,207,117096,1,0,0:0:0:0:
265,340,117282,2,0,P|267:305|274:270,1,70,0|0,1:0|1:0,0:0:0:0:
282,136,117652,1,8,0:0:0:0:
197,238,117837,6,0,P|129:254|59:260,1,140,4|0,1:0|1:0,0:0:0:0:
282,136,118393,2,0,P|352:142|421:158,1,140,8|0,2:0|1:0,0:0:0:0:
446,238,118948,1,0,1:0:0:0:
316,59,119133,1,8,0:0:0:0:
201,157,119319,6,0,P|132:152|64:136,1,140,4|0,1:0|1:0,0:0:0:0:
49,291,119874,2,0,P|84:285|119:283,1,70,8|0,2:0|0:0,0:0:0:0:
282,136,120244,1,0,1:0:0:0:
26,210,120430,1,0,1:0:0:0:
102,61,120615,1,8,0:0:0:0:
181,121,120800,6,0,P|251:116|319:100,1,140,4|0,1:0|1:0,0:0:0:0:
505,231,121356,2,0,P|470:224|435:222,1,70,8|0,2:0|0:0,0:0:0:0:
286,224,121726,1,0,1:0:0:0:
181,121,121911,1,0,1:0:0:0:
389,153,122096,5,8,0:0:0:0:
78,256,122281,1,0,1:0:0:0:
286,224,122467,2,0,L|293:293,1,70,8|0,2:0|1:0,0:0:0:0:
343,361,122837,1,8,2:0:0:0:
329,34,123022,1,0,1:0:0:0:
78,256,123207,1,8,2:0:0:0:
176,227,123393,1,0,1:0:0:0:
147,128,123578,1,0,1:0:0:0:
49,157,123763,6,0,P|117:171|187:177,1,140,4|0,1:0|1:0,0:0:0:0:
416,139,124319,2,0,P|346:144|277:159,1,140,8|0,2:0|1:0,0:0:0:0:
253,239,124874,1,0,1:0:0:0:
217,99,125059,2,0,P|219:64|226:29,1,70,8|0,2:0|0:0,0:0:0:0:
325,226,125430,5,0,1:0:0:0:
174,158,125615,1,0,1:0:0:0:
380,289,125800,2,0,P|386:323|388:358,1,70,8|0,2:0|0:0,0:0:0:0:
308,54,126170,1,0,1:0:0:0:
188,75,126355,1,0,1:0:0:0:
362,154,126541,1,8,0:0:0:0:
188,75,126726,6,0,P|104:83|36:99,1,140,4|0,1:0|1:0,0:0:0:0:
279,261,127281,2,0,P|313:259|348:253,1,70,8|0,2:0|0:0,0:0:0:0:
198,240,127652,1,0,1:0:0:0:
370,334,127837,1,0,1:0:0:0:
442,150,128022,2,0,P|440:115|433:80,1,70,8|0,2:0|0:0,0:0:0:0:
177,102,128393,6,0,P|172:171|156:239,1,140,4|8,1:0|2:0,0:0:0:0:
97,299,128948,1,0,0:0:0:0:
237,43,129133,2,0,P|272:36|307:34,1,70,0|0,1:0|1:0,0:0:0:0:
282,248,129504,1,8,0:0:0:0:
197,147,129689,6,0,P|129:130|60:125,1,140,4|0,1:0|1:0,0:0:0:0:
282,248,130245,2,0,P|351:243|420:227,1,140,8|0,2:0|1:0,0:0:0:0:
446,146,130800,1,0,1:0:0:0:
476,289,130985,1,8,0:0:0:0:
201,226,131171,6,0,P|132:232|64:249,1,140,4|0,1:0|1:0,0:0:0:0:
49,93,131726,2,0,P|84:99|119:101,1,70,8|0,2:0|0:0,0:0:0:0:
186,51,132096,1,0,1:0:0:0:
26,174,132282,1,0,1:0:0:0:
102,323,132467,1,8,0:0:0:0:
181,262,132652,6,0,P|250:267|319:284,1,140,4|0,1:0|1:0,0:0:0:0:
505,152,133208,2,0,P|470:160|436:163,1,70,8|0,2:0|0:0,0:0:0:0:
293,91,133578,1,0,1:0:0:0:
330,350,133763,1,0,1:0:0:0:
397,301,133948,6,0,L|389:231,1,70,8|0,2:0|0:0,0:0:0:0:
293,91,134319,2,0,L|286:160,1,70,8|0,2:0|0:0,0:0:0:0:
329,350,134689,1,8,2:0:0:0:
343,23,134874,1,0,1:0:0:0:
203,244,135059,1,8,2:0:0:0:
375,104,135245,1,0,1:0:0:0:
158,172,135430,1,8,2:0:0:0:
425,330,135615,6,0,P|428:260|457:197,1,140,4|0,1:0|1:0,0:0:0:0:
203,244,136170,2,0,P|231:307|234:377,1,140,8|0,2:0|1:0,0:0:0:0:
170,55,136726,1,0,1:0:0:0:
63,142,136911,2,0,P|94:129|129:127,1,70,8|0,2:0|2:0,0:0:0:0:
273,197,137281,5,0,1:0:0:0:
273,197,137467,1,0,1:0:0:0:
31,65,137652,1,8,0:0:0:0:
253,56,137837,1,0,1:0:0:0:
189,201,138022,2,0,P|175:232|173:267,1,70,0|0,1:0|2:0,0:0:0:0:
313,328,138392,1,8,2:0:0:0:
443,248,138578,6,0,P|419:200|412:113,1,140,4|0,1:0|1:0,0:0:0:0:
191,73,139133,2,0,P|188:142|160:206,1,140,8|0,2:0|1:0,0:0:0:0:
117,30,139689,1,0,1:0:0:0:
230,252,139874,1,8,2:0:0:0:
277,145,140059,6,0,P|341:116|411:114,1,140,4|0,1:0|1:0,0:0:0:0:
82,240,140615,2,0,P|47:238|15:224,1,70,8|0,2:0|2:0,0:0:0:0:
117,30,140985,1,0,1:0:0:0:
230,252,141170,1,0,1:0:0:0:
465,152,141355,1,8,2:0:0:0:
217,139,141541,6,0,P|219:69|248:5,1,140,4|0,1:0|1:0,0:0:0:0:
499,58,142096,2,0,P|467:72|433:74,1,70,8|0,2:0|2:0,0:0:0:0:
229,250,142467,2,0,P|261:235|296:234,1,70,0|0,1:0|1:0,0:0:0:0:
375,262,142837,1,8,0:0:0:0:
150,222,143022,6,0,P|121:158|119:88,1,140,4|0,1:0|1:0,0:0:0:0:
233,6,143578,2,0,P|231:76|202:140,1,140,8|0,2:0|1:0,0:0:0:0:
160,307,144134,1,0,1:0:0:0:
67,243,144318,1,8,2:0:0:0:
260,239,144504,6,0,P|329:241|393:269,1,140,4|0,1:0|1:0,0:0:0:0:
74,333,145060,1,8,0:0:0:0:
245,328,145245,1,0,1:0:0:0:
125,108,145430,2,0,P|126:73|140:41,1,70,0|0,1:0|1:0,0:0:0:0:
298,13,145800,1,8,2:0:0:0:
443,80,145986,6,0,P|467:128|474:215,1,140,4|0,1:0|1:0,0:0:0:0:
390,213,146541,2,0,P|355:215|323:229,1,70,8|0,2:0|2:0,0:0:0:0:
117,354,146911,1,0,1:0:0:0:
230,132,147096,1,0,1:0:0:0:
465,232,147281,1,8,2:0:0:0:
217,139,147467,6,0,P|219:69|248:5,1,140,4|0,1:0|1:0,0:0:0:0:
467,79,148022,2,0,P|465:113|451:145,1,70,8|0,2:0|2:0,0:0:0:0:
395,354,148392,1,0,1:0:0:0:
282,132,148577,1,0,1:0:0:0:
153,198,148762,1,8,2:0:0:0:
308,273,148948,6,0,P|306:203|277:139,1,140,4|0,1:0|1:0,0:0:0:0:
45,79,149504,2,0,P|46:113|60:145,1,70,8|0,2:0|2:0,0:0:0:0:
117,354,149874,1,0,1:0:0:0:
230,132,150059,1,0,1:0:0:0:
359,198,150244,1,8,2:0:0:0:
216,138,150430,6,0,P|218:69|247:5,1,140,4|0,1:0|1:0,0:0:0:0:
328,25,150985,1,8,0:0:0:0:
142,177,151170,1,0,1:0:0:0:
359,198,151355,1,0,1:0:0:0:
359,198,151541,1,0,1:0:0:0:
238,315,151726,1,8,2:0:0:0:
376,320,151911,6,0,P|439:291|509:289,1,140,4|0,1:0|1:0,0:0:0:0:
104,329,152467,2,0,P|72:343|38:346,1,70,8|0,2:0|2:0,0:0:0:0:
313,274,152837,1,0,1:0:0:0:
91,161,153022,1,0,1:0:0:0:
220,60,153207,1,8,2:0:0:0:
374,140,153392,6,0,P|438:169|508:171,1,140,4|0,1:0|1:0,0:0:0:0:
91,161,153948,2,0,P|125:162|157:176,1,70,8|0,2:0|2:0,0:0:0:0:
366,233,154318,1,0,1:0:0:0:
144,346,154503,1,0,1:0:0:0:
227,130,154689,1,8,2:0:0:0:
481,150,154874,6,0,P|509:213|511:283,1,140,4|0,1:0|1:0,0:0:0:0:
240,102,155430,2,0,P|241:67|255:35,1,70,8|0,2:0|2:0,0:0:0:0:
355,201,155800,2,0,P|353:235|339:267,1,70,0|0,1:0|1:0,0:0:0:0:
114,153,156170,1,8,2:0:0:0:
255,35,156355,5,0,1:0:0:0:
114,153,156541,2,0,P|142:203|149:226,1,70,8|0,2:0|1:0,0:0:0:0:
255,35,156911,1,0,1:0:0:0:
175,293,157096,2,0,P|225:265|248:258,1,70,8|0,2:0|1:0,0:0:0:0:
32,144,157467,1,0,1:0:0:0:
319,279,157652,2,0,P|332:311|350:340,1,70,8|0,2:0|1:0,0:0:0:0:
175,293,158022,5,0,1:0:0:0:
431,318,158207,2,0,P|459:268|466:245,1,70,8|0,2:0|1:0,0:0:0:0:
308,98,158578,1,0,1:0:0:0:
172,238,158763,1,8,0:0:0:0:
44,91,158948,1,0,1:0:0:0:
42,73,159040,1,8,0:0:0:0:
41,56,159133,1,0,1:0:0:0:
39,38,159225,1,0,1:0:0:0:
38,21,159318,1,4,1:0:0:0:
376,63,159874,5,2,0:0:0:0:
293,57,160244,1,2,0:0:0:0:
210,52,160615,1,2,0:0:0:0:
126,47,160799,6,0,P|118:131|102:199,1,140,4|0,1:0|0:0,0:0:0:0:
206,343,161355,2,0,P|192:274|186:204,1,140,8|0,2:0|1:0,0:0:0:0:
106,269,161910,1,0,1:0:0:0:
270,195,162095,2,0,P|277:225|279:281,1,70,8|0,2:0|0:0,0:0:0:0:
226,121,162466,5,0,1:0:0:0:
259,345,162651,1,0,1:0:0:0:
337,117,162836,2,0,P|372:119|407:126,1,70,8|0,2:0|0:0,0:0:0:0:
461,190,163207,1,0,1:0:0:0:
237,223,163392,1,0,1:0:0:0:
233,50,163577,1,8,0:0:0:0:
461,190,163762,6,0,P|476:259|482:328,1,140,4|0,1:0|1:0,0:0:0:0:
237,223,164318,2,0,P|202:225|167:231,1,70,8|0,2:0|0:0,0:0:0:0:
314,144,164688,1,0,1:0:0:0:
165,53,164873,1,0,1:0:0:0:
70,234,165058,2,0,P|72:269|79:304,1,70,8|0,2:0|0:0,0:0:0:0:
334,281,165429,6,0,P|319:213|314:144,1,140,4|8,1:0|2:0,0:0:0:0:
184,207,165984,1,0,0:0:0:0:
409,282,166170,2,0,P|444:275|479:274,1,70,0|0,1:0|1:0,0:0:0:0:
230,136,166540,1,8,0:0:0:0:
375,197,166725,6,0,P|444:191|512:175,1,140,4|0,1:0|1:0,0:0:0:0:
230,136,167281,2,0,P|160:142|91:158,1,140,8|0,2:0|1:0,0:0:0:0:
165,280,167837,1,0,1:0:0:0:
43,88,168022,1,8,0:0:0:0:
311,157,168207,6,0,P|380:152|448:136,1,140,4|0,1:0|1:0,0:0:0:0:
165,280,168762,2,0,P|130:274|95:272,1,70,8|0,2:0|0:0,0:0:0:0:
326,333,169132,1,0,1:0:0:0:
486,210,169318,1,0,1:0:0:0:
410,61,169503,1,8,0:0:0:0:
331,121,169688,6,0,P|261:116|193:100,1,140,4|0,1:0|1:0,0:0:0:0:
7,231,170244,2,0,P|42:224|77:222,1,70,8|0,2:0|0:0,0:0:0:0:
331,121,170614,1,0,1:0:0:0:
137,280,170800,1,0,1:0:0:0:
123,153,170985,6,0,L|113:56,1,70,8|0,2:0|0:0,0:0:0:0:
383,187,171355,2,0,L|376:256,1,70,8|0,2:0|1:0,0:0:0:0:
169,361,171725,1,8,2:0:0:0:
197,123,171910,1,0,1:0:0:0:
421,86,172095,1,8,2:0:0:0:
393,184,172281,1,0,1:0:0:0:
294,156,172466,1,8,2:0:0:0:
323,57,172652,6,0,P|331:141|347:209,1,140,4|0,1:0|1:0,0:0:0:0:
466,296,173207,2,0,P|397:282|327:276,1,140,8|0,2:0|1:0,0:0:0:0:
253,315,173763,1,0,1:0:0:0:
426,186,173948,2,0,P|424:151|417:116,1,70,8|0,2:0|0:0,0:0:0:0:
218,79,174318,5,0,1:0:0:0:
150,230,174503,1,0,1:0:0:0:
138,53,174688,2,0,P|103:55|68:62,1,70,8|0,2:0|0:0,0:0:0:0:
380,215,175058,1,0,1:0:0:0:
354,98,175243,1,0,1:0:0:0:
294,298,175429,1,8,0:0:0:0:
354,98,175614,6,0,P|422:83|492:77,1,140,4|0,1:0|1:0,0:0:0:0:
294,298,176170,2,0,P|287:263|285:229,1,70,8|0,2:0|0:0,0:0:0:0:
353,180,176540,1,0,1:0:0:0:
204,271,176725,1,0,1:0:0:0:
70,150,176910,2,0,P|72:115|79:80,1,70,8|0,2:0|0:0,0:0:0:0:
334,103,177281,6,0,P|319:171|314:240,1,140,4|8,1:0|2:0,0:0:0:0:
372,299,177836,1,0,0:0:0:0:
139,159,178022,2,0,P|104:152|70:150,1,70,0|0,1:0|1:0,0:0:0:0:
230,248,178392,1,8,0:0:0:0:
314,147,178577,6,0,P|382:130|452:125,1,140,4|0,1:0|1:0,0:0:0:0:
229,248,179133,2,0,P|160:243|92:227,1,140,8|0,2:0|1:0,0:0:0:0:
66,146,179688,1,0,1:0:0:0:
196,325,179873,1,8,0:0:0:0:
310,226,180059,6,0,P|379:232|448:249,1,140,4|0,1:0|1:0,0:0:0:0:
340,149,180614,2,0,P|342:114|348:79,1,70,8|0,2:0|0:0,0:0:0:0:
467,331,180985,1,0,1:0:0:0:
267,56,181170,1,0,1:0:0:0:
238,270,181355,1,8,0:0:0:0:
340,149,181540,6,0,P|408:132|477:127,1,140,4|0,1:0|1:0,0:0:0:0:
76,163,182096,2,0,P|41:160|7:153,1,70,8|0,2:0|0:0,0:0:0:0:
100,29,182466,1,0,1:0:0:0:
292,236,182652,1,0,1:0:0:0:
115,301,182836,6,0,L|123:231,1,70,8|0,2:0|0:0,0:0:0:0:
325,93,183207,2,0,L|332:162,1,70,8|0,2:0|0:0,0:0:0:0:
183,350,183578,1,8,2:0:0:0:
169,23,183762,1,0,1:0:0:0:
309,244,183947,1,8,2:0:0:0:
302,68,184133,1,0,1:0:0:0:
101,98,184318,1,8,2:0:0:0:
337,253,184503,6,0,P|406:246|475:232,1,140,4|0,1:0|0:0,0:0:0:0:
210,116,185059,2,0,P|225:185|231:255,1,140,8|0,2:0|1:0,0:0:0:0:
171,314,185614,1,0,1:0:0:0:
291,97,185799,2,0,P|326:99|361:106,1,70,8|0,2:0|0:0,0:0:0:0:
435,150,186170,5,0,1:0:0:0:
211,117,186355,1,0,1:0:0:0:
206,290,186540,2,0,P|204:325|198:359,1,70,8|0,2:0|0:0,0:0:0:0:
83,217,186911,1,0,1:0:0:0:
307,184,187096,1,0,1:0:0:0:
311,357,187281,1,8,0:0:0:0:
370,271,187466,6,0,P|439:256|509:250,1,140,4|0,1:0|1:0,0:0:0:0:
257,116,188022,2,0,P|222:119|188:126,1,70,8|0,2:0|0:0,0:0:0:0:
307,184,188392,1,0,1:0:0:0:
216,35,188577,1,0,1:0:0:0:
79,81,188762,2,0,P|72:116|70:150,1,70,8|0,2:0|0:0,0:0:0:0:
149,347,189133,6,0,P|134:278|129:209,1,140,4|8,1:0|2:0,0:0:0:0:
5,205,189689,1,0,0:0:0:0:
374,209,189874,2,0,P|372:244|365:279,1,70,0|0,1:0|1:0,0:0:0:0:
305,337,190244,1,8,0:0:0:0:
325,127,190429,6,0,P|256:132|188:149,1,140,4|0,1:0|1:0,0:0:0:0:
304,337,190985,2,0,P|373:352|443:358,1,140,8|0,2:0|1:0,0:0:0:0:
446,146,191540,1,0,1:0:0:0:
316,325,191725,1,8,0:0:0:0:
201,227,191911,6,0,P|132:232|64:248,1,140,4|0,1:0|1:0,0:0:0:0:
49,93,192466,2,0,P|84:99|119:101,1,70,8|0,2:0|0:0,0:0:0:0:
193,61,192836,1,0,1:0:0:0:
119,317,193022,1,0,1:0:0:0:
268,241,193207,1,8,0:0:0:0:
208,162,193392,6,0,P|213:92|229:24,1,140,4|0,1:0|1:0,0:0:0:0:
505,153,193948,2,0,P|470:160|435:162,1,70,8|0,2:0|0:0,0:0:0:0:
78,128,194318,1,0,1:0:0:0:
181,263,194503,1,0,1:0:0:0:
389,231,194688,5,8,0:0:0:0:
78,128,194873,1,0,1:0:0:0:
226,160,195059,2,0,L|219:91,1,70,8|0,2:0|1:0,0:0:0:0:
169,23,195429,1,8,2:0:0:0:
183,350,195614,1,0,1:0:0:0:
226,160,195799,1,8,2:0:0:0:
255,259,195985,1,0,1:0:0:0:
353,230,196170,1,0,1:0:0:0:
325,131,196355,6,0,P|311:199|305:269,1,140,4|0,1:0|1:0,0:0:0:0:
152,233,196911,2,0,P|147:163|132:94,1,140,8|0,2:0|1:0,0:0:0:0:
52,70,197466,1,0,1:0:0:0:
192,34,197651,2,0,P|227:36|262:43,1,70,8|0,2:0|0:0,0:0:0:0:
187,158,198022,5,0,1:0:0:0:
338,226,198207,1,0,1:0:0:0:
132,95,198392,2,0,P|126:61|124:26,1,70,8|0,2:0|0:0,0:0:0:0:
186,307,198762,1,0,1:0:0:0:
324,309,198947,1,0,1:0:0:0:
150,230,199133,1,8,0:0:0:0:
324,309,199318,6,0,P|408:301|476:285,1,140,4|0,1:0|1:0,0:0:0:0:
247,96,199874,2,0,P|249:61|255:26,1,70,8|0,2:0|0:0,0:0:0:0:
314,144,200244,1,0,1:0:0:0:
165,53,200429,1,0,1:0:0:0:
70,234,200614,2,0,P|72:269|79:304,1,70,8|0,2:0|0:0,0:0:0:0:
335,282,200985,6,0,P|319:213|315:143,1,140,4|8,1:0|2:0,0:0:0:0:
372,85,201540,1,0,0:0:0:0:
275,341,201725,2,0,P|240:348|205:350,1,70,0|0,1:0|1:0,0:0:0:0:
230,136,202096,1,8,0:0:0:0:
315,237,202281,6,0,P|383:254|452:259,1,140,4|0,1:0|1:0,0:0:0:0:
230,136,202837,2,0,P|161:141|92:157,1,140,8|0,2:0|1:0,0:0:0:0:
66,238,203392,1,0,1:0:0:0:
36,95,203577,1,8,0:0:0:0:
311,158,203763,6,0,P|380:152|448:135,1,140,4|0,1:0|1:0,0:0:0:0:
463,291,204318,2,0,P|428:285|393:283,1,70,8|0,2:0|0:0,0:0:0:0:
326,333,204688,1,0,1:0:0:0:
486,210,204874,1,0,1:0:0:0:
410,61,205059,1,8,0:0:0:0:
331,122,205244,6,0,P|262:117|193:100,1,140,4|0,1:0|1:0,0:0:0:0:
7,232,205800,2,0,P|42:224|76:221,1,70,8|0,2:0|0:0,0:0:0:0:
219,293,206170,1,0,1:0:0:0:
182,34,206355,1,0,1:0:0:0:
115,83,206540,6,0,L|123:153,1,70,8|0,2:0|0:0,0:0:0:0:
219,293,206911,2,0,L|226:224,1,70,8|0,2:0|0:0,0:0:0:0:
183,34,207281,1,8,2:0:0:0:
169,361,207466,1,0,1:0:0:0:
309,140,207651,1,8,2:0:0:0:
137,280,207837,1,8,2:0:0:0:
354,212,208022,1,8,2:0:0:0:
249,313,208207,1,8,2:0:0:0:
15,243,208392,5,0,1:0:0:0:
187,217,208577,1,8,0:0:0:0:
187,217,208762,1,8,0:0:0:0:
167,298,208947,1,0,1:0:0:0:
339,324,209132,1,8,0:0:0:0:
339,324,209317,1,8,0:0:0:0:
359,243,209503,1,0,1:0:0:0:
288,198,209688,6,0,P|281:141|293:48,1,140,8|8,0:0|0:0,0:0:0:0:
175,140,210243,1,8,0:0:0:0:
367,85,210429,1,0,1:0:0:0:
422,277,210614,1,8,2:0:0:0:
422,277,210799,1,8,2:0:0:0:
326,139,210984,1,0,1:0:0:0:
306,220,211169,1,8,2:0:0:0:
415,85,211354,5,0,1:0:0:0:
243,59,211541,1,8,0:0:0:0:
243,59,211726,1,8,0:0:0:0:
263,140,211911,1,0,1:0:0:0:
91,166,212096,1,8,0:0:0:0:
91,166,212281,1,8,0:0:0:0:
71,85,212467,1,0,1:0:0:0:
187,190,212652,6,0,P|194:247|182:340,1,140,8|8,0:0|0:0,0:0:0:0:
263,140,213207,1,8,0:0:0:0:
71,85,213391,1,0,1:0:0:0:
16,277,213577,1,8,2:0:0:0:
247,310,213762,1,8,2:0:0:0:
55,255,213947,1,0,1:0:0:0:
427,217,214132,5,4,1:0:0:0:
256,192,214226,12,0,223948,0:0:0:0:
