osu file format v5

[General]
AudioFilename: Le cafe.mp3
AudioLeadIn: 0
PreviewTime: -1
Countdown: 0
SampleSet: Normal
StackLeniency: 0.7
Mode: 0
LetterboxInBreaks: 0

[Editor]
DistanceSpacing: 0.800000011920929
BeatDivisor: 2
GridSize: 64

[Metadata]
Title:Le cafe
Artist:Oldelaf and Mr D
Creator:TOXICOOW
Version:Normal
Source:
Tags:the coffee cafe

[Difficulty]
HPDrainRate:4
CircleSize:4
OverallDifficulty:6
SliderMultiplier:0.5
SliderTickRate:0.5

[Events]
//Background and Video events
0,0,"Caf.jpg"
Video,0,"cafe.avi"
//Break Periods
2,42484,43303
2,53507,57083
2,68587,78967
2,82386,90200
2,101639,109391
//Storyboard Layer 0 (Background)
//Storyboard Layer 1 (Fail)
//Storyboard Layer 2 (Pass)
//Storyboard Layer 3 (Foreground)
//Storyboard Sound Samples
//Background Colour Transformations
3,100,128,64,0

[TimingPoints]
1250,344.827586206897,4,1,0,100,1,0

[Colours]
Combo1 : 255,255,255
Combo2 : 176,88,0

[HitObjects]
249,106,2974,1,0
247,159,3318,1,0
249,209,3663,1,2
318,237,4353,5,0
279,191,4698,1,0
234,136,5043,1,2
161,86,5732,5,0
124,101,6077,1,0
105,135,6422,1,0
94,172,6767,1,0
90,210,7112,1,2
104,246,7456,1,2
137,268,7801,1,2
153,234,8491,6,0,C|273:238,1,112.5
293,233,9525,1,2
258,214,9870,6,0,C|184:138,1,100
188,142,10905,1,2
167,108,11250,5,0
180,70,11594,1,0
216,54,11939,1,2
280,98,12629,5,0
269,135,12974,1,0
266,174,13318,1,2
195,227,14008,5,2
164,196,14353,1,2
146,165,14698,1,2
211,130,15387,5,2
242,106,15732,1,0
279,95,16077,1,2
360,127,16767,5,0
397,141,17112,1,2
371,171,17456,1,2
316,213,18146,1,0
288,240,18485,2,2,C|192:320,1,100
156,260,19525,5,0
140,224,19870,1,0
135,184,20215,1,0
193,117,20905,5,0
213,83,21250,1,2
246,62,21594,1,0
109,201,22284,2,2,C|108:260,2,50
155,126,23663,5,0
194,122,24008,1,2
233,117,24353,1,0
259,194,25043,5,0
260,233,25382,1,0
241,267,25721,1,2
166,242,26422,5,0
197,218,26767,1,0
183,181,27112,1,2
143,84,27801,5,0
161,118,28146,1,0
200,118,28491,1,2
207,62,29181,5,0
224,97,29525,1,0
246,129,29870,1,2
338,160,30560,5,0
358,193,30899,1,0
389,170,31238,1,2
377,92,31939,5,0
360,56,32278,1,0
321,63,32617,1,2
271,124,33330,5,0
232,130,33669,1,0
196,147,34008,1,2
215,223,34698,1,0
246,246,35037,1,0
282,260,35376,1,2
209,228,36077,5,0
183,197,36416,1,0
170,159,36755,1,2
250,121,37456,5,0
289,118,37794,1,0
328,118,38146,1,2
303,192,38836,5,0
263,190,39175,1,0
223,188,39514,1,2
192,163,39853,1,2
184,124,40192,2,2,C|293:132,1,100,0|2
328,68,41594,5,0
359,92,41939,1,0
378,125,42284,1,2
142,125,44353,5,0
162,158,44692,1,0
185,189,45031,1,0
299,250,45562,1,0
297,250,45732,1,0
309,212,46071,1,0
312,172,46410,1,0
215,95,47112,5,4
179,110,47451,1,0
146,131,47789,1,0
183,200,48491,5,4
210,228,48836,1,0
236,256,49181,1,0
312,273,49882,5,4
349,284,50221,1,0
384,267,50560,1,0
221,244,51077,1,0
221,244,51246,1,0
143,245,51585,1,0
143,245,51755,1,4
161,158,52629,5,0
197,144,52968,1,2
233,130,53307,1,4
217,186,58146,5,0
269,190,58491,1,0
287,232,58836,1,2
224,279,59525,5,0
185,286,59870,1,0
151,264,60215,1,2
197,200,60905,5,0
228,175,61250,1,0
258,199,61594,1,2
265,237,61939,5,0
302,224,62284,2,6,C|304:116,1,100
236,96,63663,5,0
258,127,64008,1,0
288,151,64353,1,2
307,227,65043,5,0
291,263,65387,1,0
329,268,65732,1,2
251,254,66422,5,0
231,220,66761,1,0
194,205,67100,1,2
196,140,67801,5,0
251,138,68140,1,0
303,137,68478,1,2
92,288,80215,5,2
126,269,80554,1,2
161,251,80893,1,2
239,260,81508,5,2
273,241,81847,1,2
294,207,82186,1,2
157,146,91250,5,0
170,182,91589,1,0
196,210,91928,1,2
273,225,92629,1,0
239,246,92968,1,0
201,257,93307,1,2
126,105,94008,1,0
146,71,94353,1,0
183,60,94698,1,2
319,89,96767,5,4
321,89,96939,1,4
235,105,97284,1,4
235,104,97456,1,6
273,149,97974,5,4
288,185,98318,1,6
267,219,98663,1,4
237,156,99353,5,0
268,133,99692,1,0
305,119,100031,1,0
344,114,100370,1,0
354,182,100709,1,0
305,211,101048,1,0
255,224,101387,1,0
59,116,110387,5,4
63,155,110726,1,4
97,136,111065,1,6
375,126,111778,1,4
335,126,112117,1,4
295,127,112456,1,6
186,139,113318,5,0
198,192,113657,1,0
212,242,113996,1,2
341,136,114698,1,0
324,80,115037,1,0
287,25,115376,1,2
339,255,116077,1,0
282,252,116416,1,0
218,238,116755,1,2
148,235,117468,1,0
101,216,117807,1,0
104,154,118146,1,2
354,291,118839,5,0
383,250,119008,1,0
380,147,119347,1,0
347,97,119517,1,2
157,140,120215,5,0
140,184,120554,1,0
129,232,120893,1,2
197,227,121594,5,0
190,165,121932,1,0
187,106,122272,1,2
240,219,122974,5,0
245,156,123313,1,0
248,88,123652,1,2
419,69,124353,5,2
403,124,124698,1,2
359,75,125043,1,2
328,128,125387,1,2
303,67,125732,1,2
277,121,126077,1,2
232,62,126422,1,2
215,120,126767,1,2
186,67,127112,1,2
157,122,127456,1,2
117,64,127801,1,2
91,119,128146,1,2
49,57,128491,1,2
37,116,128836,1,2
39,175,129181,1,2
47,227,129525,1,2
93,315,129870,5,2
109,260,130215,1,2
153,309,130560,1,2
184,256,130905,1,2
209,317,131250,1,2
235,263,131594,1,2
280,322,131939,1,2
297,264,132284,1,2
326,317,132629,1,2
355,262,132974,1,2
395,320,133318,1,2
421,265,133663,1,2
463,327,134008,1,2
475,268,134353,1,2
473,209,134698,1,2
465,157,135043,1,2
256,192,135387,12,4,145607
