osu file format v5

[General]
AudioFilename: Le cafe.mp3
AudioLeadIn: 0
PreviewTime: -1
Countdown: 0
SampleSet: Normal
StackLeniency: 0.7
Mode: 0
LetterboxInBreaks: 0

[Editor]
DistanceSpacing: 0.800000011920929
BeatDivisor: 2
GridSize: 64

[Metadata]
Title:Le cafe
Artist:Oldelaf and Mr D
Creator:TOXICOOW
Version:Hard
Source:
Tags:the coffee cafe

[Difficulty]
HPDrainRate:5
CircleSize:5
OverallDifficulty:6
SliderMultiplier:1.4
SliderTickRate:1

[Events]
//Background and Video events
0,0,"Caf.jpg"
Video,0,"cafe.avi"
//Break Periods
2,42401,43131
2,53507,57099
2,74898,75889
2,82731,84337
2,94715,95544
2,101677,103823
//Storyboard Layer 0 (Background)
//Storyboard Layer 1 (Fail)
//Storyboard Layer 2 (Pass)
//Storyboard Layer 3 (Foreground)
//Storyboard Sound Samples
//Background Colour Transformations
3,100,128,64,0

[TimingPoints]
1250,344.827586206897,4,1,0,100,1,0

[Colours]
Combo1 : 255,255,255
Combo2 : 176,88,0

[HitObjects]
249,106,2974,1,0
219,129,3157,1,0
188,153,3340,1,0
173,190,3523,1,0
159,224,3706,1,2
318,237,4353,5,0
197,242,4621,1,2
254,186,4889,1,0
256,232,5068,1,6
252,145,5732,5,0
286,126,5911,1,0
318,147,6089,1,0
323,194,6268,2,2,L|274:244|292:244|279:254,1,70
245,253,6767,5,0
186,253,7125,1,0
188,199,7303,1,0
129,197,7482,1,0
129,252,7660,1,0
129,251,7839,1,2
256,192,8491,6,2,L|320:128,1,70
305,142,8841,1,0
305,142,9020,1,0
305,142,9198,1,2
256,192,9870,6,0,L|192:256,1,70,2|0
178,264,10227,1,0
119,238,10406,1,0
85,184,10584,1,2
137,72,11250,5,0
174,73,11420,1,6
156,99,11589,1,0
129,121,11759,1,0
179,130,11928,1,0
244,74,12456,5,0
243,131,12625,1,2
212,169,12974,1,0
273,171,13144,1,0
241,221,13313,1,6
245,81,14008,5,2
254,135,14177,1,2
203,112,14347,1,2
217,164,14516,1,2
164,148,14686,1,2
387,189,15387,5,2
334,205,15556,1,0
280,192,15726,1,0
225,198,15895,1,0
170,204,16065,2,0,L|170:297|169:349,1,140
95,253,16767,5,2
88,198,16936,1,2
85,142,17106,1,2
98,88,17275,1,2
150,70,17445,1,2
321,70,17974,1,2
305,122,18144,1,2
357,137,18313,1,2
395,176,18483,1,2
343,209,18652,1,2
293,231,18821,1,0
106,363,19525,5,0
131,313,19695,1,0
153,263,19864,1,0
176,213,20034,1,0
195,161,20203,1,0
398,59,20905,5,0
361,100,21075,1,0
344,152,21244,1,0
318,201,21414,1,0
301,253,21583,1,0
327,334,22284,5,0
375,307,22454,1,0
404,260,22623,1,0
421,207,22793,1,0
404,154,22962,2,0,L|380:69,2,70
361,186,23471,1,0
298,181,23663,1,0
256,219,23836,1,0
228,267,24008,1,0
174,282,24181,1,0
116,267,24353,1,6
259,194,25054,5,0
211,165,25224,1,0
258,137,25393,1,0
304,166,25562,1,0
259,194,25732,1,2
171,239,26422,5,0
218,240,26591,1,2
265,240,26761,1,0
305,239,26930,1,2
342,239,27100,1,2
143,84,27801,5,0
141,139,27971,1,0
142,193,28140,1,0
197,193,28310,1,2
251,192,28479,1,2
185,33,29008,5,0
223,71,29177,1,0
210,124,29347,1,0
264,115,29516,1,0
258,169,29686,1,0
251,184,29855,1,6
212,228,30563,5,0
173,208,30732,1,0
140,175,30902,1,0
134,126,31071,1,0
160,72,31241,2,2,L|348:114,1,175
372,110,31919,1,0
354,159,32089,1,0
325,197,32258,1,0
298,232,32428,1,0
264,267,32597,1,6
30,283,33318,5,0
54,230,33496,1,0
84,187,33657,1,2
109,138,33826,1,0
144,95,33996,1,0
287,188,34525,6,2,L|290:144,2,35
233,193,34864,1,0
182,214,35034,1,2
131,235,35203,1,0
80,258,35373,1,4
90,140,36077,5,0
117,187,36246,1,0
153,228,36416,1,0
205,242,36585,1,2
260,244,36755,1,0
469,151,37460,5,0
422,122,37629,1,0
374,94,37799,1,0
320,80,37968,1,0
266,64,38138,1,2
266,291,38838,5,0
239,242,39008,1,0
215,192,39177,1,2
190,142,39347,2,0,L|297:101,1,105
265,26,39855,1,0
287,76,40025,2,2,L|446:267,1,245
410,308,40872,1,0
410,308,41042,1,0
339,349,41523,5,0
283,350,41693,1,0
279,295,41862,1,0
334,296,42032,1,0
306,248,42201,1,0
155,169,44181,5,0
203,158,44353,1,0
305,118,44601,2,0,L|425:128,2,105
229,91,45364,1,0
175,78,45533,1,0
131,111,45703,1,0
93,151,45872,1,0
63,197,46042,1,0
51,250,46211,1,0
131,345,46594,5,6
274,254,47115,5,0
236,213,47284,1,0
262,164,47454,1,0
311,187,47623,1,2
356,218,47792,2,2,L|367:100,1,105,2|2
261,15,48491,5,0
219,50,48663,1,2
252,93,48830,1,0
301,115,48999,1,2
343,150,49169,2,2,L|450:322|450:322,1,175
355,262,49870,5,0
299,258,50040,1,0
244,261,50209,1,0
188,261,50379,1,0
133,269,50548,1,2
35,206,50905,1,2
101,198,51159,1,2
101,198,51329,1,2
169,159,51668,1,2
169,159,51837,1,2
374,79,52629,5,0
319,79,52798,1,0
263,81,52968,1,0
208,82,53137,1,0
152,85,53307,1,2
408,152,58149,5,0
433,200,58318,1,0
433,255,58488,1,0
413,306,58657,1,2
377,344,58827,2,0,L|202:284,1,175
186,203,59528,5,0
240,193,59698,1,0
221,141,59867,1,0
236,88,60037,1,0
266,42,60206,2,2,L|364:112,1,105
431,221,60905,5,0
379,241,61075,1,0
325,254,61244,1,2
270,262,61414,1,0
215,253,61583,1,0
166,251,61942,1,2
112,253,62112,2,2,L|110:199|110:199|110:200,5,35
112,253,62704,1,0
112,253,62874,1,2
55,113,63667,5,0
105,133,63836,1,0
159,140,64006,1,0
213,137,64175,1,0
266,148,64345,2,2,L|404:199,1,140
382,310,65043,5,0
327,304,65212,1,2
271,300,65382,1,0
216,297,65551,1,0
160,296,65721,2,2,L|44:143,1,175
74,120,66422,5,2
74,120,66507,1,0
128,112,66676,1,0
182,104,66846,1,0
221,141,67015,1,2
257,99,67185,2,2,L|337:106,2,70
241,185,67801,5,0
284,219,67971,1,0
329,249,68140,1,0
367,288,68310,1,0
413,317,68479,1,2
84,284,69181,6,2,L|254:88|478:303,4,560
256,192,77112,12,4,79526
92,288,80217,5,0
144,305,80387,1,0
198,300,80556,1,2
249,279,80726,1,0
293,247,80895,1,0
286,255,81422,5,0
331,286,81591,1,0
373,321,81761,1,0
426,334,81930,1,0
454,286,82100,2,2,L|350:144,1,175
205,207,85387,5,0
153,110,85732,1,0
154,108,85817,1,0
154,108,85902,1,0
154,108,85987,1,0
154,108,86072,1,0
154,108,86156,1,0
153,110,86241,2,2,L|251:109,2,70
111,112,86834,1,0
59,92,87004,1,0
33,140,87173,1,2
39,194,87284,1,2
60,220,87512,2,2,L|176:260,1,105
220,267,88146,5,2
220,267,88231,1,2
273,249,88836,1,0
273,249,88921,1,0
273,249,89006,2,2,L|231:156|231:159|229:156,1,70
175,95,89525,1,2
124,117,89695,2,2,L|36:241,1,140
32,254,90215,1,2
157,146,91250,5,0
212,145,91420,1,0
266,144,91589,1,0
269,148,91759,1,0
323,147,91928,2,2,L|137:268,1,210
95,270,92606,1,2
60,226,92776,1,2
32,178,92945,1,2
28,123,93114,1,2
53,74,93284,1,2
231,56,93836,5,0
260,102,94006,1,2
211,127,94175,1,0
168,162,94345,1,2
130,202,94515,1,2
287,49,96594,5,4
216,91,96848,1,6
285,136,97103,1,4
209,170,97357,1,6
134,208,97977,5,4
177,191,98146,1,4
221,164,98316,1,4
266,151,98485,1,4
309,145,98663,1,4
356,150,98836,1,6
348,273,99356,5,0
293,272,99525,1,0
237,274,99698,1,0
182,274,99870,1,0
126,274,100043,1,0
71,274,100215,1,0
73,218,100387,1,0
77,163,100560,1,0
91,119,100732,1,0
142,119,101051,1,0
142,119,101305,2,2,L|199:119,2,35
314,220,104873,5,4
284,173,105043,1,4
214,258,105382,1,4
81,220,105805,2,6,L|83:273,3,35
119,182,106314,1,4
142,132,106483,1,4
162,51,106738,2,6,L|394:53,1,210
413,120,107629,5,0
379,163,107798,1,0
424,193,107968,1,0
335,258,108307,1,0
280,261,108476,1,0
182,312,108815,1,0
214,267,108985,1,0
236,216,109154,1,0
209,167,109324,1,0
158,144,109493,2,0,C|61:72,1,105
59,116,110387,5,2
59,116,110472,1,0
113,109,110642,1,0
167,106,110811,1,0
222,106,110981,1,0
276,96,111150,1,0
392,260,111769,5,2
340,278,111939,1,0
286,287,112108,1,0
231,297,112278,1,0
176,291,112447,2,2,C|90:227,1,105
221,380,113322,5,0
275,370,113491,1,0
248,321,113661,1,0
205,286,113830,1,0
258,270,114000,2,2,C|355:204,1,105
349,67,114701,5,0
300,92,114870,1,0
277,142,115040,1,0
241,100,115209,1,0
220,151,115379,2,2,C|82:226,1,140
84,271,115905,5,0
138,252,116081,1,0
152,304,116250,1,0
205,289,116420,1,0
232,336,116589,1,0
281,316,116759,2,2,C|414:190,1,175
378,156,117201,5,4
341,123,117456,1,4
322,170,117625,1,4
286,125,117795,1,4
268,176,117964,1,4
236,124,118134,1,4
354,291,118663,5,0
299,286,118832,1,0
330,240,119002,1,0
358,193,119171,1,0
353,165,119256,2,2,C|115:159,1,210
157,140,120046,5,0
143,193,120215,1,0
135,247,120385,1,0
133,329,120639,1,0
187,336,120809,2,2,C|346:248,1,175
371,232,121424,5,0
306,233,121594,1,0
302,171,121763,1,0
372,168,121933,1,0
352,107,122102,1,0
299,107,122271,2,2,C|90:120,1,175
121,151,122864,1,0
124,206,123034,1,0
131,260,123203,1,0
148,311,123372,1,0
202,320,123542,1,0
395,245,124181,5,2
346,219,124351,2,0,C|218:92,1,140
259,64,124870,5,2
311,79,125043,2,0,C|234:213,1,140
187,203,125560,5,2
132,212,125732,2,0,C|215:331,1,140
262,318,126250,5,2
319,316,126422,2,0,C|321:168,1,140
282,174,126939,5,2
225,174,127112,2,0,C|353:101,1,140
368,137,127629,5,2
373,172,127801,2,0,C|446:314,1,140
373,301,128318,5,2
309,304,128491,2,0,C|154:303,1,140
196,252,129008,5,2
231,216,129181,2,0,C|354:122,1,140
317,100,129698,5,2
279,93,129870,2,0,C|130:72,1,140
136,114,130387,5,2
135,152,130560,2,0,C|179:303,1,140
210,290,131077,5,2
215,247,131250,2,0,C|220:105,1,140
248,86,131767,5,2
292,83,131939,2,0,C|451:149,1,140
416,167,132456,5,2
398,199,132629,2,0,C|262:290,1,140
251,291,133146,5,2
208,296,133318,2,0,C|152:137,1,140
172,131,133836,5,2
203,104,134008,2,0,C|303:211,1,140
298,206,134525,5,0
354,185,134698,2,2,C|403:42,2,140
256,192,135560,12,4,145732
