osu file format v5

[General]
AudioFilename: totallycrazy.mp3
AudioLeadIn: 0
PreviewTime: -1
Countdown: 0
SampleSet: Normal
StackLeniency: 0.7
Mode: 0
LetterboxInBreaks: 1

[Metadata]
Title:Totally Crazy
Artist:Olde English
Creator:Dranoel
Version:Mostly Crazy
Source:http://www.oldeenglish.org
Tags:

[Difficulty]
HPDrainRate:5
CircleSize:5
OverallDifficulty:6
SliderMultiplier:2.6
SliderTickRate:4

[Events]
//Background and Video events
0,0,"Totally the background image.jpg"
1,0,"totally crazy.flv"
//Break Periods
2,55861,61061
2,92010,92560
2,98283,104606
2,148559,160959
//Storyboard Layer 0 (Background)
//Storyboard Layer 1 (Failing)
//Storyboard Layer 2 (Passing)
//Storyboard Layer 3 (Foreground)
//Storyboard Sound Samples
//Background Colour Transformations
3,100,163,162,255

[TimingPoints]
17864,599.99,4,1,0,60,1

[HitObjects]
64,32,17861,1,0
96,64,18013,1,0
128,96,18163,1,0
160,64,18313,1,0
192,32,18463,1,0
256,96,18763,5,0
288,64,18913,1,0
320,32,19063,5,0
352,64,19213,1,0
384,96,19363,1,0
416,128,19513,1,0
448,160,19663,1,0
384,224,19963,5,0
224,256,20563,6,0,B|352:256,2,65
256,128,21313,2,0,B|160:128,2,65
288,128,21763,2,0,B|384:128,2,65
256,128,22213,1,0
128,160,22663,6,8,B|224:64|416:224,3,260
364,184,24763,1,0
352,96,25063,5,0
320,64,25213,1,0
224,64,25513,1,0
192,96,25663,1,0
160,64,25813,1,0
256,192,26263,12,4,26863
128,160,27463,5,0
136,116,27613,1,0
168,85,27763,1,0
212,87,27913,1,0
246,114,28063,1,0
275,148,28213,1,0
301,184,28363,1,0
345,261,28663,1,0
255,266,28963,6,0,B|159:266,1,65
213,179,29413,5,4
212,89,29713,5,0
256,96,29863,1,0
295,116,30013,1,0
334,195,30313,1,0
341,239,30463,1,0
316,276,30613,1,0
188,282,31063,6,0,B|220:218|252:250,2,65
165,320,31513,1,0
194,143,32113,6,2,B|194:79|258:79,1,65
320,64,32563,1,0
352,96,32713,1,0
320,128,32863,1,2
224,160,33163,1,0
320,192,33463,1,0
224,224,33763,1,2
320,256,34063,1,2
224,288,34363,5,0
192,256,34513,1,0
224,224,34663,1,4
192,192,34813,1,0
224,160,34963,1,4
192,128,35113,1,4
384,128,35713,5,8
352,160,35863,1,0
384,192,36013,1,8
352,224,36163,1,0
384,256,36313,1,8
352,288,36463,1,0
288,224,36763,5,0
288,192,36913,1,0
288,160,37063,2,0,B|128:160,1,130
160,192,37513,1,0
160,224,37663,2,0,B|320:224,1,130
288,256,38113,1,0
288,288,38263,2,0,B|448:288,2,130
384,256,39163,5,0
384,224,39313,1,0
384,192,39463,2,0,B|320:128|288:288|256:320|192:352|160:256,1,260
160,160,40513,5,0
160,192,40663,1,0
160,288,40963,1,0
160,320,41113,1,0
256,320,41413,1,0
352,320,41713,5,0
391,300,41863,1,0
412,261,42013,1,0
398,219,42163,1,0
366,187,42313,1,0
326,167,42463,1,0
256,192,42763,5,0
224,160,42913,1,0
192,192,43063,1,0
96,192,43513,1,0
96,0,44113,5,0
128,32,44263,1,0
160,0,44413,1,0
192,32,44563,1,0
224,0,44713,1,0
256,32,44863,1,0
288,0,45013,1,0
320,32,45163,1,0
352,0,45313,1,0
320,96,45613,6,0,B|224:96,1,65
224,128,45913,2,0,B|320:128,1,65
256,224,46363,5,0
288,256,46513,1,0
256,288,46663,1,0
160,288,46963,2,0,B|160:224|192:192,1,65
192,192,47263,2,0,B|224:128|288:128,1,65
256,128,47563,1,0
256,96,47713,5,0
256,128,47863,2,0,B|256:288,1,130
224,288,48313,2,0,B|256:416|288:256,1,130
288,256,48763,5,0
256,224,48913,1,0
224,256,49063,1,0
235,168,49363,1,0
279,166,49513,1,0
256,192,49663,12,0,50863
256,192,51163,5,12
193,129,51463,6,0,B|129:97|129:129,2,65
170,167,51913,2,0,B|202:199|266:167,1,65
254,95,52363,6,0,B|222:127|286:127|254:159,1,65
268,194,52663,2,0,B|268:226|300:258,2,65
311,203,53113,2,0,B|311:139|247:107,1,65
254,55,53863,6,0,B|318:55|254:23|222:23|190:23|158:87|190:119|318:87,1,260
160,192,54913,5,0
192,160,55063,1,0
224,192,55213,1,0
256,64,55663,1,2
32,160,62113,5,0
64,128,62263,2,0,B|128:64|128:192|192:128,1,130
224,160,62713,1,0
256,128,62863,2,0,B|320:64|320:192|384:128,1,130
416,128,63313,5,0
448,96,63463,1,0
416,64,63613,1,0
384,96,63763,1,0
352,128,63913,1,0
320,96,64063,1,0
288,224,64513,5,0
256,192,64663,1,0
224,224,64813,1,0
192,192,64963,1,0
160,224,65113,1,0
128,192,65263,1,0
160,160,65413,1,0
192,192,65563,1,0
224,160,65713,1,0
256,160,65863,6,0,B|320:128,1,65
320,96,66163,2,0,B|256:32,1,65
224,64,66463,1,0
128,64,66763,5,0
128,96,66913,1,0
128,128,67063,2,0,B|224:256,1,130
224,256,67513,1,0
256,256,67663,1,0
320,224,67963,5,0
288,192,68113,1,0
256,160,68263,2,0,B|128:160|64:224,1,195
32,256,68863,1,0
32,128,69313,5,0
32,160,69463,1,0
64,192,69613,1,0
96,160,69763,1,0
96,128,69913,1,0
64,96,70063,1,0
128,32,70363,5,0
160,32,70513,1,0
192,32,70663,1,0
128,64,70963,5,0
160,64,71113,2,0,B|32:96|320:128|0:96|160:224,1,195
128,256,71713,5,0
159,287,71863,1,0
202,295,72013,1,0
245,299,72163,1,0
333,294,72463,5,2
352,160,72913,5,8
320,128,73063,1,4
288,96,73213,1,0
192,96,73513,5,0
160,128,73663,1,4
160,256,74113,5,0
192,224,74263,1,0
224,256,74413,1,0
288,224,74713,1,0
320,256,74863,1,0
384,320,75163,5,0
352,288,75313,1,0
320,320,75463,1,0
288,288,75613,1,0
256,320,75763,1,0
224,288,75913,1,0
192,320,76063,1,0
97,227,76513,5,0
122,190,76663,1,0
162,173,76813,1,0
256,265,77263,5,2
415,227,77713,5,0
390,190,77863,1,0
350,173,78013,1,0
256,265,78463,5,2
97,157,78912,5,0
122,194,79062,1,0
162,211,79212,1,0
256,224,79512,5,2
256,224,79662,1,2
415,157,80112,5,0
390,194,80262,1,0
350,211,80412,1,0
256,224,80712,5,12
256,224,80862,1,4
388,224,81312,5,0
408,263,81462,1,0
376,294,81612,1,0
337,272,81762,5,2
302,244,81912,1,2
266,270,82062,1,2
155,196,82512,5,0
134,157,82662,1,0
155,118,82812,1,0
242,107,83112,5,4
266,143,83262,1,4
148,204,83712,6,0,C|212:172|276:204|340:172|404:204|468:172,1,325
384,64,84912,5,4
352,32,85062,5,4
320,64,85212,5,4
288,32,85362,5,4
256,64,85512,5,4
224,32,85662,5,4
160,160,86112,5,0
128,192,86262,1,0
160,224,86412,1,0
192,192,86562,1,0
160,96,86862,1,0
224,160,87162,5,0
256,128,87312,1,0
288,160,87462,1,0
288,192,87612,5,2
256,224,87762,1,2
224,192,87912,1,2
192,224,88062,1,2
96,128,88512,5,0
128,128,88662,1,0
224,128,88962,1,4
320,128,89262,1,4
384,256,89712,5,0
352,256,89862,1,0
256,256,90162,1,0
224,256,90312,1,0
192,256,90462,1,0
256,64,91362,5,4
224,96,91512,1,4
256,64,91662,1,4
224,96,91812,1,4
160,96,93462,6,0,B|192:64|224:96,1,65
224,128,93762,2,0,B|256:160|288:128,1,65
320,96,94062,1,0
320,192,94362,5,0
320,224,94512,1,0
320,256,94662,2,0,B|288:288|256:256,1,65
256,224,94962,2,0,B|224:192|192:224,1,65
160,256,95262,1,0
96,192,95562,5,0
128,160,95712,1,0
160,128,95862,1,0
192,160,96012,1,0
224,192,96162,1,0
256,160,96312,1,0
288,128,96462,1,0
352,288,97062,5,0
352,288,97212,1,0
352,288,97362,1,0
160,288,97962,1,0
160,288,98112,1,0
224,32,105462,6,0,B|288:64,1,65
288,96,105762,2,0,B|192:128,1,65
224,160,106062,2,0,B|288:192,1,65
256,224,106362,1,0
224,256,106512,6,0,B|352:320,1,130
352,288,106962,1,0
352,192,107262,6,0,B|256:192,2,65
352,96,107862,5,0
320,64,108012,1,0
288,96,108162,1,0
256,64,108312,2,0,B|96:64,1,130
96,96,108762,5,0
64,128,108912,1,0
96,160,109062,1,0
192,160,109362,5,0
288,160,109662,1,0
320,160,109812,1,0
320,64,110112,5,0
288,32,110262,1,0
256,32,110412,1,0
224,64,110562,1,0
192,160,110862,1,0
224,256,111312,5,0
256,224,111462,1,0
288,192,111612,1,0
320,160,111762,1,0
288,128,111912,1,0
256,96,112062,1,0
288,64,112212,1,0
192,64,112512,5,0
192,64,112662,2,0,B|192:224,1,130
224,224,113112,1,0
256,256,113262,2,0,B|256:96,1,130
288,96,113712,1,0
320,64,113862,1,0
320,192,114312,5,0
320,192,114462,1,0
224,32,115062,5,0
224,64,115212,1,2
224,96,115362,1,2
224,128,115512,1,2
256,320,116112,5,4
288,288,116262,1,4
288,256,116412,1,4
256,224,116562,1,4
224,256,116712,1,4
224,288,116862,1,4
192,192,117162,5,0
160,160,117312,1,0
128,192,117462,2,0,B|128:352,2,130
128,0,118662,6,0,B|224:0,1,65
192,32,118962,2,0,B|288:32,1,65
256,64,119262,1,0
160,224,119862,5,0
192,224,120012,1,0
224,224,120162,1,0
256,192,120312,1,0
288,192,120462,1,0
320,192,120612,1,4
320,96,120912,5,0
288,96,121062,1,0
256,96,121212,1,0
224,64,121362,1,0
192,64,121512,1,0
160,64,121662,1,0
128,96,121812,1,4
192,224,122262,5,0
224,192,122412,1,0
256,224,122562,1,0
288,192,122712,1,0
320,224,122862,1,0
352,192,123012,1,0
384,224,123162,1,4
256,192,123612,12,8,124062
416,320,124512,5,0
384,352,124662,1,0
352,352,124812,1,0
320,320,124962,1,0
288,320,125112,1,0
256,352,125262,1,0
224,352,125412,1,0
192,320,125562,1,4
256,192,126012,12,8,126462
96,128,127062,5,0
128,128,127212,1,0
160,128,127362,1,0
192,96,127512,1,0
224,96,127662,1,0
256,96,127812,1,4
288,128,127962,5,0
256,160,128112,1,0
224,128,128262,1,0
192,160,128412,1,0
224,192,128562,1,4
288,256,128862,5,4
288,64,129462,5,0
256,96,129612,1,0
288,128,129762,1,0
256,160,129912,1,0
288,192,130062,1,0
256,224,130212,1,0
352,320,130512,5,0
320,288,130662,1,0
288,256,130812,1,0
256,224,130962,1,0
288,192,131112,1,0
320,160,131262,1,0
288,128,131412,1,0
256,96,131562,5,0
224,128,131712,1,0
192,160,131862,5,2
192,64,132162,1,2
224,96,132312,1,2
256,128,132462,1,2
288,256,132912,5,8
288,256,133062,1,8
224,128,133362,2,8,B|256:64|320:96|352:128|288:160|256:160|288:224,1,195
160,64,134262,5,2
192,32,134412,1,2
224,64,134562,1,2
224,160,134862,1,2
224,256,135162,1,2
224,224,135312,5,8
224,192,135462,1,8
352,128,135912,2,12,B|288:224|192:96,1,195
160,128,136512,5,0
128,160,136662,1,8
192,160,136962,1,0
224,192,137112,1,0
192,224,137262,1,8
320,256,137712,5,0
288,224,137862,1,8
320,192,138011,1,0
352,224,138161,1,0
384,192,138311,1,8
288,96,138761,5,0
256,64,138911,1,4
224,96,139061,1,12
256,192,139511,5,0
256,256,139811,1,0
224,224,139961,1,0
192,224,140111,5,8
224,224,140261,1,0
256,224,140411,1,0
288,224,140561,1,8
320,224,140711,1,8
352,96,141311,5,0
320,96,141461,1,0
224,128,141761,1,0
320,160,142061,1,0
352,160,142211,1,0
352,192,142361,5,4
320,224,142511,1,4
288,192,142661,1,4
256,224,142811,1,4
224,192,142961,1,4
192,224,143111,1,4
160,192,143261,1,4
288,32,143861,5,0
256,32,144011,1,0
212,49,144161,1,0
188,88,144311,1,0
188,134,144461,1,0
209,174,144611,1,0
247,199,144761,1,0
333,231,145061,5,0
299,198,145211,1,0
255,215,145361,1,0
259,261,145511,1,0
304,270,145661,1,0
256,352,145961,5,0
192,288,146261,5,14
256,224,146561,1,14
192,160,146861,1,14
256,96,147161,1,14
192,32,147461,1,14
256,192,147761,12,8,148361
