osu file format v5

[General]
AudioFilename: Kind Lady (Interlude Rough Insturmental) - Okuyatos.mp3
AudioLeadIn: 0
PreviewTime: -1
Countdown: 1
SampleSet: Normal
StackLeniency: 0.6
Mode: 0
LetterboxInBreaks: 1
EditorBookmarks: 85703

[Metadata]
Title:Kind Lady (Instrumental)
Artist:Okuyatos
Creator:Takuma
Version:Hard
Source:
Tags:

[Difficulty]
HPDrainRate:6
CircleSize:5
OverallDifficulty:7
SliderMultiplier:1.4
SliderTickRate:1

[Events]
//Background and Video events
0,0,"kindladyinst-bg.png"
//Break Periods
2,28963,40319
//Storyboard Layer 0 (Background)
//Storyboard Layer 1 (Failing)
//Storyboard Layer 2 (Passing)
//Storyboard Layer 3 (Foreground)
//Storyboard Sound Samples
//Background Colour Transformations
3,100,163,162,255

[TimingPoints]
12792,444.839857651246,4,1,0,60,1,0

[Colours]
Combo1 : 128,128,255
Combo2 : 231,158,254
Combo3 : 204,230,115
Combo4 : 255,136,136

[HitObjects]
256,192,12791,12,4,14571
256,192,14793,5,0
184,192,15016,2,0,B|72:192,1,105,8|0
80,192,15572,1,0
80,122,15794,1,0
114,122,15905,1,8
240,64,16350,6,0,B|312:64|368:120,1,140,0|8
432,240,17240,2,0,B|288:240,1,140,0|8
224,240,17907,1,0
192,256,18018,1,0
88,288,18352,5,0
88,256,18463,1,0
138,207,18686,1,0
88,160,18908,1,0
112,136,19019,1,0
136,112,19130,1,0
240,112,19464,2,0,B|288:64|328:184|408:72,1,140,8|0
440,112,20131,1,0
512,112,20354,2,0,B|512:256,1,140,8|0
440,256,21021,2,0,B|440:304,2,35,0|0|8
440,256,21355,1,0
368,184,21688,5,0
368,112,21911,2,0,B|328:112,1,35
296,112,22133,1,8
264,112,22244,1,0
240,88,22356,1,0
216,112,22467,1,0
144,112,22689,2,0,B|96:168,1,70
98,165,23023,2,0,B|64:200|128:184|104:224,1,70,8|0
256,336,23690,5,0
256,336,23912,1,8
312,288,24135,1,0
368,240,24357,2,0,B|512:240,1,140,0|8
512,168,25025,5,0
480,168,25136,1,0
448,168,25247,1,0
448,96,25469,1,0
376,96,25692,2,0,B|280:80|280:184,1,140,8|0
280,240,26359,6,0,B|232:240,1,35
208,240,26582,2,0,B|160:240,1,35,8|0
152,264,26804,1,0
176,288,26915,1,0
80,288,27138,1,0
80,200,27360,1,0
80,112,27582,1,0
112,112,27694,1,0
136,88,27805,1,0
160,112,27916,2,0,B|312:112,2,140,0|8|6
149,192,41261,5,0
221,192,41484,5,0
293,192,41706,5,0
365,192,41929,5,0
256,192,42151,12,4,43041
256,56,43485,6,0,B|256:96,1,35,8|0
256,160,43819,1,0
256,160,43930,1,0
184,160,44153,2,0,B|144:160,1,35,2|0
80,160,44486,2,0,B|24:248|136:240|64:328,1,175,2|0
144,320,45265,1,0
184,264,45487,2,2,C|200:248|216:272|232:248,1,70,2|0
288,304,45932,1,0
360,304,46154,1,8
432,304,46377,2,0,C|432:232,1,70,0|4
432,200,46711,1,2
432,128,46933,5,2
400,112,47044,1,8
368,128,47155,1,0
328,128,47267,2,0,B|320:184,1,35,0|2
312,232,47600,1,0
240,224,47823,1,0
240,224,47934,1,8
240,80,48379,6,2,B|168:48|96:80,1,140,2|8
40,112,49046,2,2,B|0:192|48:256,1,140,2|0
72,304,49713,1,8
144,304,49936,1,0
144,232,50158,5,4
216,232,50380,1,0
216,160,50603,1,8
288,160,50825,1,2
288,160,50937,1,0
360,160,51159,1,2
360,160,51270,1,0
360,232,51493,2,0,B|400:296,1,70,8|0
472,224,51937,6,2,B|504:152|464:80,1,140,2|8
424,32,52605,2,2,B|280:32,1,140,2|4
216,32,53272,2,0,B|216:112,1,70,8|0
144,104,53717,2,0,B|96:104,2,35,2|0|0
144,176,54162,1,8
216,176,54384,1,0
288,176,54606,1,2
320,168,54718,2,0,B|424:192,1,105
422,191,55162,1,2
422,191,55274,1,6
424,256,55496,6,0,B|440:368|336:336,1,140,0|8
296,296,56163,1,0
296,296,56275,2,0,B|224:256,1,70,2|0
200,240,56608,2,0,B|152:296,2,70,2|8|2
224,208,57164,1,0
248,176,57275,1,4
288,120,57498,5,0
360,120,57720,1,8
328,184,57943,1,2
400,184,58165,1,2
472,304,58610,6,0,B|328:304,1,140,8|0
264,304,59277,2,0,B|180:304,1,70,0|8
120,304,59722,1,0
120,336,59833,1,2
120,232,60056,1,0
120,200,60167,1,2
152,200,60278,1,0
152,168,60389,1,10
192,112,60612,5,0
192,112,60723,2,0,B|232:112,2,35,0|2|0
232,176,61168,6,0,B|272:176,2,35,0|10|0
232,176,61501,1,0
232,208,61612,1,4
232,312,61946,1,0
232,312,62169,1,8
304,312,62391,1,0
376,312,62614,6,2,B|376:168,1,140,2|8
376,104,63281,2,2,B|352:16|288:176|280:56,1,140,2|0
208,64,63948,1,8
208,136,64171,1,0
176,136,64282,1,0
144,136,64393,1,4
72,136,64615,6,0,B|72:224,1,70,2|8
144,208,65060,2,0,B|144:288,1,70,2|0
216,280,65505,2,0,B|264:280,2,35,0|0|8
320,280,65950,1,0
320,208,66172,2,2,B|400:208,1,70
456,208,66617,1,8
432,144,66840,1,0
400,80,67062,1,2
328,80,67284,2,0,B|248:80,1,70,0|12
258,80,67618,1,0
152,80,67952,6,0,B|192:80,1,35
216,144,68285,1,2
288,144,68508,1,2
288,216,68730,1,0
288,248,68841,2,0,B|288:296,2,35,2|0|0
216,248,69286,2,0,B|128:248,1,70,10|0
256,192,69731,12,4,71510
256,192,72066,5,0
288,192,72177,1,0
320,176,72288,1,2
344,192,72400,1,0
416,192,72622,2,0,B|448:232,1,35,2|0
456,248,72845,2,2,B|456:304,1,35,8|0
368,336,73290,5,0
296,336,73512,1,0
296,264,73735,1,8
224,264,73957,1,0
192,264,74068,1,2
136,224,74291,1,2
80,264,74513,1,2
40,208,74735,1,0
40,208,74847,1,0
40,208,74958,1,0
40,208,75069,1,4
96,80,75736,5,0
96,80,75847,2,2,B|240:40|328:120,1,245,2|0
336,152,76737,2,2,B|208:264|320:368,1,245,2|0
312,361,77627,1,0
312,361,77738,1,6
368,312,77961,1,2
440,312,78183,2,0,B|440:272,1,35,8|0
440,312,78405,2,2,B|480:312,1,35
472,208,78739,6,0,B|472:88,1,105,0|8
331,102,79517,5,0
331,102,79629,1,0
264,104,79851,1,0
232,128,79962,1,8
176,168,80185,1,0
104,168,80407,2,0,B|104:280,1,105,2|4
184,344,81074,2,2,B|256:304|328:352,1,140,2|0
317,345,81630,1,0
317,345,81742,1,8
317,345,81853,1,0
408,288,82187,5,2
408,184,82520,2,0,B|328:184,1,70,0|2
304,120,82965,2,0,B|224:120,1,70,2|0
232,48,83410,1,2
160,48,83632,1,0
160,48,83743,1,2
88,48,83966,5,4
88,336,84411,5,4
424,336,84856,5,4
424,48,85300,5,4
256,192,85745,5,6
