osu file format v6

[General]
AudioFilename: kind-lady-okuyatos-.mp3
AudioLeadIn: 0
PreviewTime: 42667
Countdown: 1
SampleSet: Normal
StackLeniency: 0.7
Mode: 0
LetterboxInBreaks: 1

[Editor]
DistanceSpacing: 0.850000023841858
BeatDivisor: 4
GridSize: 8

[Metadata]
Title:Kind Lady
Artist:Okuyatos
Creator:Ekaru
Version:Professional
Source:DDR MAX
Tags:dance revolution eurobeat female vocals

[Difficulty]
HPDrainRate:6
CircleSize:5
OverallDifficulty:7
SliderMultiplier:2.2
SliderTickRate:2

[Events]
//Background and Video events
0,0,"kindlady.jpg"
//Break Periods
2,71072,77305
//Storyboard Layer 0 (Background)
//Storyboard Layer 1 (Fail)
//Storyboard Layer 2 (Pass)
//Storyboard Layer 3 (Foreground)
//Storyboard Sound Samples
//Background Colour Transformations
3,100,163,162,255

[TimingPoints]
1761,444.444444444444,4,1,0,70,1,0
42652,-100,4,1,0,70,0,1
56874,-100,4,1,0,70,0,0
58652,-100,4,1,0,70,0,1
71096,-100,4,1,0,70,0,0

[Colours]
Combo1 : 210,185,6
Combo2 : 89,89,89

[HitObjects]
208,256,14428,1,0
304,256,14650,1,0
256,176,14872,1,8
256,176,14983,1,8
200,48,15316,2,2,B|258:16|323:60,1,110
480,112,15983,6,0,B|528:160|472:232,1,110
400,168,16428,1,0
400,168,16539,1,0
304,168,16761,1,8
208,168,16983,1,8
112,168,17205,2,2,B|120:240|200:264,1,110
352,304,17983,5,0
352,304,18094,1,0
352,304,18205,1,0
352,208,18428,1,0
424,208,18539,2,0,B|408:144|352:120|288:168,1,165
280,72,19094,2,0,B|344:40|416:64,1,110
480,56,19539,5,4
256,264,19872,1,4
32,56,20205,1,4
128,56,20428,5,8
128,56,20539,1,8
128,152,20761,2,8,B|128:320,1,165
232,312,21316,1,0
352,296,21539,5,0
272,232,21761,1,0
360,200,21983,1,0
320,112,22205,1,2
256,80,22372,1,2
232,144,22539,1,2
16,240,23094,6,0,B|16:312|80:352|160:328,1,165
176,256,23650,1,0
256,216,23872,1,0
336,264,24094,1,0
256,304,24316,2,0,B|288:352|368:352,1,110
256,136,25094,5,0
184,72,25316,1,0
184,168,25539,1,0
184,264,25761,1,0
128,216,25928,1,2
72,168,26094,1,2
72,304,26428,5,0
160,336,26650,1,4
312,128,26983,1,4
464,336,27316,1,4
256,24,28650,5,0
256,24,28761,1,0
256,24,28872,1,0
256,120,29094,1,8
256,120,29205,1,8
200,248,29539,2,2,B|256:288|324:235,1,110
480,192,30205,5,0
384,192,30428,1,0
384,192,30539,1,0
320,120,30761,1,0
320,216,30983,1,8
320,312,31205,1,8
240,264,31428,2,2,B|184:240|184:168,1,110
256,24,32205,5,0
256,24,32316,1,0
256,24,32428,1,0
256,120,32650,1,8
256,120,32761,1,8
312,248,33094,2,2,B|256:288|188:235,1,110
152,176,33539,5,0
152,176,33761,1,2
288,176,34094,1,2
424,176,34428,1,2
496,120,34650,2,8,B|496:240,2,110
216,112,35761,6,0,B|160:80|80:128,1,110
112,208,36205,2,0,B|176:240|240:200,1,110,0|2
272,160,36594,1,2
344,160,36761,1,2
304,296,37094,5,0
392,264,37316,1,0
304,224,37539,1,0
304,224,37650,1,0
216,264,37872,1,2
128,224,38094,1,2
96,136,38316,1,2
184,96,38539,2,2,B|312:96,2,110,2|0|2
240,8,39316,5,0
336,16,39539,1,0
416,56,39761,1,0
480,120,39983,1,8
480,120,40094,1,8
464,208,40316,1,0
336,272,40650,1,2
248,272,40872,1,2
248,272,41205,1,2
248,272,41539,1,6
104,64,42650,5,4
160,192,42983,1,4
296,192,43316,1,4
232,48,43872,5,8
232,48,43983,1,8
232,144,44205,1,8
232,240,44428,1,0
312,288,44650,1,0
392,240,44872,1,8
392,240,44983,1,8
392,144,45205,2,2,B|344:88|286:159,1,110
224,24,45761,5,0
160,96,45983,1,0
104,168,46205,1,4
288,24,46650,5,0
352,96,46872,1,0
408,168,47094,1,4
256,96,47539,5,0
256,192,47761,1,0
256,288,47983,1,2
128,232,48316,1,2
0,288,48650,1,4
168,368,49094,6,14,B|424:368,1,220
256,240,49983,5,0
256,48,50428,1,0
256,48,50650,1,0
88,136,51094,1,8
184,136,51316,1,8
280,136,51539,1,8
376,136,51761,1,8
376,136,51872,1,8
472,136,52094,1,2
472,136,52205,2,2,B|472:200|456:248|432:304|384:336|280:320|248:272,1,330
176,264,53094,5,0
80,264,53316,1,0
80,168,53539,1,0
176,168,53761,1,0
248,112,53983,1,0
320,168,54205,2,0,B|432:168|432:168|432:288,1,220
336,280,54872,1,0
240,280,55094,1,2
240,376,55316,1,2
336,376,55539,1,2
432,376,55761,1,4
256,192,56205,5,0
256,192,56428,1,0
256,192,56650,1,4
432,184,57094,6,0,B|424:136|416:96|384:48|344:24|280:8|240:8|200:8|136:32|80:48|40:88|24:152|32:232|80:296,1,660
256,192,58872,5,4
256,192,59316,1,4
256,192,59761,1,4
384,304,60428,5,0
304,256,60650,1,0
224,304,60872,1,2
224,120,61316,1,0
304,72,61539,1,0
384,120,61761,1,2
456,232,62205,6,0,B|352:168|176:192|96:240,1,330
304,296,63316,5,8
304,296,63539,1,8
304,296,63761,1,8
168,160,64205,6,0,B|88:112|24:136|16:192|56:256,1,220
104,312,64872,2,0,B|176:344|224:312|240:264|232:232|224:192,1,220
272,112,65539,1,2
368,112,65761,1,2
368,248,66094,1,2
368,376,66428,1,8
440,312,66650,2,8,B|304:312,1,110
256,144,67316,5,0
208,64,67539,2,0,B|160:96|152:160,1,110
304,64,67983,2,0,B|352:96|360:160,1,110
328,240,68428,2,0,B|304:312|256:344|200:312|176:224,1,220
88,248,69094,1,0
32,168,69316,2,0,B|72:112|136:112|192:152,2,165
256,192,70428,5,2
256,192,70650,1,2
256,192,70872,1,4
56,304,78205,5,0
56,304,78428,1,0
152,208,78761,5,8
152,208,78872,1,8
96,128,79094,2,8,B|160:104|216:136,1,110
328,64,79650,5,0
392,136,79872,1,8
392,136,79983,1,8
392,232,80205,1,2
336,312,80428,1,8
336,312,80539,1,8
272,240,80761,2,8,B|272:120,1,110
208,64,81205,5,4
208,64,81428,1,4
96,144,81761,5,0
120,232,81983,1,0
120,232,82094,1,0
192,288,82317,5,0
288,288,82539,1,0
288,288,82650,1,0
368,232,82872,1,0
368,232,82983,1,0
256,192,83317,12,4,85317
