osu file format v6

[General]
AudioFilename: kind-lady-okuyatos-.mp3
AudioLeadIn: 0
PreviewTime: 42667
Countdown: 1
SampleSet: Normal
StackLeniency: 0.7
Mode: 0
LetterboxInBreaks: 1

[Editor]
DistanceSpacing: 0.850000023841858
BeatDivisor: 4
GridSize: 8

[Metadata]
Title:Kind Lady
Artist:Okuyatos
Creator:Ekaru
Version:Intern
Source:DDR MAX
Tags:dance revolution eurobeat female vocals

[Difficulty]
HPDrainRate:4
CircleSize:4
OverallDifficulty:5
SliderMultiplier:1.9
SliderTickRate:2

[Events]
//Background and Video events
0,0,"kindlady.jpg"
//Break Periods
2,71072,77005
//Storyboard Layer 0 (Background)
//Storyboard Layer 1 (Fail)
//Storyboard Layer 2 (Pass)
//Storyboard Layer 3 (Foreground)
//Storyboard Sound Samples
//Background Colour Transformations
3,100,163,162,255

[TimingPoints]
1761,444.444444444444,4,1,0,70,1,0
42652,-100,4,1,0,70,0,1
56874,-100,4,1,0,70,0,0
58652,-100,4,1,0,70,0,1
71096,-100,4,1,0,70,0,0

[Colours]
Combo1 : 210,185,6
Combo2 : 89,89,89

[HitObjects]
40,224,14650,1,8
112,184,14872,1,8
128,104,15094,1,2
288,104,15539,1,0
448,104,15983,1,0
368,240,16428,1,8
320,304,16650,1,8
240,320,16872,2,2,B|176:288|152:216|208:144,1,190
336,40,18205,5,0
176,40,18650,1,0
256,176,19094,1,0
96,288,19539,5,4
256,288,19872,1,4
416,288,20205,1,4
8,32,21761,6,0,B|216:32,1,190
512,128,22650,2,0,B|304:128,1,190
8,224,23539,2,0,B|264:224,1,190
504,320,24428,2,0,B|272:320,1,190
48,248,25316,5,0
144,48,25761,1,0
352,152,26205,1,0
256,344,26650,5,4
216,200,26983,1,4
312,80,27316,1,4
120,32,28428,5,0
176,88,28650,1,8
256,72,28872,1,0
384,168,29316,1,0
232,224,29761,1,0
112,328,30205,1,0
184,360,30428,1,8
264,360,30650,1,0
368,240,31094,1,0
344,160,31316,1,8
272,128,31539,1,0
32,48,32428,6,0,B|40:192|88:280|176:312|296:320,1,380
392,248,33761,1,4
288,128,34094,1,4
192,248,34428,1,4
400,328,35983,5,0
168,104,36872,1,0
488,40,37761,1,0
264,272,38650,1,0
40,32,39539,1,0
40,352,40428,1,0
256,344,40872,5,4
256,192,41205,1,4
256,48,41539,1,4
448,200,42650,5,0
344,344,42983,1,0
176,344,43316,1,0
192,112,43983,2,0,B|80:112|48:224,1,190,8|0
128,360,44872,2,0,B|264:376|296:256,1,190,8|0
176,160,45761,5,0
496,168,46650,1,0
344,368,47539,1,2
344,240,47983,5,4
200,160,48316,1,4
64,232,48650,1,4
408,64,50205,5,0
248,64,50650,1,0
144,192,51094,1,0
240,320,51539,1,0
400,320,51983,1,0
496,192,52428,2,2,B|272:192,1,190
16,40,53761,5,0
176,320,54650,1,0
496,320,55539,1,0
296,176,56205,5,4
240,64,56428,1,4
184,176,56650,1,4
24,192,57094,6,0,B|56:288|120:376|328:368|376:360|448:272|464:176,1,570
320,32,58872,5,4
56,192,59316,1,4
320,352,59761,1,4
456,152,60428,6,0,B|376:64|256:104,1,190,8|0
168,208,61316,2,0,B|216:312|336:288,1,190,8|0
240,152,62205,1,4
240,152,62539,1,4
240,152,62872,1,4
40,72,64428,5,0
40,72,64650,1,0
40,72,64872,1,2
256,72,65316,1,0
256,72,65539,1,0
256,72,65761,1,2
472,80,66205,1,0
472,80,66428,1,0
472,80,66650,1,2
472,240,67094,5,0
144,240,67983,1,0
392,32,68872,1,0
256,328,69761,1,0
376,192,70428,5,4
256,192,70650,1,4
136,192,70872,1,4
256,352,78205,5,8
256,352,78428,1,8
256,32,79094,1,8
256,32,79316,1,8
96,192,79983,1,0
256,192,80428,1,0
416,192,80872,1,0
256,32,81316,1,0
256,192,81761,5,8
256,192,81983,1,8
64,344,82650,1,8
64,344,82872,1,8
256,192,83316,12,4,85316
