osu file format v6

[General]
AudioFilename: kind-lady-okuyatos-.mp3
AudioLeadIn: 0
PreviewTime: 42667
Countdown: 1
SampleSet: Normal
StackLeniency: 0.7
Mode: 0
LetterboxInBreaks: 1

[Editor]
DistanceSpacing: 0.850000023841858
BeatDivisor: 4
GridSize: 8

[Metadata]
Title:Kind Lady
Artist:Okuyatos
Creator:Ekaru
Version:Amateur
Source:DDR MAX
Tags:dance revolution eurobeat female vocals

[Difficulty]
HPDrainRate:4
CircleSize:3
OverallDifficulty:3
SliderMultiplier:1.7
SliderTickRate:2

[Events]
//Background and Video events
0,0,"kindlady.jpg"
//Break Periods
2,71072,76765
//Storyboard Layer 0 (Background)
//Storyboard Layer 1 (Fail)
//Storyboard Layer 2 (Pass)
//Storyboard Layer 3 (Foreground)
//Storyboard Sound Samples
//Background Colour Transformations
3,100,163,162,255

[TimingPoints]
1761,444.444444444444,4,1,0,70,1,0
42652,-100,4,1,0,70,0,1
56874,-100,4,1,0,70,0,0
58652,-100,4,1,0,70,0,1
71096,-100,4,1,0,70,0,0

[Colours]
Combo1 : 210,185,6
Combo2 : 89,89,89

[HitObjects]
56,336,14650,1,0
144,224,15094,1,2
232,336,15539,1,2
376,88,16428,5,0
272,192,16872,1,2
176,88,17317,1,2
368,304,18205,5,0
368,304,18650,1,2
368,304,19094,1,2
224,304,19539,2,8,B|136:296|96:240,2,127.5,8|8|4
48,64,21761,5,0
96,200,22205,1,0
216,272,22650,1,0
344,200,23094,1,0
392,64,23539,2,0,B|32:64,1,340
152,336,25316,5,0
272,256,25761,1,2
272,112,26205,1,2
152,24,26650,2,8,B|152:168,2,127.5,8|8|4
256,352,28872,5,0
256,64,29761,1,8
128,320,30650,5,0
128,32,31539,1,8
416,32,32428,5,0
416,320,33316,1,8
272,320,33761,2,2,B|272:176,2,127.5
88,64,35983,5,0
88,352,36872,1,0
232,352,37316,1,8
376,352,37761,1,8
304,224,38205,1,8
160,224,38650,1,2
72,40,39539,5,0
360,40,40428,1,0
360,184,40872,2,4,B|216:184,2,127.5
256,344,42650,5,0
128,88,43539,1,8
256,24,43983,1,0
384,88,44428,1,8
384,296,45316,5,8
256,360,45761,1,0
128,296,46205,1,8
256,32,47094,1,2
256,320,47983,2,2,B|256:160,2,127.5
256,16,50205,5,0
136,104,50650,1,0
136,248,51094,1,0
256,328,51539,1,0
376,256,51983,1,0
376,112,52428,1,0
256,200,52872,1,0
184,72,53316,5,0
64,336,54205,1,0
352,336,55094,1,0
272,216,55539,1,0
272,216,55983,1,0
272,216,56428,1,6
256,32,58872,5,4
256,176,59316,1,4
256,320,59761,1,4
480,32,60872,5,0
192,32,61761,1,0
88,304,62650,2,8,B|464:304,1,340
360,24,64428,5,8
248,120,64872,1,8
136,216,65316,1,8
248,304,65761,1,0
360,216,66205,1,14
104,352,67094,5,0
392,352,67983,1,0
392,64,68872,1,0
104,64,69761,1,0
256,216,70428,6,4,B|256:32,1,170
88,344,78205,5,0
376,344,79094,1,0
376,24,79983,1,0
232,96,80428,1,0
88,24,80872,1,0
136,312,81761,5,0
424,312,82650,1,0
256,192,83316,12,4,85316
