osu file format v12

[General]
AudioFilename: Kimi to Deaeru Hi.mp3
AudioLeadIn: 2250
PreviewTime: 49951
Countdown: 0
SampleSet: Soft
StackLeniency: 0.7
Mode: 0
LetterboxInBreaks: 0

[Editor]
DistanceSpacing: 0.85
BeatDivisor: 4
GridSize: 4

[Metadata]
Title:Prime number ~Kimi to Deaeru Hi~ (TV Size)
TitleUnicode:Prime number~君と出会える日~ (TV Size)
Artist:Okura Asuka
ArtistUnicode:大倉明日香
Creator:Flask
Version:Normal
Source:Sakurasou no Pet na Kanojo
Tags:ending ed2 Sorata Kanda Mashiro Shiina Nanami Aoyama Misaki Kamiigusa Jin Mitaka Ryunosuke Akasaka Meido Maid J.C.STAFF No_Gu Black_Cherry_Ita BCI Flower
BeatmapID:227170
BeatmapSetID:81556

[Difficulty]
HPDrainRate:4
CircleSize:3
OverallDifficulty:3
ApproachRate:5
SliderMultiplier:1.3
SliderTickRate:2

[Events]
//Background and Video events
0,0,"mashiro.jpg",0,0
Video,288,"Video.flv"
//Break Periods
//Storyboard Layer 0 (Background)
//Storyboard Layer 1 (Fail)
//Storyboard Layer 2 (Pass)
//Storyboard Layer 3 (Foreground)
//Storyboard Sound Samples
//Background Colour Transformations
3,100,163,162,255

[TimingPoints]
315,434.782608695652,4,2,1,50,1,0
2923,-100,4,2,0,50,0,0
3032,-100,4,2,1,50,0,0
3793,-100,4,2,0,50,0,0
3901,-100,4,2,1,50,0,0
4445,-100,4,2,0,50,0,0
5097,-100,4,2,1,50,0,0
6401,-100,4,2,0,50,0,0
6619,-100,4,2,1,50,0,0
7271,-100,4,2,0,50,0,0
7380,-100,4,2,1,50,0,0
8358,-100,4,2,0,50,0,0
8467,-100,4,2,1,50,0,0
9880,-100,4,2,0,50,0,0
9988,-100,4,2,1,50,0,0
12162,-100,4,1,0,30,0,0
12488,-100,4,2,1,50,0,0
13358,-100,4,2,0,50,0,0
13467,-100,4,2,1,50,0,0
14228,-100,4,2,3,50,0,0
14336,-100,4,2,1,50,0,0
15097,-100,4,2,0,50,0,0
15206,-100,4,2,1,50,0,0
15967,-100,4,2,0,50,0,0
16075,-100,4,2,1,50,0,0
16836,-100,4,2,0,50,0,0
16945,-100,4,2,1,50,0,0
17706,-100,4,2,3,50,0,0
17814,-100,4,2,1,50,0,0
18575,-100,4,2,0,50,0,0
18684,-100,4,2,1,50,0,0
19445,-100,4,2,0,50,0,0
19554,-100,4,2,1,50,0,0
20967,-100,4,2,0,50,0,0
21075,-100,4,2,1,50,0,0
21836,-100,4,2,0,50,0,0
22488,-100,4,2,1,50,0,0
23793,-100,4,2,0,50,0,0
23901,-100,4,2,1,50,0,0
24662,-100,4,2,3,50,0,0
24771,-100,4,2,1,50,0,0
25532,-100,4,2,0,50,0,0
25641,-100,4,2,1,50,0,0
26401,-100,4,2,0,50,0,0
26510,-100,4,2,1,50,0,0
27271,-100,4,2,0,50,0,0
27380,-100,4,2,1,50,0,0
28141,-100,4,2,3,50,0,0
28249,-100,4,2,1,50,0,0
29010,-100,4,2,0,50,0,0
29119,-100,4,2,1,50,0,0
31184,-100,4,2,2,50,0,0
31293,-100,4,2,1,50,0,0
31401,-100,4,2,0,50,0,0
31510,-100,4,2,1,50,0,0
33358,-100,4,2,0,50,0,0
33467,-100,4,2,1,50,0,0
34010,-100,4,2,0,50,0,0
34119,-100,4,2,1,50,0,0
34880,-100,4,2,0,50,0,0
34988,-100,4,2,1,50,0,0
36184,-100,4,2,3,50,0,0
36293,-100,4,2,1,50,0,0
36836,-100,4,2,2,50,0,0
37814,-100,4,2,1,50,0,0
38575,-100,4,2,2,50,0,0
38684,-100,4,2,1,50,0,0
38901,-100,4,2,2,50,0,0
39662,-100,4,2,1,50,0,0
40097,-100,4,2,2,50,0,0
41619,-100,4,2,1,50,0,0
41728,-100,4,2,2,50,0,0
42271,-100,4,2,1,50,0,0
42380,-100,4,2,2,50,0,0
42706,-100,4,2,1,50,0,0
43358,-100,4,2,1,50,0,0
43793,-100,4,2,2,50,0,0
44771,-100,4,2,1,50,0,0
45314,-100,4,2,2,50,0,0
45749,-100,4,2,1,50,0,0
45858,-100,4,2,2,50,0,0
46293,-100,4,2,1,50,0,0
47706,-100,4,2,2,50,0,0
48141,-100,4,2,0,50,0,0
48249,-100,4,2,1,50,0,0
49445,-100,4,2,0,50,0,0
49554,-100,4,2,1,50,0,0
50532,-100,4,2,1,70,0,1
51619,-100,4,2,3,70,0,1
51836,-100,4,2,1,70,0,1
52488,-100,4,2,3,70,0,1
52597,-100,4,2,1,70,0,1
53358,-100,4,2,0,70,0,1
53467,-100,4,2,1,70,0,1
54228,-100,4,2,0,70,0,1
54336,-100,4,2,1,70,0,1
55097,-100,4,2,0,70,0,1
55206,-100,4,2,1,70,0,1
55967,-100,4,2,0,70,0,1
56075,-100,4,2,1,70,0,1
56836,-100,4,2,3,70,0,1
56945,-100,4,2,1,70,0,1
58575,-100,4,2,0,70,0,1
58684,-100,4,2,1,70,0,1
59445,-100,4,2,0,70,0,1
59554,-100,4,2,1,70,0,1
60314,-100,4,2,0,70,0,1
60423,-100,4,2,1,70,0,1
62054,-100,4,2,0,70,0,1
62162,-100,4,2,1,70,0,1
62271,-100,4,2,1,45,0,1
62380,-100,4,2,1,70,0,1
63793,-100,4,1,0,50,0,1
63901,-100,4,2,1,70,0,1
64336,-100,4,2,1,70,0,0
64445,-100,4,2,1,70,0,1
65532,-100,4,2,3,70,0,1
65641,-100,4,2,1,70,0,1
66401,-100,4,2,3,70,0,1
66510,-100,4,2,1,70,0,1
67271,-100,4,2,3,70,0,1
67380,-100,4,2,1,70,0,1
69010,-100,4,2,3,70,0,1
69119,-100,4,2,1,70,0,1
70314,-100,4,2,0,70,0,1
70423,-100,4,2,1,70,0,1
70749,-100,4,2,0,70,0,1
70858,-100,4,2,1,70,0,1
71619,-100,4,2,1,50,0,0
72054,-100,4,2,0,50,0,0
72162,-100,4,2,1,50,0,0
72923,-100,4,2,0,50,0,0
73032,-100,4,2,1,50,0,0
73793,-100,4,2,0,50,0,0
73901,-100,4,2,1,50,0,0
74662,-100,4,2,0,50,0,0
74771,-100,4,2,1,50,0,0
75097,-100,4,2,0,50,0,0
75532,-100,4,2,3,50,0,0
75641,-100,4,2,1,50,0,0
76619,-100,4,2,1,50,0,0
77162,-100,4,1,0,40,0,0
77380,-100,4,2,1,50,0,0
78575,-100,4,2,1,70,0,1
78684,-100,4,2,1,50,0,0
80314,-100,4,2,1,40,0,0
81184,-100,4,2,1,30,0,0
82054,-100,4,2,1,20,0,0
82923,-100,4,2,1,10,0,0
83793,-100,4,2,1,5,0,0

[Colours]
Combo1 : 114,0,227
Combo2 : 255,143,89
Combo3 : 204,102,0
Combo4 : 255,255,125
Combo5 : 255,36,36
Combo6 : 0,134,198
Combo7 : 255,45,255
SliderBorder : 255,255,255

[HitObjects]
168,132,315,2,0,P|144:192|164:260,2,130,8|8|8,0:0|0:0|0:0,0:0:0:0:
256,64,1619,1,8,0:0:0:0:
344,132,2054,6,0,P|368:192|348:260,1,130,4|8,0:0|0:0,0:0:0:0:
264,320,2923,2,0,L|252:400,2,65,2|0|2,0:0|0:0|0:0,0:0:0:0:
156,288,3793,1,2,0:0:0:0:
156,288,4010,2,0,L|100:224,1,65,0|8,0:0|0:0,0:0:0:0:
76,200,4445,2,0,P|56:136|72:76,1,130,0|2,0:0|0:0,0:0:0:0:
104,32,5097,1,2,0:0:0:0:
200,88,5532,6,0,P|264:100|320:72,1,130,4|8,0:0|0:0,0:0:0:0:
428,52,6401,2,0,L|480:8,2,65,2|0|2,0:0|0:0|0:0,0:0:0:0:
388,156,7271,1,2,0:0:0:0:
388,156,7488,2,0,L|360:216,1,65,0|8,0:0|0:0,0:0:0:0:
348,268,7923,2,0,P|416:248|472:268,1,130,0|2,0:0|0:0,0:0:0:0:
508,304,8575,1,2,0:0:0:0:
508,192,9010,6,0,P|488:128|504:64,1,130,4|8,0:0|0:0,0:0:0:0:
392,52,9880,2,0,P|392:88|380:124,2,65,2|0|2,0:0|0:0|0:0,0:0:0:0:
284,72,10749,1,4,0:0:0:0:
284,72,10967,2,0,L|208:88,1,65,0|8,0:0|0:0,0:0:0:0:
188,40,11401,2,0,P|196:112|172:168,1,130,0|0,0:0|0:0,0:0:0:0:
156,216,12054,1,2,0:0:0:0:
96,308,12488,6,0,L|52:360,2,65,4|0|8,0:0|0:0|0:0,0:0:0:0:
208,316,13358,2,0,P|272:336|332:316,1,130,2|2,0:0|0:0,0:0:0:0:
368,276,14010,2,0,P|348:212|368:152,1,130
416,128,14662,2,0,L|284:128,2,130,8|2|2,0:0|0:0|0:0,0:0:0:0:
444,20,15967,6,0,L|512:20,2,65,2|0|8,0:0|0:0|0:0,0:0:0:0:
332,28,16836,2,0,P|264:28|212:60,1,130,2|8,0:0|0:0,0:0:0:0:
204,116,17488,2,0,P|208:188|164:236,1,130
136,272,18141,2,0,P|124:300|124:336,1,65,8|0,0:0|0:0,0:0:0:0:
172,364,18575,2,0,L|32:364,2,130,2|2|2,0:0|0:0|0:0,0:0:0:0:
256,292,19880,5,8,0:0:0:0:
340,364,20314,2,0,L|480:364,1,130,0|2,0:0|0:0,0:0:0:0:
504,320,20967,2,0,B|532:256|476:192|476:192|472:128,1,195,2|8,0:0|0:0,0:0:0:0:
500,88,21836,2,0,P|420:136|348:72,1,195,2|2,0:0|0:0,0:0:0:0:
240,76,22923,6,0,L|216:12,2,65,4|0|8,0:0|0:0|0:0,0:0:0:0:
284,176,23793,2,0,P|296:248|272:304,1,130,2|2,0:0|0:0,0:0:0:0:
224,324,24445,2,0,P|155:298|119:249,1,130
120,200,25097,2,0,P|124:168|108:132,1,65,8|0,0:0|0:0,0:0:0:0:
60,120,25532,2,0,L|196:108,1,130,2|2,0:0|0:0,0:0:0:0:
284,52,26401,6,0,L|336:0,2,65,2|0|8,0:0|0:0|0:0,0:0:0:0:
284,164,27271,2,0,P|304:232|360:268,1,130,2|2,0:0|0:0,0:0:0:0:
404,264,27923,2,0,P|452:212|456:146,1,130
468,100,28575,2,0,L|492:36|492:36,2,65,8|0|2,0:0|0:0|0:0,0:0:0:0:
380,168,29445,1,2,0:0:0:0:
352,60,29880,5,4,0:0:0:0:
276,140,30314,2,0,P|228:196|240:256,1,130,8|0,0:0|0:0,0:0:0:0:
272,288,30967,2,0,P|328:320|388:288,1,130,0|2,0:0|0:0,0:0:0:0:
452,208,31836,2,0,L|512:176,2,65,0|8|0,0:0|0:0|0:0,0:0:0:0:
372,132,32706,2,0,L|374:64,2,65,0|2|0,0:0|0:0|0:0,0:0:0:0:
344,180,33358,6,0,P|296:224|228:196,1,130,2|8,0:0|0:0,0:0:0:0:
180,112,34228,2,0,P|176:72|152:40,2,65,0|0|2,0:0|0:0|0:0,0:0:0:0:
156,164,34880,2,0,P|108:212|140:324,1,195,2|8,0:0|0:0,0:0:0:0:
128,372,35749,2,0,P|216:320|296:368,1,195,4|2,0:0|0:0,0:0:0:0:
396,332,36836,5,4,0:0:0:0:
492,280,37271,1,8,0:0:0:0:
440,180,37706,1,8,0:0:0:0:
344,232,38141,1,2,0:0:0:0:
240,200,38575,6,0,P|184:180|112:208,1,130,8|8,0:0|0:0,0:0:0:0:
60,296,39445,2,0,P|116:316|188:288,1,130,8|2,0:0|0:0,0:0:0:0:
240,200,40314,5,8,0:0:0:0:
228,92,40749,1,8,0:0:0:0:
336,76,41184,1,8,0:0:0:0:
348,184,41619,1,2,0:0:0:0:
300,284,42054,6,0,P|332:348|396:356,1,130,8|8,0:0|0:0,0:0:0:0:
440,344,42706,2,0,P|479:284|454:224,1,130,4|4,0:0|0:0,0:0:0:0:
444,180,43358,2,0,L|440:104,1,65,2|0,0:0|0:0,0:0:0:0:
436,60,43793,5,4,0:0:0:0:
332,20,44228,1,8,0:0:0:0:
256,100,44662,1,8,0:0:0:0:
180,20,45097,1,2,0:0:0:0:
76,60,45532,6,0,P|56:124|80:184,1,130,8|8,0:0|0:0,0:0:0:0:
128,204,46184,2,0,P|149:260|129:324,1,130
84,356,46836,1,2,0:0:0:0:
84,356,47054,2,0,B|196:356|196:356|224:304|280:304,1,195,0|8,0:0|0:0,0:0:0:0:
312,316,47923,6,0,L|380:336,2,65,0|2|0,0:0|0:0|0:0,0:0:0:0:
280,272,48575,1,8,0:0:0:0:
228,260,48793,2,0,B|184:208|220:124|220:124|160:124,1,195,4|2,0:0|0:0,0:0:0:0:
8,92,50097,5,0,0:0:0:0:
24,144,50314,1,0,0:0:0:0:
20,200,50532,2,0,P|24:288|108:340,1,195,4|8,0:0|0:0,0:0:0:0:
164,344,51401,2,0,P|256:308|356:348,1,195,0|2,0:0|0:0,0:0:0:0:
400,340,52271,2,0,P|484:288|488:200,1,195,0|8,0:0|0:0,0:0:0:0:
464,152,53141,1,0,0:0:0:0:
424,48,53575,2,0,L|472:4,2,65,0|2|0,0:0|0:0|0:0,0:0:0:0:
384,84,54228,6,0,P|324:120|304:184,1,130,2|8,0:0|0:0,0:0:0:0:
308,228,54880,1,0,0:0:0:0:
288,280,55097,2,0,L|260:348,2,65,2|0|2,0:0|0:0|0:0,0:0:0:0:
204,208,55967,2,0,L|131:217,2,65,2|0|8,0:0|0:0|0:0,0:0:0:0:
240,168,56619,2,0,B|280:128|261:67|261:67|312:92|356:64,1,195,0|2,0:0|0:0,0:0:0:0:
452,92,57706,6,0,P|480:148|464:212,1,130,4|8,0:0|0:0,0:0:0:0:
372,272,58575,2,0,P|309:268|262:222,1,130,2|2,0:0|0:0,0:0:0:0:
256,112,59445,2,0,P|290:59|353:41,2,130,2|10|2,0:0|0:0|0:0,0:0:0:0:
164,172,60749,1,2,0:0:0:0:
60,192,61184,6,0,L|-4:180,2,65,4|0|8,0:0|0:0|0:0,0:0:0:0:
124,284,62054,2,0,L|136:368,2,65,2|0|2,0:0|0:0|0:0,0:0:0:0:
140,232,62706,2,0,B|204:204|256:256|256:256|284:224|340:232,1,195,4|8,0:0|0:0,0:0:0:0:
368,252,63575,2,0,P|428:288|488:272,1,130,4|4,0:0|0:0,0:0:0:0:
440,172,64445,6,0,B|400:96|452:28|452:28|388:36,1,195,4|8,0:0|0:0,0:0:0:0:
360,52,65314,2,0,P|264:80|172:52,1,195,0|2,0:0|0:0,0:0:0:0:
124,36,66184,2,0,B|83:30|83:30|135:98|95:174,1,195,0|8,0:0|0:0,0:0:0:0:
64,220,67054,1,0,0:0:0:0:
52,328,67488,6,0,L|0:376,2,65,0|2|0,0:0|0:0|0:0,0:0:0:0:
96,292,68141,2,0,P|164:288|212:332,1,130,4|8,0:0|0:0,0:0:0:0:
256,356,68793,1,0,0:0:0:0:
303,325,69010,2,0,P|348:288|416:292,1,130,2|2,0:0|0:0,0:0:0:0:
444,340,69662,2,0,L|464:204,1,130,0|0,0:0|0:0,0:0:0:0:
472,156,70314,5,2,0:0:0:0:
486,53,70749,1,2,0:0:0:0:
383,38,71184,1,2,0:0:0:0:
369,141,71619,6,0,P|316:188|256:176,1,130,4|2,0:0|0:0,0:0:0:0:
236,288,72488,2,0,P|303:310|322:368,1,130,4|2,0:0|0:0,0:0:0:0:
428,328,73358,2,0,P|413:258|454:212,1,130,4|2,0:0|0:0,0:0:0:0:
368,136,74228,2,0,P|392:88|372:12,1,130,4|2,0:0|0:0,0:0:0:0:
276,68,75097,6,0,B|248:104|244:156|280:208|280:208|236:168|176:176,1,260,4|0,0:0|0:0,0:0:0:0:
104,92,76401,1,0,0:0:0:0:
104,92,76619,2,0,P|72:160|120:264,1,195,2|0,0:0|0:0,0:0:0:0:
224,312,77706,2,0,L|288:324,1,65,4|4,0:0|0:0,0:0:0:0:
256,192,78575,12,0,83793,0:0:0:0:
