osu file format v13

[General]
AudioFilename: prime number tvsize.mp3
AudioLeadIn: 0
PreviewTime: 50025
Countdown: 0
SampleSet: None
StackLeniency: 0.7
Mode: 3
LetterboxInBreaks: 0
SpecialStyle: 0
WidescreenStoryboard: 1

[Editor]
DistanceSpacing: 0.9
BeatDivisor: 8
GridSize: 8
TimelineZoom: 2

[Metadata]
Title:Prime number ~Kimi to Deaeru Hi~ (TV Size)
TitleUnicode:Prime number~君と出会える日~ (TV Size)
Artist:Okura Asuka
ArtistUnicode:大倉明日香
Creator:Bobbias
Version:generic animu tv saizu
Source:Sakurasou No Pet Na Kanojo
Tags:さくら荘のペットな彼女
BeatmapID:440856
BeatmapSetID:184110

[Difficulty]
HPDrainRate:8
CircleSize:7
OverallDifficulty:8
ApproachRate:5
SliderMultiplier:1.4
SliderTickRate:1

[Events]
//Background and Video events
0,0,"BG.png",0,0
//Break Periods
//Storyboard Layer 0 (Background)
//Storyboard Layer 1 (Fail)
//Storyboard Layer 2 (Pass)
//Storyboard Layer 3 (Foreground)
//Storyboard Sound Samples
//Background Colour Transformations
3,100,163,162,255

[TimingPoints]
243,434.782608695652,4,2,2,50,1,0
50025,-100,4,2,2,50,0,1
57199,-100,4,2,2,50,0,0
64373,-100,4,2,2,50,0,1
71547,-100,4,2,2,50,0,0

[HitObjects]
329,192,243,5,0,0:0:0:0:
402,192,243,1,0,0:0:0:0:
109,192,460,1,0,0:0:0:0:
36,192,460,1,0,0:0:0:0:
256,192,677,1,0,0:0:0:0:
329,192,677,1,0,0:0:0:0:
475,192,677,1,0,0:0:0:0:
36,192,895,1,0,0:0:0:0:
109,192,895,1,0,0:0:0:0:
329,192,1112,1,0,0:0:0:0:
402,192,1112,1,0,0:0:0:0:
182,192,1112,1,0,0:0:0:0:
36,192,1329,1,0,0:0:0:0:
329,192,1329,1,0,0:0:0:0:
109,192,1384,1,0,0:0:0:0:
402,192,1384,1,0,0:0:0:0:
182,192,1438,1,0,0:0:0:0:
475,192,1438,1,0,0:0:0:0:
402,192,1492,1,0,0:0:0:0:
109,192,1492,1,0,0:0:0:0:
36,192,1547,1,0,0:0:0:0:
256,192,1547,1,0,0:0:0:0:
329,192,1547,1,0,0:0:0:0:
109,192,1656,1,0,0:0:0:0:
256,192,1656,1,0,0:0:0:0:
402,192,1656,1,0,0:0:0:0:
182,192,1764,1,0,0:0:0:0:
256,192,1764,1,0,0:0:0:0:
475,192,1764,1,0,0:0:0:0:
256,192,1982,128,0,3721:0:0:0:0:
475,192,1982,128,0,3721:0:0:0:0:
36,192,1982,1,0,0:0:0:0:
329,192,1982,1,0,0:0:0:0:
109,192,2199,1,0,0:0:0:0:
402,192,2199,1,0,0:0:0:0:
182,192,2416,1,0,0:0:0:0:
329,192,2416,1,0,0:0:0:0:
402,192,2416,1,0,0:0:0:0:
109,192,2634,1,0,0:0:0:0:
402,192,2634,1,0,0:0:0:0:
109,192,2742,1,0,0:0:0:0:
402,192,2742,1,0,0:0:0:0:
329,192,2851,1,0,0:0:0:0:
329,192,2960,1,0,0:0:0:0:
329,192,3069,1,0,0:0:0:0:
109,192,3286,1,0,0:0:0:0:
402,192,3286,1,0,0:0:0:0:
36,192,3503,1,0,0:0:0:0:
182,192,3503,1,0,0:0:0:0:
36,192,3721,1,0,0:0:0:0:
109,192,3721,1,0,0:0:0:0:
182,192,3721,1,0,0:0:0:0:
329,192,3721,1,0,0:0:0:0:
402,192,3721,1,0,0:0:0:0:
36,192,3938,128,0,5460:0:0:0:0:
329,192,3938,1,0,0:0:0:0:
475,192,3938,1,0,0:0:0:0:
109,192,4156,128,0,5025:0:0:0:0:
475,192,4156,1,0,0:0:0:0:
182,192,4156,1,0,0:0:0:0:
329,192,4156,1,0,0:0:0:0:
182,192,4373,128,0,4808:0:0:0:0:
329,192,4373,1,0,0:0:0:0:
402,192,4482,1,0,0:0:0:0:
402,192,4699,1,0,0:0:0:0:
475,192,4808,128,0,5460:0:0:0:0:
329,192,4808,1,0,0:0:0:0:
256,192,4808,1,0,0:0:0:0:
402,192,5025,128,0,5460:0:0:0:0:
182,192,5025,1,0,0:0:0:0:
256,192,5025,1,0,0:0:0:0:
109,192,5242,1,0,0:0:0:0:
329,192,5460,128,0,5895:0:0:0:0:
109,192,5460,128,0,7199:0:0:0:0:
256,192,5460,128,0,7199:0:0:0:0:
182,192,5460,1,0,0:0:0:0:
182,192,5677,1,0,0:0:0:0:
36,192,5895,1,0,0:0:0:0:
402,192,5895,1,0,0:0:0:0:
475,192,5895,1,0,0:0:0:0:
182,192,6112,1,0,0:0:0:0:
329,192,6112,1,0,0:0:0:0:
182,192,6221,1,0,0:0:0:0:
329,192,6221,1,0,0:0:0:0:
402,192,6329,1,0,0:0:0:0:
402,192,6438,1,0,0:0:0:0:
402,192,6547,1,0,0:0:0:0:
36,192,6764,1,0,0:0:0:0:
475,192,6764,1,0,0:0:0:0:
329,192,6982,1,0,0:0:0:0:
475,192,6982,1,0,0:0:0:0:
36,192,7199,1,0,0:0:0:0:
182,192,7199,1,0,0:0:0:0:
329,192,7199,1,0,0:0:0:0:
402,192,7199,1,0,0:0:0:0:
475,192,7199,1,0,0:0:0:0:
182,192,7416,1,0,0:0:0:0:
36,192,7416,1,0,0:0:0:0:
475,192,7416,128,0,8938:0:0:0:0:
36,192,7634,1,0,0:0:0:0:
182,192,7634,1,0,0:0:0:0:
402,192,7634,128,0,8503:0:0:0:0:
329,192,7634,1,0,0:0:0:0:
329,192,7851,128,0,8286:0:0:0:0:
182,192,7851,1,0,0:0:0:0:
109,192,7960,1,0,0:0:0:0:
109,192,8177,1,0,0:0:0:0:
182,192,8286,1,0,0:0:0:0:
36,192,8286,128,0,8938:0:0:0:0:
256,192,8286,1,0,0:0:0:0:
256,192,8503,1,0,0:0:0:0:
109,192,8503,128,0,8938:0:0:0:0:
329,192,8503,1,0,0:0:0:0:
402,192,8720,1,0,0:0:0:0:
256,192,8938,128,0,10677:0:0:0:0:
402,192,8938,128,0,10677:0:0:0:0:
182,192,8938,1,0,0:0:0:0:
182,192,9156,1,0,0:0:0:0:
36,192,9373,1,0,0:0:0:0:
329,192,9373,1,0,0:0:0:0:
182,192,9590,1,0,0:0:0:0:
329,192,9590,1,0,0:0:0:0:
182,192,9699,1,0,0:0:0:0:
329,192,9699,1,0,0:0:0:0:
109,192,9808,1,0,0:0:0:0:
109,192,9916,1,0,0:0:0:0:
109,192,10025,1,0,0:0:0:0:
36,192,10242,1,0,0:0:0:0:
182,192,10242,1,0,0:0:0:0:
109,192,10460,1,0,0:0:0:0:
475,192,10677,128,0,12416:0:0:0:0:
329,192,10677,1,0,0:0:0:0:
36,192,10895,128,0,12199:0:0:0:0:
182,192,10895,1,0,0:0:0:0:
109,192,11112,128,0,11764:0:0:0:0:
256,192,11112,1,0,0:0:0:0:
402,192,11112,1,0,0:0:0:0:
182,192,11329,128,0,11547:0:0:0:0:
329,192,11329,1,0,0:0:0:0:
402,192,11438,1,0,0:0:0:0:
256,192,11547,1,0,0:0:0:0:
329,192,11547,1,0,0:0:0:0:
182,192,11764,128,0,12199:0:0:0:0:
402,192,11764,1,0,0:0:0:0:
329,192,11764,1,0,0:0:0:0:
329,192,11873,1,0,0:0:0:0:
402,192,11873,1,0,0:0:0:0:
109,192,11982,128,0,12416:0:0:0:0:
256,192,11982,1,0,0:0:0:0:
329,192,12090,1,0,0:0:0:0:
402,192,12199,1,0,0:0:0:0:
36,192,12416,1,0,0:0:0:0:
182,192,12416,1,0,0:0:0:0:
256,192,12416,1,0,0:0:0:0:
329,192,12416,1,0,0:0:0:0:
329,192,12634,1,0,0:0:0:0:
36,192,12851,1,0,0:0:0:0:
182,192,12851,1,0,0:0:0:0:
402,192,12851,1,0,0:0:0:0:
329,192,13069,1,0,0:0:0:0:
329,192,13286,1,0,0:0:0:0:
475,192,13286,1,0,0:0:0:0:
109,192,13286,1,0,0:0:0:0:
109,192,13503,1,0,0:0:0:0:
256,192,13721,1,0,0:0:0:0:
109,192,13721,1,0,0:0:0:0:
402,192,13721,1,0,0:0:0:0:
329,192,13938,1,0,0:0:0:0:
475,192,13938,1,0,0:0:0:0:
256,192,14156,1,0,0:0:0:0:
182,192,14373,1,0,0:0:0:0:
36,192,14373,1,0,0:0:0:0:
256,192,14590,1,0,0:0:0:0:
329,192,14808,1,0,0:0:0:0:
402,192,14808,1,0,0:0:0:0:
182,192,15025,1,0,0:0:0:0:
109,192,15025,1,0,0:0:0:0:
475,192,15025,1,0,0:0:0:0:
402,192,15242,1,0,0:0:0:0:
329,192,15242,1,0,0:0:0:0:
256,192,15460,1,0,0:0:0:0:
402,192,15460,1,0,0:0:0:0:
475,192,15460,1,0,0:0:0:0:
329,192,15677,1,0,0:0:0:0:
36,192,15895,128,0,16764:0:0:0:0:
182,192,15895,128,0,16764:0:0:0:0:
109,192,15895,1,0,0:0:0:0:
256,192,15895,1,0,0:0:0:0:
329,192,16112,1,0,0:0:0:0:
109,192,16329,1,0,0:0:0:0:
256,192,16329,1,0,0:0:0:0:
402,192,16329,1,0,0:0:0:0:
329,192,16547,1,0,0:0:0:0:
402,192,16764,1,0,0:0:0:0:
256,192,16764,1,0,0:0:0:0:
109,192,16764,1,0,0:0:0:0:
329,192,16982,1,0,0:0:0:0:
256,192,17199,1,0,0:0:0:0:
402,192,17199,1,0,0:0:0:0:
475,192,17199,1,0,0:0:0:0:
182,192,17416,1,0,0:0:0:0:
329,192,17634,1,0,0:0:0:0:
475,192,17634,1,0,0:0:0:0:
36,192,17634,1,0,0:0:0:0:
36,192,17851,1,0,0:0:0:0:
256,192,18069,1,0,0:0:0:0:
402,192,18069,1,0,0:0:0:0:
109,192,18069,1,0,0:0:0:0:
329,192,18286,1,0,0:0:0:0:
475,192,18503,1,0,0:0:0:0:
182,192,18503,1,0,0:0:0:0:
475,192,18721,1,0,0:0:0:0:
182,192,18721,1,0,0:0:0:0:
109,192,18938,1,0,0:0:0:0:
256,192,18938,1,0,0:0:0:0:
402,192,18938,1,0,0:0:0:0:
182,192,19156,1,0,0:0:0:0:
109,192,19373,128,0,20677:0:0:0:0:
256,192,19373,128,0,20677:0:0:0:0:
329,192,19373,1,0,0:0:0:0:
475,192,19373,1,0,0:0:0:0:
402,192,19590,1,0,0:0:0:0:
329,192,19808,1,0,0:0:0:0:
475,192,19808,1,0,0:0:0:0:
36,192,19808,1,0,0:0:0:0:
402,192,20025,1,0,0:0:0:0:
329,192,20242,1,0,0:0:0:0:
475,192,20242,1,0,0:0:0:0:
402,192,20460,1,0,0:0:0:0:
329,192,20677,1,0,0:0:0:0:
475,192,20677,1,0,0:0:0:0:
182,192,20677,1,0,0:0:0:0:
256,192,20895,128,0,21547:0:0:0:0:
402,192,20895,128,0,21547:0:0:0:0:
109,192,20895,1,0,0:0:0:0:
36,192,21112,1,0,0:0:0:0:
182,192,21112,1,0,0:0:0:0:
36,192,21329,1,0,0:0:0:0:
109,192,21547,1,0,0:0:0:0:
475,192,21547,1,0,0:0:0:0:
182,192,21764,1,0,0:0:0:0:
329,192,21764,128,0,22634:0:0:0:0:
475,192,21764,128,0,22634:0:0:0:0:
36,192,21982,1,0,0:0:0:0:
109,192,21982,1,0,0:0:0:0:
36,192,22199,1,0,0:0:0:0:
109,192,22199,1,0,0:0:0:0:
402,192,22199,1,0,0:0:0:0:
182,192,22416,1,0,0:0:0:0:
256,192,22416,1,0,0:0:0:0:
109,192,22634,1,0,0:0:0:0:
402,192,22634,1,0,0:0:0:0:
