osu file format v13

[General]
AudioFilename: prime number tvsize.mp3
AudioLeadIn: 0
PreviewTime: 50025
Countdown: 0
SampleSet: None
StackLeniency: 0.7
Mode: 3
LetterboxInBreaks: 0
SpecialStyle: 0
WidescreenStoryboard: 1

[Editor]
DistanceSpacing: 0.9
BeatDivisor: 16
GridSize: 8
TimelineZoom: 2.2

[Metadata]
Title:Prime number ~Kimi to Deaeru Hi~ (TV Size)
TitleUnicode:Prime number~君と出会える日~ (TV Size)
Artist:Okura Asuka
ArtistUnicode:大倉明日香
Creator:Bobbias
Version:Oldest
Source:Sakurasou No Pet Na Kanojo
Tags:さくら荘のペットな彼女
BeatmapID:440859
BeatmapSetID:184110

[Difficulty]
HPDrainRate:8
CircleSize:7
OverallDifficulty:8
ApproachRate:5
SliderMultiplier:1.4
SliderTickRate:1

[Events]
//Background and Video events
0,0,"BG.png",0,0
//Break Periods
//Storyboard Layer 0 (Background)
//Storyboard Layer 1 (Fail)
//Storyboard Layer 2 (Pass)
//Storyboard Layer 3 (Foreground)
//Storyboard Sound Samples
//Background Colour Transformations
3,100,163,162,255

[TimingPoints]
243,434.782608695652,4,2,2,50,1,0
50025,-100,4,2,2,50,0,1
57199,-100,4,2,2,50,0,0
64373,-100,4,2,2,50,0,1
71547,-100,4,2,2,50,0,0

[HitObjects]
182,192,243,5,0,0:0:0:0:
402,192,243,1,0,0:0:0:0:
475,192,243,1,0,0:0:0:0:
256,192,460,1,0,0:0:0:0:
109,192,460,1,0,0:0:0:0:
475,192,677,1,0,0:0:0:0:
182,192,677,1,0,0:0:0:0:
329,192,677,1,0,0:0:0:0:
256,192,895,1,0,0:0:0:0:
109,192,895,1,0,0:0:0:0:
402,192,1112,1,0,0:0:0:0:
182,192,1112,1,0,0:0:0:0:
36,192,1112,1,0,0:0:0:0:
256,192,1329,1,0,0:0:0:0:
109,192,1438,1,0,0:0:0:0:
329,192,1547,1,0,0:0:0:0:
182,192,1656,1,0,0:0:0:0:
36,192,1764,1,0,0:0:0:0:
402,192,1982,1,0,0:0:0:0:
109,192,1982,1,0,0:0:0:0:
36,192,1982,1,0,0:0:0:0:
182,192,1982,128,0,3938:0:0:0:0:
475,192,2416,1,0,0:0:0:0:
109,192,2416,1,0,0:0:0:0:
475,192,2742,1,0,0:0:0:0:
402,192,2851,1,0,0:0:0:0:
36,192,2851,1,0,0:0:0:0:
329,192,2960,1,0,0:0:0:0:
402,192,3069,1,0,0:0:0:0:
475,192,3286,1,0,0:0:0:0:
109,192,3286,1,0,0:0:0:0:
256,192,3286,1,0,0:0:0:0:
36,192,3721,1,0,0:0:0:0:
256,192,3938,128,0,4156:0:0:0:0:
109,192,3938,1,0,0:0:0:0:
329,192,4156,1,0,0:0:0:0:
475,192,4156,128,0,4373:0:0:0:0:
36,192,4156,1,0,0:0:0:0:
402,192,4373,128,0,4590:0:0:0:0:
182,192,4373,1,0,0:0:0:0:
256,192,4482,1,0,0:0:0:0:
109,192,4590,128,0,5134:0:0:0:0:
182,192,4590,1,0,0:0:0:0:
36,192,4590,1,0,0:0:0:0:
329,192,4808,1,0,0:0:0:0:
475,192,5025,1,0,0:0:0:0:
182,192,5025,1,0,0:0:0:0:
256,192,5025,1,0,0:0:0:0:
36,192,5134,128,0,5460:0:0:0:0:
256,192,5460,1,0,0:0:0:0:
182,192,5460,128,0,6764:0:0:0:0:
475,192,5460,1,0,0:0:0:0:
402,192,5460,1,0,0:0:0:0:
329,192,5677,1,0,0:0:0:0:
109,192,5895,1,0,0:0:0:0:
36,192,5895,1,0,0:0:0:0:
402,192,6221,1,0,0:0:0:0:
329,192,6329,1,0,0:0:0:0:
256,192,6438,1,0,0:0:0:0:
329,192,6547,1,0,0:0:0:0:
402,192,6764,1,0,0:0:0:0:
256,192,6764,1,0,0:0:0:0:
36,192,6764,1,0,0:0:0:0:
109,192,6982,1,0,0:0:0:0:
475,192,7199,1,0,0:0:0:0:
36,192,7199,128,0,8069:0:0:0:0:
256,192,7199,1,0,0:0:0:0:
256,192,7416,128,0,7634:0:0:0:0:
402,192,7634,128,0,7851:0:0:0:0:
475,192,7634,1,0,0:0:0:0:
109,192,7634,1,0,0:0:0:0:
329,192,7851,128,0,8069:0:0:0:0:
182,192,7851,1,0,0:0:0:0:
256,192,7960,1,0,0:0:0:0:
109,192,8069,128,0,8612:0:0:0:0:
402,192,8069,1,0,0:0:0:0:
475,192,8069,1,0,0:0:0:0:
182,192,8177,1,0,0:0:0:0:
402,192,8286,1,0,0:0:0:0:
182,192,8395,1,0,0:0:0:0:
402,192,8503,1,0,0:0:0:0:
36,192,8503,1,0,0:0:0:0:
256,192,8612,128,0,8938:0:0:0:0:
475,192,8612,1,0,0:0:0:0:
182,192,8721,1,0,0:0:0:0:
402,192,8829,1,0,0:0:0:0:
329,192,8938,128,0,10677:0:0:0:0:
109,192,8938,1,0,0:0:0:0:
475,192,8938,1,0,0:0:0:0:
36,192,8938,1,0,0:0:0:0:
182,192,9156,1,0,0:0:0:0:
256,192,9373,1,0,0:0:0:0:
475,192,9373,1,0,0:0:0:0:
109,192,9699,1,0,0:0:0:0:
182,192,9808,1,0,0:0:0:0:
256,192,9916,1,0,0:0:0:0:
182,192,10025,1,0,0:0:0:0:
36,192,10242,1,0,0:0:0:0:
402,192,10242,1,0,0:0:0:0:
475,192,10242,1,0,0:0:0:0:
182,192,10460,1,0,0:0:0:0:
256,192,10677,128,0,12416:0:0:0:0:
36,192,10677,1,0,0:0:0:0:
182,192,10895,1,0,0:0:0:0:
402,192,11112,1,0,0:0:0:0:
109,192,11112,1,0,0:0:0:0:
329,192,11329,1,0,0:0:0:0:
182,192,11438,1,0,0:0:0:0:
402,192,11547,1,0,0:0:0:0:
36,192,11764,1,0,0:0:0:0:
109,192,11873,1,0,0:0:0:0:
182,192,11982,1,0,0:0:0:0:
475,192,12090,1,0,0:0:0:0:
402,192,12199,1,0,0:0:0:0:
329,192,12308,1,0,0:0:0:0:
182,192,12416,128,0,12851:0:0:0:0:
402,192,12416,1,0,0:0:0:0:
36,192,12416,1,0,0:0:0:0:
109,192,12416,1,0,0:0:0:0:
402,192,12634,1,0,0:0:0:0:
329,192,12851,128,0,13286:0:0:0:0:
109,192,12851,1,0,0:0:0:0:
475,192,12851,1,0,0:0:0:0:
402,192,12851,1,0,0:0:0:0:
109,192,13069,1,0,0:0:0:0:
402,192,13286,128,0,13721:0:0:0:0:
36,192,13286,1,0,0:0:0:0:
109,192,13286,1,0,0:0:0:0:
256,192,13503,1,0,0:0:0:0:
36,192,13721,1,0,0:0:0:0:
475,192,13721,1,0,0:0:0:0:
329,192,13721,1,0,0:0:0:0:
182,192,13938,128,0,14590:0:0:0:0:
256,192,13938,1,0,0:0:0:0:
36,192,14156,1,0,0:0:0:0:
109,192,14156,1,0,0:0:0:0:
256,192,14373,1,0,0:0:0:0:
329,192,14590,128,0,15025:0:0:0:0:
402,192,14590,1,0,0:0:0:0:
256,192,14808,1,0,0:0:0:0:
475,192,15025,128,0,15460:0:0:0:0:
109,192,15025,1,0,0:0:0:0:
182,192,15025,1,0,0:0:0:0:
182,192,15242,1,0,0:0:0:0:
256,192,15242,1,0,0:0:0:0:
182,192,15460,128,0,15895:0:0:0:0:
329,192,15460,1,0,0:0:0:0:
402,192,15460,1,0,0:0:0:0:
36,192,15460,1,0,0:0:0:0:
256,192,15677,1,0,0:0:0:0:
329,192,15895,128,0,16329:0:0:0:0:
36,192,15895,1,0,0:0:0:0:
109,192,15895,1,0,0:0:0:0:
182,192,16112,1,0,0:0:0:0:
256,192,16329,128,0,16764:0:0:0:0:
402,192,16329,1,0,0:0:0:0:
475,192,16329,1,0,0:0:0:0:
182,192,16547,1,0,0:0:0:0:
402,192,16764,128,0,17199:0:0:0:0:
36,192,16764,1,0,0:0:0:0:
182,192,16982,1,0,0:0:0:0:
36,192,17199,1,0,0:0:0:0:
475,192,17199,1,0,0:0:0:0:
329,192,17199,1,0,0:0:0:0:
256,192,17416,128,0,18069:0:0:0:0:
182,192,17416,1,0,0:0:0:0:
36,192,17634,1,0,0:0:0:0:
402,192,17634,1,0,0:0:0:0:
329,192,17851,1,0,0:0:0:0:
182,192,18069,128,0,18503:0:0:0:0:
402,192,18069,1,0,0:0:0:0:
475,192,18069,1,0,0:0:0:0:
109,192,18286,1,0,0:0:0:0:
109,192,18503,128,0,18938:0:0:0:0:
402,192,18503,1,0,0:0:0:0:
329,192,18503,1,0,0:0:0:0:
256,192,18721,1,0,0:0:0:0:
475,192,18721,1,0,0:0:0:0:
36,192,18938,128,0,19373:0:0:0:0:
182,192,18938,1,0,0:0:0:0:
475,192,18938,1,0,0:0:0:0:
402,192,18938,1,0,0:0:0:0:
256,192,19156,1,0,0:0:0:0:
109,192,19373,1,0,0:0:0:0:
329,192,19373,1,0,0:0:0:0:
402,192,19373,1,0,0:0:0:0:
475,192,19590,1,0,0:0:0:0:
182,192,19808,128,0,20242:0:0:0:0:
36,192,19808,1,0,0:0:0:0:
329,192,19808,1,0,0:0:0:0:
109,192,20025,1,0,0:0:0:0:
402,192,20242,128,0,20460:0:0:0:0:
256,192,20242,1,0,0:0:0:0:
475,192,20242,1,0,0:0:0:0:
329,192,20460,128,0,20895:0:0:0:0:
109,192,20677,1,0,0:0:0:0:
475,192,20677,1,0,0:0:0:0:
36,192,20677,1,0,0:0:0:0:
475,192,20895,128,0,21764:0:0:0:0:
182,192,20895,1,0,0:0:0:0:
256,192,20895,1,0,0:0:0:0:
256,192,21112,1,0,0:0:0:0:
402,192,21112,1,0,0:0:0:0:
109,192,21329,1,0,0:0:0:0:
256,192,21547,1,0,0:0:0:0:
36,192,21547,1,0,0:0:0:0:
329,192,21547,1,0,0:0:0:0:
329,192,21764,128,0,22416:0:0:0:0:
182,192,21764,1,0,0:0:0:0:
109,192,21982,1,0,0:0:0:0:
256,192,21982,1,0,0:0:0:0:
36,192,22199,1,0,0:0:0:0:
402,192,22199,1,0,0:0:0:0:
182,192,22416,1,0,0:0:0:0:
475,192,22416,1,0,0:0:0:0:
256,192,22634,1,0,0:0:0:0:
402,192,22851,128,0,23069:0:0:0:0:
36,192,22851,128,0,23721:0:0:0:0:
109,192,22851,1,0,0:0:0:0:
329,192,22851,1,0,0:0:0:0:
256,192,23069,128,0,23286:0:0:0:0:
182,192,23069,1,0,0:0:0:0:
329,192,23286,128,0,23721:0:0:0:0:
475,192,23286,1,0,0:0:0:0:
109,192,23286,1,0,0:0:0:0:
182,192,23503,1,0,0:0:0:0:
109,192,23721,128,0,24156:0:0:0:0:
402,192,23721,128,0,24590:0:0:0:0:
256,192,23721,1,0,0:0:0:0:
475,192,23721,1,0,0:0:0:0:
182,192,23938,1,0,0:0:0:0:
475,192,24156,1,0,0:0:0:0:
329,192,24156,1,0,0:0:0:0:
36,192,24156,1,0,0:0:0:0:
329,192,24373,128,0,24808:0:0:0:0:
36,192,24373,1,0,0:0:0:0:
109,192,24590,128,0,25460:0:0:0:0:
182,192,24590,1,0,0:0:0:0:
256,192,24590,1,0,0:0:0:0:
475,192,24808,128,0,25025:0:0:0:0:
402,192,24808,1,0,0:0:0:0:
402,192,25025,128,0,25242:0:0:0:0:
256,192,25025,1,0,0:0:0:0:
36,192,25025,1,0,0:0:0:0:
256,192,25242,128,0,25460:0:0:0:0:
182,192,25242,1,0,0:0:0:0:
329,192,25460,128,0,26329:0:0:0:0:
36,192,25460,128,0,25895:0:0:0:0:
475,192,25460,1,0,0:0:0:0:
402,192,25460,1,0,0:0:0:0:
182,192,25677,1,0,0:0:0:0:
475,192,25895,128,0,26329:0:0:0:0:
402,192,25895,1,0,0:0:0:0:
256,192,25895,1,0,0:0:0:0:
182,192,26112,1,0,0:0:0:0:
36,192,26329,128,0,26764:0:0:0:0:
109,192,26329,1,0,0:0:0:0:
256,192,26329,1,0,0:0:0:0:
402,192,26547,128,0,26764:0:0:0:0:
329,192,26547,1,0,0:0:0:0:
256,192,26764,128,0,27199:0:0:0:0:
475,192,26764,1,0,0:0:0:0:
182,192,26764,1,0,0:0:0:0:
475,192,26982,128,0,27634:0:0:0:0:
329,192,26982,1,0,0:0:0:0:
182,192,27199,128,0,27634:0:0:0:0:
109,192,27199,1,0,0:0:0:0:
402,192,27199,1,0,0:0:0:0:
329,192,27416,1,0,0:0:0:0:
109,192,27634,1,0,0:0:0:0:
329,192,27634,1,0,0:0:0:0:
36,192,27634,1,0,0:0:0:0:
402,192,27851,128,0,28286:0:0:0:0:
256,192,27851,1,0,0:0:0:0:
36,192,28069,128,0,28938:0:0:0:0:
475,192,28069,1,0,0:0:0:0:
109,192,28286,128,0,28503:0:0:0:0:
329,192,28286,1,0,0:0:0:0:
256,192,28503,128,0,28721:0:0:0:0:
182,192,28503,1,0,0:0:0:0:
475,192,28503,1,0,0:0:0:0:
329,192,28721,128,0,28938:0:0:0:0:
109,192,28721,1,0,0:0:0:0:
475,192,28938,128,0,29808:0:0:0:0:
182,192,28938,1,0,0:0:0:0:
256,192,29156,1,0,0:0:0:0:
109,192,29373,1,0,0:0:0:0:
402,192,29373,1,0,0:0:0:0:
182,192,29373,128,0,29808:0:0:0:0:
36,192,29373,1,0,0:0:0:0:
329,192,29590,1,0,0:0:0:0:
256,192,29808,1,0,0:0:0:0:
36,192,29808,1,0,0:0:0:0:
402,192,29808,1,0,0:0:0:0:
329,192,30025,1,0,0:0:0:0:
402,192,30242,1,0,0:0:0:0:
109,192,30242,128,0,30677:0:0:0:0:
475,192,30242,1,0,0:0:0:0:
329,192,30460,1,0,0:0:0:0:
36,192,30677,1,0,0:0:0:0:
402,192,30677,128,0,30895:0:0:0:0:
182,192,30895,1,0,0:0:0:0:
329,192,30895,128,0,31329:0:0:0:0:
475,192,31112,1,0,0:0:0:0:
256,192,31112,1,0,0:0:0:0:
402,192,31112,1,0,0:0:0:0:
182,192,31329,1,0,0:0:0:0:
109,192,31329,128,0,31764:0:0:0:0:
402,192,31547,1,0,0:0:0:0:
329,192,31764,128,0,31982:0:0:0:0:
36,192,31764,1,0,0:0:0:0:
402,192,31982,128,0,32199:0:0:0:0:
182,192,31982,1,0,0:0:0:0:
475,192,31982,1,0,0:0:0:0:
256,192,32199,128,0,32634:0:0:0:0:
329,192,32199,1,0,0:0:0:0:
109,192,32416,1,0,0:0:0:0:
182,192,32634,128,0,33069:0:0:0:0:
329,192,32634,1,0,0:0:0:0:
475,192,32851,1,0,0:0:0:0:
36,192,32851,1,0,0:0:0:0:
402,192,32851,1,0,0:0:0:0:
109,192,33069,128,0,33503:0:0:0:0:
329,192,33069,1,0,0:0:0:0:
256,192,33286,1,0,0:0:0:0:
36,192,33286,1,0,0:0:0:0:
402,192,33286,1,0,0:0:0:0:
329,192,33503,1,0,0:0:0:0:
256,192,33721,128,0,34156:0:0:0:0:
402,192,33721,1,0,0:0:0:0:
36,192,33721,1,0,0:0:0:0:
475,192,33721,1,0,0:0:0:0:
109,192,33938,1,0,0:0:0:0:
329,192,34156,128,0,34808:0:0:0:0:
182,192,34156,1,0,0:0:0:0:
36,192,34373,1,0,0:0:0:0:
182,192,34590,1,0,0:0:0:0:
475,192,34590,1,0,0:0:0:0:
109,192,34590,1,0,0:0:0:0:
402,192,34808,128,0,36112:0:0:0:0:
36,192,34808,1,0,0:0:0:0:
256,192,34808,1,0,0:0:0:0:
109,192,35242,1,0,0:0:0:0:
329,192,35242,1,0,0:0:0:0:
182,192,35460,1,0,0:0:0:0:
256,192,35460,1,0,0:0:0:0:
36,192,35677,128,0,36112:0:0:0:0:
329,192,35677,1,0,0:0:0:0:
475,192,35677,1,0,0:0:0:0:
109,192,36112,128,0,36329:0:0:0:0:
182,192,36112,1,0,0:0:0:0:
256,192,36112,1,0,0:0:0:0:
256,192,36329,128,0,36764:0:0:0:0:
402,192,36329,1,0,0:0:0:0:
475,192,36329,1,0,0:0:0:0:
182,192,36764,128,0,37199:0:0:0:0:
329,192,36764,1,0,0:0:0:0:
36,192,36764,1,0,0:0:0:0:
402,192,36982,1,0,0:0:0:0:
402,192,37199,128,0,37634:0:0:0:0:
475,192,37199,1,0,0:0:0:0:
256,192,37199,1,0,0:0:0:0:
329,192,37416,1,0,0:0:0:0:
109,192,37634,128,0,38069:0:0:0:0:
182,192,37634,1,0,0:0:0:0:
36,192,37634,1,0,0:0:0:0:
329,192,37851,1,0,0:0:0:0:
402,192,38069,128,0,38503:0:0:0:0:
475,192,38069,1,0,0:0:0:0:
256,192,38069,1,0,0:0:0:0:
329,192,38069,1,0,0:0:0:0:
182,192,38286,1,0,0:0:0:0:
36,192,38503,128,0,38938:0:0:0:0:
109,192,38503,1,0,0:0:0:0:
329,192,38503,1,0,0:0:0:0:
182,192,38721,1,0,0:0:0:0:
329,192,38938,128,0,39373:0:0:0:0:
256,192,38938,1,0,0:0:0:0:
402,192,38938,1,0,0:0:0:0:
182,192,39156,1,0,0:0:0:0:
109,192,39373,128,0,39808:0:0:0:0:
475,192,39373,1,0,0:0:0:0:
36,192,39373,1,0,0:0:0:0:
256,192,39590,1,0,0:0:0:0:
329,192,39808,128,0,40242:0:0:0:0:
182,192,39808,1,0,0:0:0:0:
402,192,39808,1,0,0:0:0:0:
475,192,39808,1,0,0:0:0:0:
256,192,40025,1,0,0:0:0:0:
182,192,40242,128,0,40677:0:0:0:0:
109,192,40242,1,0,0:0:0:0:
36,192,40242,1,0,0:0:0:0:
256,192,40460,1,0,0:0:0:0:
475,192,40677,128,0,41112:0:0:0:0:
402,192,40677,1,0,0:0:0:0:
329,192,40677,1,0,0:0:0:0:
329,192,40895,1,0,0:0:0:0:
182,192,41112,128,0,41547:0:0:0:0:
109,192,41112,1,0,0:0:0:0:
36,192,41112,1,0,0:0:0:0:
36,192,41329,1,0,0:0:0:0:
402,192,41547,128,0,41982:0:0:0:0:
256,192,41547,1,0,0:0:0:0:
329,192,41547,1,0,0:0:0:0:
109,192,41547,1,0,0:0:0:0:
475,192,41764,1,0,0:0:0:0:
109,192,41982,128,0,42416:0:0:0:0:
182,192,41982,1,0,0:0:0:0:
36,192,41982,1,0,0:0:0:0:
256,192,42199,1,0,0:0:0:0:
402,192,42416,128,0,42634:0:0:0:0:
475,192,42416,1,0,0:0:0:0:
109,192,42634,128,0,43069:0:0:0:0:
36,192,42634,1,0,0:0:0:0:
329,192,42634,1,0,0:0:0:0:
329,192,43069,128,0,43503:0:0:0:0:
256,192,43069,1,0,0:0:0:0:
402,192,43069,1,0,0:0:0:0:
36,192,43286,1,0,0:0:0:0:
475,192,43286,1,0,0:0:0:0:
182,192,43286,128,0,43721:0:0:0:0:
402,192,43395,1,0,0:0:0:0:
256,192,43503,1,0,0:0:0:0:
329,192,43721,1,0,0:0:0:0:
475,192,43721,1,0,0:0:0:0:
109,192,43721,1,0,0:0:0:0:
402,192,43721,128,0,44156:0:0:0:0:
256,192,43721,128,0,44156:0:0:0:0:
36,192,43938,1,0,0:0:0:0:
182,192,44156,128,0,44373:0:0:0:0:
475,192,44156,128,0,44590:0:0:0:0:
109,192,44156,1,0,0:0:0:0:
329,192,44156,1,0,0:0:0:0:
109,192,44373,128,0,44590:0:0:0:0:
256,192,44373,1,0,0:0:0:0:
402,192,44590,128,0,45025:0:0:0:0:
329,192,44590,1,0,0:0:0:0:
36,192,44590,1,0,0:0:0:0:
182,192,44808,1,0,0:0:0:0:
256,192,45025,128,0,45460:0:0:0:0:
329,192,45025,1,0,0:0:0:0:
475,192,45025,1,0,0:0:0:0:
109,192,45025,1,0,0:0:0:0:
36,192,45242,1,0,0:0:0:0:
402,192,45242,128,0,45677:0:0:0:0:
36,192,45460,1,0,0:0:0:0:
109,192,45460,1,0,0:0:0:0:
182,192,45460,128,0,47199:0:0:0:0:
475,192,45677,128,0,46112:0:0:0:0:
329,192,45677,1,0,0:0:0:0:
256,192,45895,1,0,0:0:0:0:
402,192,45895,1,0,0:0:0:0:
36,192,46112,128,0,46547:0:0:0:0:
109,192,46112,1,0,0:0:0:0:
329,192,46329,1,0,0:0:0:0:
256,192,46329,1,0,0:0:0:0:
256,192,46547,128,0,46982:0:0:0:0:
402,192,46547,1,0,0:0:0:0:
109,192,46764,1,0,0:0:0:0:
475,192,46764,1,0,0:0:0:0:
329,192,46982,128,0,47634:0:0:0:0:
402,192,46982,1,0,0:0:0:0:
36,192,47199,128,0,48069:0:0:0:0:
256,192,47199,1,0,0:0:0:0:
109,192,47199,1,0,0:0:0:0:
402,192,47416,1,0,0:0:0:0:
109,192,47634,1,0,0:0:0:0:
475,192,47634,1,0,0:0:0:0:
182,192,47851,128,0,48069:0:0:0:0:
402,192,47851,1,0,0:0:0:0:
256,192,48069,128,0,48503:0:0:0:0:
109,192,48069,128,0,48721:0:0:0:0:
329,192,48069,1,0,0:0:0:0:
475,192,48069,1,0,0:0:0:0:
329,192,48286,1,0,0:0:0:0:
475,192,48503,1,0,0:0:0:0:
182,192,48503,1,0,0:0:0:0:
402,192,48503,128,0,49156:0:0:0:0:
182,192,48721,128,0,49373:0:0:0:0:
329,192,48721,1,0,0:0:0:0:
329,192,49156,128,0,49808:0:0:0:0:
475,192,49156,1,0,0:0:0:0:
256,192,49156,1,0,0:0:0:0:
36,192,49373,128,0,49808:0:0:0:0:
109,192,49373,1,0,0:0:0:0:
256,192,49373,1,0,0:0:0:0:
109,192,50025,128,0,50460:0:0:0:0:
402,192,50242,128,0,50895:0:0:0:0:
329,192,50460,128,0,51547:0:0:0:0:
36,192,50460,1,0,0:0:0:0:
182,192,50460,1,0,0:0:0:0:
256,192,50677,1,0,0:0:0:0:
182,192,50895,128,0,51329:0:0:0:0:
109,192,50895,1,0,0:0:0:0:
256,192,51112,1,0,0:0:0:0:
475,192,51112,1,0,0:0:0:0:
109,192,51329,128,0,51764:0:0:0:0:
402,192,51329,1,0,0:0:0:0:
256,192,51547,128,0,52416:0:0:0:0:
475,192,51547,1,0,0:0:0:0:
182,192,51547,1,0,0:0:0:0:
36,192,51764,128,0,52199:0:0:0:0:
402,192,51764,1,0,0:0:0:0:
109,192,51982,1,0,0:0:0:0:
402,192,51982,1,0,0:0:0:0:
329,192,52199,128,0,52634:0:0:0:0:
182,192,52199,1,0,0:0:0:0:
182,192,52416,128,0,53286:0:0:0:0:
475,192,52416,1,0,0:0:0:0:
109,192,52416,1,0,0:0:0:0:
402,192,52634,128,0,53069:0:0:0:0:
36,192,52634,1,0,0:0:0:0:
109,192,52851,1,0,0:0:0:0:
256,192,52851,1,0,0:0:0:0:
256,192,53069,128,0,53503:0:0:0:0:
329,192,53069,1,0,0:0:0:0:
109,192,53286,128,0,54156:0:0:0:0:
475,192,53286,1,0,0:0:0:0:
402,192,53286,1,0,0:0:0:0:
402,192,53503,128,0,54156:0:0:0:0:
36,192,53503,1,0,0:0:0:0:
182,192,53503,1,0,0:0:0:0:
182,192,53721,1,0,0:0:0:0:
329,192,53721,1,0,0:0:0:0:
256,192,53938,1,0,0:0:0:0:
182,192,54156,128,0,54590:0:0:0:0:
329,192,54156,1,0,0:0:0:0:
475,192,54156,1,0,0:0:0:0:
256,192,54373,1,0,0:0:0:0:
36,192,54590,1,0,0:0:0:0:
329,192,54590,1,0,0:0:0:0:
256,192,54808,1,0,0:0:0:0:
329,192,54808,128,0,55242:0:0:0:0:
402,192,55025,1,0,0:0:0:0:
109,192,55025,1,0,0:0:0:0:
256,192,55242,128,0,55677:0:0:0:0:
182,192,55242,1,0,0:0:0:0:
36,192,55460,1,0,0:0:0:0:
475,192,55460,1,0,0:0:0:0:
109,192,55677,128,0,56112:0:0:0:0:
402,192,55677,1,0,0:0:0:0:
329,192,55895,1,0,0:0:0:0:
36,192,55895,1,0,0:0:0:0:
36,192,56112,128,0,56547:0:0:0:0:
256,192,56112,1,0,0:0:0:0:
109,192,56329,1,0,0:0:0:0:
475,192,56329,1,0,0:0:0:0:
402,192,56329,1,0,0:0:0:0:
182,192,56547,128,0,57199:0:0:0:0:
329,192,56547,1,0,0:0:0:0:
109,192,56764,1,0,0:0:0:0:
402,192,56764,1,0,0:0:0:0:
36,192,56982,1,0,0:0:0:0:
256,192,57199,1,0,0:0:0:0:
475,192,57199,1,0,0:0:0:0:
329,192,57199,1,0,0:0:0:0:
109,192,57416,128,0,57634:0:0:0:0:
402,192,57416,1,0,0:0:0:0:
329,192,57634,128,0,57960:0:0:0:0:
36,192,57634,1,0,0:0:0:0:
256,192,57634,1,0,0:0:0:0:
182,192,57851,1,0,0:0:0:0:
402,192,57960,128,0,58286:0:0:0:0:
109,192,58069,1,0,0:0:0:0:
256,192,58069,1,0,0:0:0:0:
475,192,58286,128,0,58503:0:0:0:0:
182,192,58286,1,0,0:0:0:0:
402,192,58503,128,0,58829:0:0:0:0:
329,192,58503,1,0,0:0:0:0:
36,192,58503,1,0,0:0:0:0:
256,192,58721,1,0,0:0:0:0:
329,192,58829,128,0,59156:0:0:0:0:
109,192,58938,1,0,0:0:0:0:
475,192,58938,1,0,0:0:0:0:
182,192,58938,1,0,0:0:0:0:
182,192,59156,128,0,59373:0:0:0:0:
256,192,59156,1,0,0:0:0:0:
109,192,59373,128,0,59699:0:0:0:0:
36,192,59373,1,0,0:0:0:0:
402,192,59373,1,0,0:0:0:0:
329,192,59590,1,0,0:0:0:0:
36,192,59699,128,0,60025:0:0:0:0:
256,192,59808,1,0,0:0:0:0:
475,192,59808,1,0,0:0:0:0:
182,192,60025,128,0,60242:0:0:0:0:
109,192,60025,1,0,0:0:0:0:
256,192,60242,128,0,60677:0:0:0:0:
402,192,60242,1,0,0:0:0:0:
36,192,60242,1,0,0:0:0:0:
329,192,60460,1,0,0:0:0:0:
109,192,60677,1,0,0:0:0:0:
475,192,60677,1,0,0:0:0:0:
36,192,60677,1,0,0:0:0:0:
329,192,60895,1,0,0:0:0:0:
182,192,60895,128,0,61112:0:0:0:0:
475,192,61112,1,0,0:0:0:0:
36,192,61112,1,0,0:0:0:0:
402,192,61112,128,0,61329:0:0:0:0:
182,192,61329,1,0,0:0:0:0:
256,192,61329,128,0,61547:0:0:0:0:
109,192,61547,1,0,0:0:0:0:
402,192,61547,1,0,0:0:0:0:
182,192,61547,128,0,61764:0:0:0:0:
329,192,61764,1,0,0:0:0:0:
402,192,61764,128,0,61982:0:0:0:0:
36,192,61982,1,0,0:0:0:0:
475,192,61982,1,0,0:0:0:0:
256,192,61982,128,0,62199:0:0:0:0:
182,192,62199,1,0,0:0:0:0:
475,192,62199,128,0,62634:0:0:0:0:
109,192,62416,1,0,0:0:0:0:
402,192,62416,1,0,0:0:0:0:
329,192,62416,1,0,0:0:0:0:
36,192,62634,1,0,0:0:0:0:
329,192,62634,1,0,0:0:0:0:
182,192,62634,128,0,63503:0:0:0:0:
402,192,63069,1,0,0:0:0:0:
256,192,63069,1,0,0:0:0:0:
109,192,63177,1,0,0:0:0:0:
36,192,63286,1,0,0:0:0:0:
329,192,63286,1,0,0:0:0:0:
256,192,63395,1,0,0:0:0:0:
109,192,63503,1,0,0:0:0:0:
475,192,63503,1,0,0:0:0:0:
402,192,63503,128,0,63721:0:0:0:0:
36,192,63721,1,0,0:0:0:0:
256,192,63721,1,0,0:0:0:0:
329,192,63938,128,0,64156:0:0:0:0:
182,192,63938,1,0,0:0:0:0:
475,192,63938,1,0,0:0:0:0:
256,192,64047,1,0,0:0:0:0:
36,192,64156,1,0,0:0:0:0:
402,192,64156,1,0,0:0:0:0:
182,192,64373,128,0,64808:0:0:0:0:
109,192,64373,1,0,0:0:0:0:
475,192,64373,1,0,0:0:0:0:
329,192,64590,1,0,0:0:0:0:
402,192,64808,128,0,65242:0:0:0:0:
36,192,64808,1,0,0:0:0:0:
109,192,65025,1,0,0:0:0:0:
329,192,65025,1,0,0:0:0:0:
475,192,65242,128,0,65677:0:0:0:0:
256,192,65242,1,0,0:0:0:0:
36,192,65460,1,0,0:0:0:0:
329,192,65460,1,0,0:0:0:0:
109,192,65677,128,0,66112:0:0:0:0:
182,192,65677,1,0,0:0:0:0:
256,192,65895,1,0,0:0:0:0:
402,192,65895,1,0,0:0:0:0:
182,192,65895,1,0,0:0:0:0:
329,192,66112,128,0,66547:0:0:0:0:
36,192,66112,1,0,0:0:0:0:
256,192,66329,1,0,0:0:0:0:
475,192,66329,1,0,0:0:0:0:
182,192,66547,128,0,66982:0:0:0:0:
109,192,66547,1,0,0:0:0:0:
36,192,66764,1,0,0:0:0:0:
329,192,66764,1,0,0:0:0:0:
402,192,66982,128,0,67416:0:0:0:0:
256,192,66982,1,0,0:0:0:0:
36,192,67199,1,0,0:0:0:0:
475,192,67199,1,0,0:0:0:0:
109,192,67416,128,0,67851:0:0:0:0:
329,192,67416,1,0,0:0:0:0:
256,192,67634,1,0,0:0:0:0:
36,192,67634,1,0,0:0:0:0:
475,192,67634,1,0,0:0:0:0:
329,192,67851,128,0,68503:0:0:0:0:
182,192,67851,1,0,0:0:0:0:
109,192,68069,1,0,0:0:0:0:
475,192,68069,1,0,0:0:0:0:
256,192,68286,1,0,0:0:0:0:
36,192,68503,1,0,0:0:0:0:
402,192,68503,1,0,0:0:0:0:
36,192,68721,128,0,69373:0:0:0:0:
109,192,68721,1,0,0:0:0:0:
182,192,68938,1,0,0:0:0:0:
475,192,68938,1,0,0:0:0:0:
329,192,69156,1,0,0:0:0:0:
256,192,69373,128,0,69590:0:0:0:0:
402,192,69373,1,0,0:0:0:0:
109,192,69373,1,0,0:0:0:0:
182,192,69590,128,0,70025:0:0:0:0:
329,192,69590,1,0,0:0:0:0:
36,192,69808,1,0,0:0:0:0:
402,192,69808,1,0,0:0:0:0:
109,192,70025,128,0,70242:0:0:0:0:
36,192,70242,128,0,71112:0:0:0:0:
256,192,70242,1,0,0:0:0:0:
475,192,70242,1,0,0:0:0:0:
329,192,70460,1,0,0:0:0:0:
182,192,70677,1,0,0:0:0:0:
402,192,70677,1,0,0:0:0:0:
256,192,70895,1,0,0:0:0:0:
109,192,71112,1,0,0:0:0:0:
329,192,71112,1,0,0:0:0:0:
402,192,71112,1,0,0:0:0:0:
182,192,71329,1,0,0:0:0:0:
36,192,71547,1,0,0:0:0:0:
475,192,71547,1,0,0:0:0:0:
329,192,71574,1,0,0:0:0:0:
402,192,71764,1,0,0:0:0:0:
109,192,71982,1,0,0:0:0:0:
256,192,72199,1,0,0:0:0:0:
36,192,72416,1,0,0:0:0:0:
475,192,72416,1,0,0:0:0:0:
109,192,72444,1,0,0:0:0:0:
182,192,72634,1,0,0:0:0:0:
402,192,72851,1,0,0:0:0:0:
329,192,73069,1,0,0:0:0:0:
36,192,73286,1,0,0:0:0:0:
475,192,73286,1,0,0:0:0:0:
402,192,73313,1,0,0:0:0:0:
329,192,73503,1,0,0:0:0:0:
109,192,73721,1,0,0:0:0:0:
256,192,73938,1,0,0:0:0:0:
36,192,74156,1,0,0:0:0:0:
475,192,74156,1,0,0:0:0:0:
109,192,74183,1,0,0:0:0:0:
256,192,74373,1,0,0:0:0:0:
402,192,74590,1,0,0:0:0:0:
109,192,74808,1,0,0:0:0:0:
36,192,75025,1,0,0:0:0:0:
475,192,75025,1,0,0:0:0:0:
182,192,75242,1,0,0:0:0:0:
329,192,75460,1,0,0:0:0:0:
475,192,75460,1,0,0:0:0:0:
109,192,75677,1,0,0:0:0:0:
36,192,75895,1,0,0:0:0:0:
182,192,75895,1,0,0:0:0:0:
402,192,76112,1,0,0:0:0:0:
475,192,76329,1,0,0:0:0:0:
329,192,76329,1,0,0:0:0:0:
256,192,76547,1,0,0:0:0:0:
109,192,76547,1,0,0:0:0:0:
402,192,76547,1,0,0:0:0:0:
402,192,76873,1,0,0:0:0:0:
329,192,76982,1,0,0:0:0:0:
182,192,77199,1,0,0:0:0:0:
329,192,77308,1,0,0:0:0:0:
256,192,77416,1,0,0:0:0:0:
109,192,77525,1,0,0:0:0:0:
36,192,77634,1,0,0:0:0:0:
329,192,77634,1,0,0:0:0:0:
475,192,77851,1,0,0:0:0:0:
182,192,77851,1,0,0:0:0:0:
109,192,78503,1,0,0:0:0:0:
329,192,78503,128,0,84590:0:0:0:0:
475,192,78503,1,0,0:0:0:0:
182,192,78721,1,0,0:0:0:0:
256,192,78938,1,0,0:0:0:0:
402,192,78938,1,0,0:0:0:0:
36,192,79156,1,0,0:0:0:0:
109,192,79373,1,0,0:0:0:0:
475,192,79373,1,0,0:0:0:0:
182,192,79590,1,0,0:0:0:0:
109,192,79808,1,0,0:0:0:0:
402,192,79808,1,0,0:0:0:0:
182,192,80025,1,0,0:0:0:0:
256,192,80242,1,0,0:0:0:0:
475,192,80242,1,0,0:0:0:0:
36,192,80460,1,0,0:0:0:0:
402,192,80677,1,0,0:0:0:0:
256,192,80677,1,0,0:0:0:0:
182,192,80895,1,0,0:0:0:0:
475,192,81112,1,0,0:0:0:0:
36,192,81112,1,0,0:0:0:0:
182,192,81329,1,0,0:0:0:0:
402,192,81547,1,0,0:0:0:0:
109,192,81547,1,0,0:0:0:0:
182,192,81764,1,0,0:0:0:0:
36,192,81982,1,0,0:0:0:0:
475,192,81982,1,0,0:0:0:0:
256,192,82199,1,0,0:0:0:0:
402,192,82416,1,0,0:0:0:0:
182,192,82416,1,0,0:0:0:0:
36,192,82634,1,0,0:0:0:0:
475,192,82851,1,0,0:0:0:0:
109,192,82851,1,0,0:0:0:0:
256,192,83069,1,0,0:0:0:0:
402,192,83286,1,0,0:0:0:0:
182,192,83286,1,0,0:0:0:0:
109,192,83503,1,0,0:0:0:0:
475,192,83721,1,0,0:0:0:0:
36,192,83721,1,0,0:0:0:0:
