osu file format v12

[General]
AudioFilename: Kimi to Deaeru Hi.mp3
AudioLeadIn: 1500
PreviewTime: 50033
Countdown: 0
SampleSet: Soft
StackLeniency: 0.7
Mode: 0
LetterboxInBreaks: 0

[Editor]
DistanceSpacing: 0.9
BeatDivisor: 4
GridSize: 4

[Metadata]
Title:Prime Number Kimi to Deaeru Hi (TV Size)
TitleUnicode:Prime Number ~君と出会える日~ (TV Size)
Artist:Okura Asuka
ArtistUnicode:大倉明日香
Creator:Entreal
Version:Sakurasou
Source:Sakurasou no Pet na Kanojo
Tags:Okura Asuka Sakurasou no Pet na Kanojo Prime Number Kimi to Deaeru Hi Tari
BeatmapID:219549
BeatmapSetID:78473

[Difficulty]
HPDrainRate:7
CircleSize:4
OverallDifficulty:7
ApproachRate:8
SliderMultiplier:1.8
SliderTickRate:1

[Events]
//Background and Video events
Video,0,"Video.flv"
0,0,"BG3.jpg",1,1
//Break Periods
//Storyboard Layer 0 (Background)
//Storyboard Layer 1 (Fail)
//Storyboard Layer 2 (Pass)
//Storyboard Layer 3 (Foreground)
//Storyboard Sound Samples
//Background Colour Transformations
3,100,163,162,255

[TimingPoints]
250,434.782608695652,4,2,1,70,1,0
12423,-100,4,2,1,50,0,0
17206,-100,4,1,2,50,0,0
17315,-100,4,2,1,50,0,0
35684,-100,4,2,1,30,0,0
35793,-100,4,2,1,50,0,0
50467,-66.6666666666667,4,2,1,70,0,1
57641,-66.6666666666667,4,2,1,30,0,1
57749,-66.6666666666667,4,2,1,70,0,1
61119,-66.6666666666667,4,2,1,30,0,1
61228,-66.6666666666667,4,2,1,70,0,1
71228,-100,4,2,1,70,0,1
71555,-100,4,2,1,30,0,0
71663,-100,4,2,1,70,0,0
75032,-66.6666666666667,4,2,1,40,0,0
75141,-66.6666666666667,4,2,1,70,0,0
78511,-66.6666666666667,4,2,1,70,0,0

[Colours]
Combo1 : 0,121,121
Combo2 : 103,0,206
Combo3 : 255,124,62
Combo4 : 40,40,255
Combo5 : 255,255,179

[HitObjects]
0,108,250,22,0,P|32:72|104:76,1,90,8|0,0:0|0:0,0:0:0:0:
76,144,685,2,0,P|116:160|120:216,1,90,8|0,0:0|0:0,0:0:0:0:
80,268,1119,2,0,P|120:284|184:264,1,90,0|8,0:0|0:0,0:0:0:0:
188,272,1445,1,0,0:0:0:0:
208,268,1554,1,8,0:0:0:0:
228,264,1663,1,0,0:0:0:0:
248,260,1771,1,8,0:0:0:0:
364,284,1990,5,4,0:0:0:0:
432,328,2207,2,0,P|456:288|428:240,1,90,0|8,0:0|0:0,0:0:0:0:
480,144,2641,1,0,0:0:0:0:
444,132,2749,1,0,0:0:0:0:
412,120,2858,1,0,0:0:0:0:
384,112,2967,1,0,0:0:0:0:
360,104,3076,1,0,0:0:0:0:
248,72,3293,1,8,0:0:0:0:
96,112,3510,1,0,0:0:0:0:
0,240,3729,5,0,0:0:0:0:
96,112,3946,1,0,0:0:0:0:
112,268,4163,1,8,0:0:0:0:
136,120,4381,1,0,0:0:0:0:
220,232,4598,5,0,0:0:0:0:
136,120,4815,1,0,0:0:0:0:
264,112,5033,1,8,0:0:0:0:
392,80,5250,1,0,0:0:0:0:
452,76,5359,1,0,0:0:0:0:
428,132,5468,1,4,0:0:0:0:
380,200,5685,6,0,P|428:220|472:208,1,90,0|8,0:0|0:0,0:0:0:0:
392,364,6119,1,0,0:0:0:0:
356,348,6228,1,0,0:0:0:0:
320,328,6336,1,0,0:0:0:0:
284,308,6445,1,0,0:0:0:0:
248,288,6554,1,0,0:0:0:0:
136,292,6772,1,8,0:0:0:0:
20,220,6989,1,0,0:0:0:0:
136,160,7206,5,0,0:0:0:0:
56,88,7423,1,0,0:0:0:0:
152,112,7641,1,8,0:0:0:0:
76,44,7858,1,0,0:0:0:0:
168,64,8076,1,0,0:0:0:0:
264,44,8293,1,0,0:0:0:0:
364,68,8510,1,8,0:0:0:0:
424,60,8620,1,8,0:0:0:0:
400,116,8728,1,0,0:0:0:0:
348,224,8946,1,4,0:0:0:0:
292,164,9163,6,0,P|288:168|272:254,1,90,0|8,0:0|0:0,0:0:0:0:
192,332,9597,1,0,0:0:0:0:
148,328,9706,1,0,0:0:0:0:
112,324,9815,1,0,0:0:0:0:
76,320,9923,1,0,0:0:0:0:
32,312,10032,1,0,0:0:0:0:
0,212,10250,1,8,0:0:0:0:
28,136,10468,5,0,0:0:0:0:
100,96,10684,2,0,P|152:68|180:80,1,90
156,156,11119,2,0,P|208:184|236:168,1,90,8|0,0:0|0:0,0:0:0:0:
292,116,11554,2,0,P|320:168|308:196,1,90,8|0,0:0|0:0,0:0:0:0:
456,232,11989,1,8,0:0:0:0:
480,284,12098,1,8,0:0:0:0:
444,324,12207,1,8,0:0:0:0:
368,268,12423,6,0,P|304:300|260:284,1,90,4|0,0:0|0:0,0:0:0:0:
300,216,12859,1,8,0:0:0:0:
224,240,13076,2,0,P|200:280|204:321,1,90
124,328,13511,1,0,0:0:0:0:
60,276,13729,1,8,0:0:0:0:
84,200,13946,2,0,P|44:168|40:112,1,90
116,128,14381,1,0,0:0:0:0:
232,40,14597,1,8,0:0:0:0:
192,184,14815,1,0,0:0:0:0:
152,40,15032,1,0,0:0:0:0:
264,128,15249,1,0,0:0:0:0:
348,208,15467,1,8,0:0:0:0:
388,240,15576,1,8,0:0:0:0:
424,268,15685,1,8,0:0:0:0:
340,324,15903,6,0,P|304:352|244:348,1,90
192,312,16336,2,0,P|149:315|113:343,1,90,8|0,0:0|0:0,0:0:0:0:
32,336,16771,2,0,B|0:260|28:140|28:140|0:88|36:32,1,270
136,88,17642,5,0,0:0:0:0:
104,200,17859,1,0,0:0:0:0:
220,64,18076,1,8,0:0:0:0:
152,272,18294,1,0,0:0:0:0:
300,40,18511,1,0,0:0:0:0:
204,344,18729,2,0,P|240:364|296:356,1,90,0|8,0:0|0:0,0:0:0:0:
264,284,19163,1,0,0:0:0:0:
340,256,19381,1,4,0:0:0:0:
411,293,19598,6,0,P|420:248|404:208,1,90,0|8,0:0|0:0,0:0:0:0:
332,172,20033,1,0,0:0:0:0:
398,123,20250,2,0,P|352:92|320:92,1,90,0|0,0:0|0:0,0:0:0:0:
248,124,20685,1,8,0:0:0:0:
168,124,20903,2,0,P|170:154|228:200,1,90
160,256,21337,1,0,0:0:0:0:
104,196,21554,2,0,P|80:240|81:279,1,90,8|0,0:0|0:0,0:0:0:0:
52,356,21989,1,8,0:0:0:0:
132,348,22207,1,0,0:0:0:0:
344,312,22423,5,8,0:0:0:0:
328,280,22532,1,8,0:0:0:0:
312,248,22641,1,0,0:0:0:0:
296,216,22749,1,8,0:0:0:0:
280,188,22858,6,0,L|244:96,1,90,4|0,0:0|0:0,0:0:0:0:
176,64,23294,1,8,0:0:0:0:
80,188,23511,1,0,0:0:0:0:
88,52,23729,1,0,0:0:0:0:
168,204,23946,1,0,0:0:0:0:
224,140,24163,1,8,0:0:0:0:
36,116,24381,5,0,0:0:0:0:
56,196,24597,1,0,0:0:0:0:
116,144,24815,1,0,0:0:0:0:
56,276,25032,1,8,0:0:0:0:
192,144,25249,1,0,0:0:0:0:
232,216,25468,2,0,P|264:200|284:151,1,90
400,112,25903,1,8,0:0:0:0:
408,56,26011,1,8,0:0:0:0:
460,76,26120,1,8,0:0:0:0:
460,200,26337,6,0,L|416:280,1,90
372,344,26772,2,0,L|252:316,1,90,8|0,0:0|0:0,0:0:0:0:
204,324,27207,2,0,L|100:352,1,90
68,284,27642,2,0,L|16:200,1,90,8|0,0:0|0:0,0:0:0:0:
4,128,28076,6,0,L|100:96,1,90
156,56,28511,2,0,L|260:96,1,90,8|0,0:0|0:0,0:0:0:0:
312,52,28946,2,0,L|420:56,1,90
288,168,29381,1,8,0:0:0:0:
256,120,29598,1,8,0:0:0:0:
224,168,29816,1,4,0:0:0:0:
56,204,30032,6,0,P|69:248|101:276,1,90,0|8,0:0|0:0,0:0:0:0:
140,204,30467,2,0,P|163:217|187:273,1,90,0|0,0:0|0:0,0:0:0:0:
168,352,30903,2,0,P|212:352|264:312,1,90,0|8,0:0|0:0,0:0:0:0:
356,268,31336,1,0,0:0:0:0:
388,236,31445,1,0,0:0:0:0:
420,200,31554,1,0,0:0:0:0:
472,104,31772,2,0,P|438:85|390:97,1,90,0|8,0:0|0:0,0:0:0:0:
372,173,32206,2,0,P|336:152|304:112,1,90,0|0,0:0|0:0,0:0:0:0:
284,36,32642,6,0,P|236:60|224:104,1,90,0|8,0:0|0:0,0:0:0:0:
144,104,33076,1,0,0:0:0:0:
104,128,33185,1,0,0:0:0:0:
64,152,33294,1,4,0:0:0:0:
32,224,33511,5,0,0:0:0:0:
68,296,33729,1,8,0:0:0:0:
108,320,33837,1,0,0:0:0:0:
148,344,33946,1,0,0:0:0:0:
188,264,34163,5,0,0:0:0:0:
324,264,34381,1,0,0:0:0:0:
380,192,34598,1,8,0:0:0:0:
132,192,34815,1,0,0:0:0:0:
188,120,35032,1,0,0:0:0:0:
324,120,35249,1,0,0:0:0:0:
256,192,35467,1,0,0:0:0:0:
256,48,35684,5,4,0:0:0:0:
200,152,36120,1,8,0:0:0:0:
312,152,36336,1,8,0:0:0:0:
432,228,36555,5,0,0:0:0:0:
408,260,36663,1,0,0:0:0:0:
376,300,36771,1,4,0:0:0:0:
304,340,36989,2,0,L|208:340,1,90,0|8,0:0|0:0,0:0:0:0:
136,300,37423,1,0,0:0:0:0:
104,260,37533,1,0,0:0:0:0:
76,228,37642,1,0,0:0:0:0:
256,192,37858,1,8,0:0:0:0:
256,192,38076,1,8,0:0:0:0:
424,152,38294,5,0,0:0:0:0:
392,112,38403,1,0,0:0:0:0:
368,80,38510,1,0,0:0:0:0:
300,36,38729,2,0,L|204:36,1,90,0|8,0:0|0:0,0:0:0:0:
144,80,39163,1,0,0:0:0:0:
120,112,39271,1,0,0:0:0:0:
88,152,39380,1,0,0:0:0:0:
256,192,39597,1,8,0:0:0:0:
256,192,39816,1,8,0:0:0:0:
320,344,40032,6,0,P|284:376|228:372,1,90,0|0,0:0|0:0,0:0:0:0:
252,296,40467,2,0,P|203:292|171:268,1,90,0|8,0:0|0:0,0:0:0:0:
76,176,40903,1,0,0:0:0:0:
96,148,41011,1,0,0:0:0:0:
116,120,41120,1,0,0:0:0:0:
256,144,41337,2,0,L|256:268,1,90,0|8,0:0|0:0,0:0:0:0:
344,140,41772,5,0,0:0:0:0:
168,140,41989,1,0,0:0:0:0:
256,24,42207,1,0,0:0:0:0:
256,52,42316,1,0,0:0:0:0:
256,88,42424,1,8,0:0:0:0:
256,224,42641,1,0,0:0:0:0:
256,328,43076,1,4,0:0:0:0:
344,80,43293,6,0,P|400:100|404:160,1,90
332,152,43729,1,0,0:0:0:0:
256,328,43946,1,0,0:0:0:0:
176,152,44163,1,0,0:0:0:0:
368,264,44380,1,0,0:0:0:0:
144,264,44597,1,8,0:0:0:0:
256,224,44816,1,0,0:0:0:0:
256,144,45032,2,0,L|256:44,1,90
400,68,45468,5,0,0:0:0:0:
356,104,45576,1,0,0:0:0:0:
312,144,45685,1,0,0:0:0:0:
256,192,45903,1,8,0:0:0:0:
400,316,46120,5,0,0:0:0:0:
356,280,46229,1,0,0:0:0:0:
312,240,46337,1,0,0:0:0:0:
256,192,46555,1,0,0:0:0:0:
84,188,46772,5,8,0:0:0:0:
136,192,46881,1,0,0:0:0:0:
184,192,46989,1,0,0:0:0:0:
256,192,47207,1,0,0:0:0:0:
344,252,47424,5,0,0:0:0:0:
256,336,47642,1,8,0:0:0:0:
168,252,47859,1,0,0:0:0:0:
256,192,48076,1,0,0:0:0:0:
228,100,48294,1,2,0:0:0:0:
256,56,48403,1,0,0:0:0:0:
284,100,48511,1,8,0:0:0:0:
256,192,48729,12,0,50250,0:0:0:0:
256,192,50467,5,4,0:0:0:0:
320,88,50685,1,0,0:0:0:0:
416,192,50903,1,0,0:0:0:0:
316,316,51119,2,0,L|264:272,2,67.5000025749208,8|0|0,0:0|0:0|0:0,0:0:0:0:
256,192,51555,5,0,0:0:0:0:
196,68,51771,2,0,L|248:112,2,67.5000025749208,0|0|8,0:0|0:0|0:0,0:0:0:0:
96,192,52207,1,0,0:0:0:0:
192,296,52424,1,0,0:0:0:0:
224,192,52642,6,0,L|296:192,2,67.5000025749208,0|0|8,0:0|0:0|0:0,0:0:0:0:
328,88,53076,1,0,0:0:0:0:
424,192,53294,1,0,0:0:0:0:
320,296,53511,2,0,L|272:248,2,67.5000025749208,0|0|8,0:0|0:0|0:0,0:0:0:0:
200,304,53946,6,0,L|64:260,1,135.000005149842,0|0,0:0|0:0,0:0:0:0:
160,212,54381,2,0,L|60:84,1,135.000005149842,0|8,0:0|0:0,0:0:0:0:
284,40,54816,1,0,0:0:0:0:
352,192,55033,1,0,0:0:0:0:
232,104,55250,1,0,0:0:0:0:
412,124,55468,1,8,0:0:0:0:
372,48,55685,1,0,0:0:0:0:
268,180,55903,5,0,0:0:0:0:
224,312,56120,1,0,0:0:0:0:
188,180,56337,1,8,0:0:0:0:
300,256,56555,1,0,0:0:0:0:
156,256,56771,1,0,0:0:0:0:
228,240,56989,1,0,0:0:0:0:
300,256,57206,5,8,0:0:0:0:
392,340,57423,2,0,L|489:246,1,135.000005149842,0|4,0:0|0:0,0:0:0:0:
388,228,57858,2,0,L|468:92,1,135.000005149842,0|10,0:0|0:0,0:0:0:0:
336,144,58293,2,0,L|372:8,1,135.000005149842,0|0,0:0|0:0,0:0:0:0:
176,144,58728,2,0,L|140:8,1,135.000005149842,0|8,0:0|0:0,0:0:0:0:
124,228,59163,2,0,L|44:92,1,135.000005149842,0|0,0:0|0:0,0:0:0:0:
120,340,59597,2,0,L|22:246,1,135.000005149842,0|8,0:0|0:0,0:0:0:0:
196,344,60032,2,0,L|344:344,3,135.000005149842,0|0|0|8,0:0|0:0|0:0|0:0,0:0:0:0:
256,168,60903,5,0,0:0:0:0:
384,160,61120,1,4,0:0:0:0:
256,168,61337,1,0,0:0:0:0:
320,56,61554,1,8,0:0:0:0:
256,168,61772,1,0,0:0:0:0:
192,56,61989,1,0,0:0:0:0:
256,168,62206,1,0,0:0:0:0:
128,160,62423,1,8,0:0:0:0:
256,168,62641,1,0,0:0:0:0:
304,240,62859,5,0,0:0:0:0:
208,240,63076,1,0,0:0:0:0:
256,312,63294,1,8,0:0:0:0:
256,312,63403,1,8,0:0:0:0:
256,312,63511,1,8,0:0:0:0:
256,104,63945,5,0,0:0:0:0:
336,64,64380,2,0,L|468:112,1,135.000005149842,4|0,0:0|0:0,0:0:0:0:
484,216,64815,2,0,L|352:164,1,135.000005149842,0|8,0:0|0:0,0:0:0:0:
332,256,65250,2,0,L|472:312,1,135.000005149842
180,256,65684,2,0,L|54:306,1,135.000005149842,0|8,0:0|0:0,0:0:0:0:
28,216,66119,2,0,L|160:164,1,135.000005149842,0|0,0:0|0:0,0:0:0:0:
176,64,66554,2,0,L|44:112,1,135.000005149842,0|8,0:0|0:0,0:0:0:0:
256,64,66989,6,0,L|256:208,3,135.000005149842,0|0|0|8,0:0|0:0|0:0|0:0,0:0:0:0:
256,272,67859,1,0,0:0:0:0:
316,332,68076,2,0,P|264:360|192:324,2,135.000005149842,0|0|8,0:0|0:0|0:0,0:0:0:0:
352,240,68729,6,0,L|412:116,2,135.000005149842
160,240,69380,2,0,L|100:116,2,135.000005149842,8|0|0,0:0|0:0|0:0,0:0:0:0:
256,240,70033,1,0,0:0:0:0:
200,128,70250,5,8,0:0:0:0:
216,80,70359,1,0,0:0:0:0:
256,48,70468,1,0,0:0:0:0:
296,80,70576,1,0,0:0:0:0:
312,128,70685,1,0,0:0:0:0:
256,184,70902,1,0,0:0:0:0:
256,184,71119,1,8,0:0:0:0:
392,168,71337,6,0,P|440:208|448:264,1,90,0|4,0:0|0:0,0:0:0:0:
388,288,71771,2,0,P|380:264|332:224,1,90.0000034332277,0|0,0:0|0:0,0:0:0:0:
256,342,72206,2,0,L|256:308|256:252,1,90,0|0,0:0|0:0,0:0:0:0:
180,224,72642,2,0,P|132:264|124:288,1,90.0000034332277,0|0,0:0|0:0,0:0:0:0:
64,232,73076,2,0,P|71:207|119:167,1,90.0000034332277
368,176,73729,5,0,0:0:0:0:
312,104,73946,1,0,0:0:0:0:
256,32,74163,1,0,0:0:0:0:
200,104,74381,1,0,0:0:0:0:
144,176,74598,1,0,0:0:0:0:
208,264,74816,1,0,0:0:0:0:
304,264,75033,1,4,0:0:0:0:
256,192,75250,12,0,77207,0:0:0:0:
256,176,77642,5,8,0:0:0:0:
256,176,77859,1,8,0:0:0:0:
256,96,78511,5,4,0:0:0:0:
