osu file format v12

[General]
AudioFilename: Kimi to Deaeru Hi.mp3
AudioLeadIn: 1500
PreviewTime: 50033
Countdown: 0
SampleSet: Soft
StackLeniency: 0.7
Mode: 0
LetterboxInBreaks: 0

[Editor]
DistanceSpacing: 1.2
BeatDivisor: 4
GridSize: 4

[Metadata]
Title:Prime Number Kimi to Deaeru Hi (TV Size)
TitleUnicode:Prime Number ~君と出会える日~ (TV Size)
Artist:Okura Asuka
ArtistUnicode:大倉明日香
Creator:Entreal
Version:Normal
Source:Sakurasou no Pet na Kanojo
Tags:Okura Asuka Sakurasou no Pet na Kanojo Prime Number Kimi to Deaeru Hi Tari
BeatmapID:219946
BeatmapSetID:78473

[Difficulty]
HPDrainRate:4
CircleSize:3
OverallDifficulty:3
ApproachRate:4
SliderMultiplier:0.9
SliderTickRate:1

[Events]
//Background and Video events
Video,0,"Video.flv"
0,0,"BG4.jpg",0,0
//Break Periods
//Storyboard Layer 0 (Background)
//Storyboard Layer 1 (Fail)
//Storyboard Layer 2 (Pass)
//Storyboard Layer 3 (Foreground)
//Storyboard Sound Samples
//Background Colour Transformations
3,100,163,162,255

[TimingPoints]
250,434.782608695652,4,2,1,70,1,0
2316,-100,4,2,1,60,0,0
2533,-100,4,2,1,70,0,0
4163,-100,4,1,2,60,0,0
4273,-100,4,2,1,70,0,0
7532,-100,4,1,2,60,0,0
7751,-100,4,2,1,70,0,0
11663,-100,4,2,1,50,0,0
12098,-100,4,2,1,70,0,0
12423,-100,4,2,1,50,0,0
12750,-100,4,2,1,60,0,0
12968,-100,4,2,1,50,0,0
14489,-100,4,2,1,60,0,0
14707,-100,4,2,1,50,0,0
16229,-100,4,2,1,60,0,0
16446,-100,4,2,1,50,0,0
17968,-100,4,2,1,60,0,0
18185,-100,4,2,1,50,0,0
20795,-100,4,2,1,60,0,0
21881,-100,4,2,1,50,0,0
22316,-100,4,2,1,50,0,0
23185,-100,4,2,1,60,0,0
23403,-100,4,2,1,50,0,0
24924,-100,4,2,1,60,0,0
25142,-100,4,2,1,50,0,0
26663,-100,4,2,1,60,0,0
26881,-100,4,2,1,50,0,0
28403,-100,4,2,1,60,0,0
28620,-100,4,2,1,50,0,0
30142,-100,4,2,1,60,0,0
30359,-100,4,2,1,50,0,0
31881,-100,4,2,1,60,0,0
32098,-100,4,2,1,50,0,0
33620,-100,4,2,1,60,0,0
33837,-100,4,2,1,50,0,0
36771,-100,4,2,1,20,0,0
36880,-100,4,2,1,50,0,0
43185,-100,4,2,1,60,0,0
43403,-100,4,2,1,50,0,0
43728,-100,4,2,1,30,0,0
43836,-100,4,2,1,50,0,0
47532,-100,4,2,1,50,0,0
47749,-100,4,2,1,50,0,0
50467,-100,4,2,1,70,0,1
51011,-100,4,2,1,60,0,1
51229,-100,4,2,1,70,0,1
52750,-100,4,1,2,60,0,1
52968,-100,4,2,1,70,0,1
54489,-100,4,2,1,60,0,1
54707,-100,4,2,1,70,0,1
55359,-100,4,1,2,60,0,1
55576,-100,4,2,1,70,0,1
57641,-100,4,2,1,30,0,1
57749,-100,4,2,1,70,0,1
61119,-100,4,2,1,20,0,1
61228,-100,4,2,1,70,0,1
66663,-100,4,1,2,60,0,1
66881,-100,4,2,1,70,0,1
71555,-100,4,2,0,30,0,0
71663,-100,4,2,1,70,0,0
74163,-100,4,2,0,70,0,0
75032,-100,4,2,1,40,0,0
75141,-100,4,2,1,70,0,0
77533,-100,4,2,1,50,0,0
77750,-100,4,2,1,70,0,0

[Colours]
Combo1 : 0,121,121
Combo2 : 103,0,206
Combo3 : 255,124,62
Combo4 : 40,40,255
Combo5 : 255,255,179

[HitObjects]
108,60,1990,21,4,0:0:0:0:
12,108,2423,2,0,P|57:157|121:165,1,135,8|0,0:0|0:0,0:0:0:0:
132,220,3294,1,8,0:0:0:0:
160,324,3729,2,0,P|224:276|232:224,1,135,0|0,0:0|0:0,0:0:0:0:
316,160,4815,2,0,L|268:128,1,45,0|8,0:0|0:0,0:0:0:0:
356,60,5468,5,4,0:0:0:0:
252,36,5902,2,0,P|200:76|176:156,1,135,8|0,0:0|0:0,0:0:0:0:
176,192,6772,1,8,0:0:0:0:
152,296,7207,2,0,P|224:296|280:200,1,180,0|0,0:0|0:0,0:0:0:0:
276,160,8293,2,0,L|348:152,1,67.5,0|0,0:0|0:0,0:0:0:0:
412,200,8946,6,0,P|428:156|416:112,1,90,4|8,0:0|0:0,0:0:0:0:
380,76,9598,1,0,0:0:0:0:
328,72,9815,2,0,L|272:60,2,45,0|0|8,0:0|0:0|0:0,0:0:0:0:
244,140,10685,2,0,P|200:192|200:232,1,90,0|8,0:0|0:0,0:0:0:0:
304,236,11554,2,0,L|328:288,2,45,0|8|8,0:0|0:0|0:0,0:0:0:0:
332,188,12206,1,8,0:0:0:0:
356,140,12424,6,0,P|428:120|440:128,1,90,4|8,0:0|0:0,0:0:0:0:
472,228,13294,1,0,0:0:0:0:
424,324,13729,1,8,0:0:0:0:
320,356,14163,2,0,P|272:360|228:348,1,90,0|8,0:0|0:0,0:0:0:0:
128,324,15033,1,0,0:0:0:0:
80,228,15468,1,8,0:0:0:0:
4,152,15903,6,0,P|40:120|84:120,1,90,0|8,0:0|0:0,0:0:0:0:
168,56,16772,1,0,0:0:0:0:
276,44,17207,1,8,0:0:0:0:
372,92,17642,2,0,P|400:80|456:124,2,90,0|8|0,0:0|0:0|0:0,0:0:0:0:
296,168,18946,1,8,0:0:0:0:
220,244,19380,5,4,0:0:0:0:
140,320,19816,2,0,P|80:252|128:184,1,180,8|8,0:0|0:0,0:0:0:0:
172,168,20902,2,0,L|344:104,1,180
388,76,21989,1,8,0:0:0:0:
456,76,22207,1,8,0:0:0:0:
420,128,22424,1,8,0:0:0:0:
460,228,22859,6,0,P|452:256|404:288,3,90,4|8|0|8,0:0|0:0|0:0|0:0,0:0:0:0:
308,336,24598,2,0,L|212:336,1,90,0|8,0:0|0:0,0:0:0:0:
124,284,25468,1,0,0:0:0:0:
72,188,25903,1,8,0:0:0:0:
124,96,26336,6,0,P|156:48|184:36,2,90,0|8|0,0:0|0:0|0:0,0:0:0:0:
152,200,27641,1,8,0:0:0:0:
228,124,28076,2,0,L|318:124,1,90,0|8,0:0|0:0,0:0:0:0:
412,72,28946,1,0,0:0:0:0:
472,164,29381,1,8,0:0:0:0:
408,252,29816,5,4,0:0:0:0:
344,168,30250,2,0,L|254:168,1,90,8|0,0:0|0:0,0:0:0:0:
144,168,31120,1,8,0:0:0:0:
80,84,31555,2,0,P|40:120|36:164,1,90,0|8,0:0|0:0,0:0:0:0:
4,256,32424,2,0,P|44:264|96:240,1,90,0|8,0:0|0:0,0:0:0:0:
184,192,33294,1,4,0:0:0:0:
240,100,33728,6,0,P|276:53|348:49,1,135,8|0,0:0|0:0,0:0:0:0:
372,100,34597,2,0,L|400:160,1,45,8|0,0:0|0:0,0:0:0:0:
456,228,35250,2,0,P|357:262|301:174,1,225
388,112,36772,6,0,P|304:56|232:100,1,180,4|0,0:0|0:0,0:0:0:0:
132,92,38076,1,8,0:0:0:0:
48,24,38511,2,0,P|8:104|64:168,1,180,0|0,0:0|0:0,0:0:0:0:
168,168,39816,1,8,0:0:0:0:
200,64,40249,6,0,P|248:84|272:132,1,90,0|8,0:0|0:0,0:0:0:0:
320,128,40902,2,0,P|388:156|360:208,1,135,0|8,0:0|0:0,0:0:0:0:
336,236,41771,2,0,P|268:196|176:248,1,180
260,312,43076,1,4,0:0:0:0:
260,312,43294,1,8,0:0:0:0:
368,312,43728,6,0,P|420:244|380:164,1,180,4|0,0:0|0:0,0:0:0:0:
280,140,45033,1,8,0:0:0:0:
176,168,45468,2,0,P|64:96|30:188,1,270,0|8,0:0|0:0,0:0:0:0:
120,248,47207,1,0,0:0:0:0:
212,308,47641,2,0,P|292:324|364:244,1,180,0|8,0:0|0:0,0:0:0:0:
256,192,48728,12,4,50467,0:0:0:0:
0,104,51120,6,0,P|80:40|152:72,1,180,8|8,0:0|0:0,0:0:0:0:
92,156,52424,2,0,P|172:220|244:188,1,180
264,148,53510,1,0,0:0:0:0:
288,100,53729,6,0,P|368:36|440:68,1,180,8|8,0:0|0:0,0:0:0:0:
464,164,55033,2,0,P|384:228|312:196,1,180
220,164,56337,2,0,L|124:164,1,90,8|0,0:0|0:0,0:0:0:0:
32,212,57206,1,8,0:0:0:0:
40,320,57642,6,0,P|112:296|120:280,1,90,4|8,0:0|0:0,0:0:0:0:
216,244,58511,1,0,0:0:0:0:
292,164,58946,1,8,0:0:0:0:
188,136,59381,2,0,P|204:88|252:68,1,90,0|8,0:0|0:0,0:0:0:0:
340,36,60250,1,0,0:0:0:0:
444,68,60685,1,8,0:0:0:0:
364,140,61119,6,4,L|316:148,1,45,4|0,0:0|0:0,0:0:0:0:
272,172,61554,2,0,L|232:216,1,45,8|0,0:0|0:0,0:0:0:0:
232,260,61989,2,0,P|204:268|156:236,1,90,0|8,0:0|0:0,0:0:0:0:
256,192,62641,12,0,63945,0:0:0:0:
200,160,64381,6,0,P|268:128|320:176,1,135,4|8,0:0|0:0,0:0:0:0:
256,256,65468,1,0,0:0:0:0:
256,256,65903,1,8,0:0:0:0:
288,360,66337,2,0,P|344:360|360:288,1,135
344,184,67424,2,0,L|304:152,3,45,0|8|0|0,0:0|0:0|0:0|0:0,0:0:0:0:
224,88,68511,5,8,0:0:0:0:
144,160,68946,1,0,0:0:0:0:
224,232,69381,1,8,0:0:0:0:
304,160,69816,1,0,0:0:0:0:
384,232,70250,1,8,0:0:0:0:
304,312,70685,1,0,0:0:0:0:
192,312,71120,1,8,0:0:0:0:
120,232,71554,6,0,B|232:148|232:148|336:232,1,270,4|0,0:0|0:0,0:0:0:0:
420,168,73294,1,0,0:0:0:0:
420,168,73729,1,0,0:0:0:0:
360,80,74163,2,0,L|264:80,1,90,2|0,0:0|0:0,0:0:0:0:
164,56,75033,6,0,B|84:192|84:192|172:336,1,315,4|8,0:0|0:0,0:0:0:0:
400,192,77642,1,8,0:0:0:0:
400,192,77859,1,8,0:0:0:0:
240,196,78511,5,4,0:0:0:0:
