osu file format v12

[General]
AudioFilename: Kimi to Deaeru Hi.mp3
AudioLeadIn: 1500
PreviewTime: 50033
Countdown: 0
SampleSet: Soft
StackLeniency: 0.7
Mode: 0
LetterboxInBreaks: 0

[Editor]
Bookmarks: 65249
DistanceSpacing: 1
BeatDivisor: 4
GridSize: 4

[Metadata]
Title:Prime Number Kimi to Deaeru Hi (TV Size)
TitleUnicode:Prime Number ~君と出会える日~ (TV Size)
Artist:Okura Asuka
ArtistUnicode:大倉明日香
Creator:Entreal
Version:Hard
Source:Sakurasou no Pet na Kanojo
Tags:Okura Asuka Sakurasou no Pet na Kanojo Prime Number Kimi to Deaeru Hi Tari
BeatmapID:219548
BeatmapSetID:78473

[Difficulty]
HPDrainRate:6
CircleSize:4
OverallDifficulty:6
ApproachRate:6
SliderMultiplier:1.5
SliderTickRate:1

[Events]
//Background and Video events
Video,0,"Video.flv"
0,0,"BG2.jpg",1,1
//Break Periods
//Storyboard Layer 0 (Background)
//Storyboard Layer 1 (Fail)
//Storyboard Layer 2 (Pass)
//Storyboard Layer 3 (Foreground)
//Storyboard Sound Samples
//Background Colour Transformations
3,100,163,162,255

[TimingPoints]
250,434.782608695652,4,2,1,70,1,0
12423,-100,4,2,1,50,0,0
21880,-100,4,2,1,60,0,0
22097,-100,4,2,1,40,0,0
22315,-100,4,2,1,50,0,0
36446,-100,4,2,1,50,0,0
36771,-100,4,2,1,30,0,0
36880,-100,4,2,1,50,0,0
39597,-100,4,2,1,40,0,0
39706,-100,4,2,1,50,0,0
43728,-100,4,2,1,20,0,0
43836,-100,4,2,1,50,0,0
50467,-100,4,2,1,70,0,1
57641,-100,4,2,1,30,0,1
57749,-100,4,2,1,70,0,1
61119,-100,4,2,1,30,0,1
61228,-100,4,2,1,70,0,1
69815,-100,4,2,1,30,0,1
69923,-100,4,2,1,70,0,1
71555,-100,4,2,1,30,0,0
71663,-100,4,2,1,70,0,0
73293,-100,4,2,0,70,0,0
73402,-100,4,2,1,70,0,0
75032,-100,4,2,1,40,0,0
75141,-100,4,2,1,70,0,0
78511,-66.6666666666667,4,2,1,60,0,0

[Colours]
Combo1 : 0,121,121
Combo2 : 103,0,206
Combo3 : 255,124,62
Combo4 : 40,40,255
Combo5 : 255,255,179

[HitObjects]
8,120,1990,2,0,P|52:60|144:60,1,150,4|8,0:0|0:0,0:0:0:0:
132,200,2858,2,0,L|176:264,2,75,0|0|8,0:0|0:0|0:0,0:0:0:0:
236,92,3729,2,0,P|228:176|288:232,1,150,0|8,0:0|0:0,0:0:0:0:
380,124,4597,2,0,P|423:179|416:256,1,150,0|8,0:0|0:0,0:0:0:0:
268,224,5468,6,0,P|253:241|128:240,1,150,4|8,0:0|0:0,0:0:0:0:
20,152,6336,2,0,L|64:84,2,75,0|0|8,0:0|0:0|0:0,0:0:0:0:
20,304,7207,2,0,P|88:368|140:372,1,150,0|8,0:0|0:0,0:0:0:0:
148,220,8076,2,0,P|156:172|240:116,1,150,0|8,0:0|0:0,0:0:0:0:
304,248,8946,2,0,P|312:296|400:336,1,150,4|8,0:0|0:0,0:0:0:0:
436,192,9815,2,0,L|404:108,2,75,0|0|8,0:0|0:0|0:0,0:0:0:0:
320,96,10685,6,0,P|248:64|152:96,1,150,0|8,0:0|0:0,0:0:0:0:
108,64,11336,1,0,0:0:0:0:
72,128,11554,2,0,L|80:224,1,75,0|0,0:0|0:0,0:0:0:0:
108,228,11880,2,0,L|142:243,3,37.5,0|8|8|8,0:0|0:0|0:0|0:0,0:0:0:0:
152,320,12424,6,0,P|216:288|207:209,1,150,4|8,0:0|0:0,0:0:0:0:
236,148,13076,1,0,0:0:0:0:
292,96,13293,1,0,0:0:0:0:
364,120,13511,2,0,L|436:164|436:164,1,75,0|8,0:0|0:0,0:0:0:0:
500,136,13946,6,0,P|484:208|396:224,1,150
348,260,14598,1,8,0:0:0:0:
272,272,14816,1,0,0:0:0:0:
204,240,15033,1,0,0:0:0:0:
164,176,15250,1,0,0:0:0:0:
168,100,15468,1,8,0:0:0:0:
308,44,15902,5,0,0:0:0:0:
384,52,16119,1,0,0:0:0:0:
436,108,16336,1,8,0:0:0:0:
432,184,16554,1,0,0:0:0:0:
380,240,16771,2,0,P|300:212|248:284,1,150,0|8,0:0|0:0,0:0:0:0:
320,288,17424,6,0,P|240:324|184:268,1,150
120,288,18076,1,8,0:0:0:0:
56,252,18293,1,0,0:0:0:0:
24,184,18511,2,0,P|36:100|116:80,1,150,0|8,0:0|0:0,0:0:0:0:
160,56,19163,1,0,0:0:0:0:
232,72,19381,1,4,0:0:0:0:
380,52,19816,5,8,0:0:0:0:
400,200,20250,2,0,P|340:236|273:203,1,150,0|8,0:0|0:0,0:0:0:0:
112,200,21119,2,0,P|172:236|248:184,1,150,0|8,0:0|0:0,0:0:0:0:
256,232,21772,2,0,L|256:307,2,75,0|8|8,0:0|0:0|0:0,0:0:0:0:
256,132,22423,2,0,L|256:60,4,37.5,0|8|0|8|4,0:0|0:0|0:0|0:0|0:0,0:0:0:0:
348,76,23076,5,0,0:0:0:0:
348,76,23294,1,8,0:0:0:0:
160,76,23510,1,0,0:0:0:0:
160,76,23728,1,0,0:0:0:0:
256,184,23946,1,0,0:0:0:0:
256,184,24163,1,8,0:0:0:0:
256,276,24381,6,0,L|256:356,1,75,0|0,0:0|0:0,0:0:0:0:
160,252,24816,2,0,L|104:316,1,75,0|8,0:0|0:0,0:0:0:0:
352,252,25250,2,0,L|404:312,1,75,0|0,0:0|0:0,0:0:0:0:
280,200,25684,5,0,0:0:0:0:
256,156,25902,1,8,0:0:0:0:
232,200,26119,1,0,0:0:0:0:
115,122,26337,6,0,L|177:163,1,75,0|0,0:0|0:0,0:0:0:0:
216,23,26772,2,0,L|216:98,1,75,8|0,0:0|0:0,0:0:0:0:
296,23,27207,2,0,L|296:98,1,75,0|0,0:0|0:0,0:0:0:0:
420,112,27642,2,0,L|357:153,1,75,8|0,0:0|0:0,0:0:0:0:
420,272,28076,6,0,L|356:228,1,75,0|0,0:0|0:0,0:0:0:0:
296,361,28511,2,0,L|296:286,1,75,8|0,0:0|0:0,0:0:0:0:
216,361,28946,2,0,L|216:286,1,75,0|0,0:0|0:0,0:0:0:0:
92,272,29381,2,0,L|156:228,1,75,8|8,0:0|0:0,0:0:0:0:
256,172,29816,5,4,0:0:0:0:
116,140,30249,6,0,P|185:57|323:52,1,225,8|0,0:0|0:0,0:0:0:0:
256,172,31120,1,8,0:0:0:0:
396,188,31336,6,0,P|340:280|219:298,1,225,0|8,0:0|0:0,0:0:0:0:
256,172,32207,1,0,0:0:0:0:
136,120,32642,1,0,0:0:0:0:
204,48,32859,1,8,0:0:0:0:
308,48,33076,1,0,0:0:0:0:
376,120,33294,1,4,0:0:0:0:
464,240,33728,6,0,L|360:256,1,75,8|0,0:0|0:0,0:0:0:0:
368,324,34163,2,0,L|264:340,1,75,0|0,0:0|0:0,0:0:0:0:
220,336,34597,2,0,L|116:324,1,75,8|0,0:0|0:0,0:0:0:0:
128,252,35032,2,0,L|24:236,1,75
4,184,35467,1,0,0:0:0:0:
48,120,35685,5,0,0:0:0:0:
108,72,35903,1,0,0:0:0:0:
180,52,36120,1,8,0:0:0:0:
256,60,36337,1,8,0:0:0:0:
328,76,36554,2,0,P|360:96|384:152,1,75,0|4,0:0|0:0,0:0:0:0:
356,200,36989,2,0,P|320:180|304:124,1,75,0|8,0:0|0:0,0:0:0:0:
428,236,37424,2,0,P|404:264|364:276,1,75
372,352,37858,2,0,P|324:344|300:296,1,75,0|8,0:0|0:0,0:0:0:0:
292,252,38294,6,0,P|261:260|233:292,1,75
160,276,38729,2,0,P|161:318|177:346,1,75,0|8,0:0|0:0,0:0:0:0:
104,364,39163,1,0,0:0:0:0:
32,344,39380,1,0,0:0:0:0:
0,276,39597,1,0,0:0:0:0:
12,200,39815,1,8,0:0:0:0:
88,140,40033,6,0,L|16:116,1,75.0000028610231
144,88,40468,2,0,L|216:116,1,75,0|8,0:0|0:0,0:0:0:0:
348,96,40903,2,0,L|276:68,1,75,0|0,0:0|0:0,0:0:0:0:
412,56,41337,2,0,L|484:80,1,75.0000028610231,0|8,0:0|0:0,0:0:0:0:
512,168,41771,6,0,L|452:213,1,75.0000028610231
512,280,42206,2,0,L|452:325,1,75.0000028610231,0|8,0:0|0:0,0:0:0:0:
384,360,42642,1,0,0:0:0:0:
236,336,43076,1,4,0:0:0:0:
224,260,43294,6,0,P|192:272|165:301,1,75
108,348,43729,2,0,P|95:325|99:277,1,75,4|0,0:0|0:0,0:0:0:0:
28,252,44163,2,0,P|48:216|75:198,1,75,8|0,0:0|0:0,0:0:0:0:
24,144,44598,2,0,P|56:120|96:120,1,75,0|0,0:0|0:0,0:0:0:0:
88,44,45032,1,8,0:0:0:0:
160,24,45249,1,0,0:0:0:0:
236,36,45467,6,0,P|268:36|307:56,1,75
376,84,45903,2,0,P|356:112|316:128,1,75,8|0,0:0|0:0,0:0:0:0:
248,112,46336,2,0,P|252:164|292:196,1,75
300,252,46771,1,8,0:0:0:0:
256,360,46989,1,0,0:0:0:0:
212,252,47206,1,0,0:0:0:0:
320,324,47423,1,0,0:0:0:0:
192,324,47641,1,8,0:0:0:0:
212,176,47858,5,0,0:0:0:0:
256,64,48076,1,8,0:0:0:0:
300,176,48294,1,0,0:0:0:0:
192,108,48510,1,8,0:0:0:0:
316,108,48728,1,0,0:0:0:0:
256,192,48945,12,0,50249,0:0:0:0:
256,192,50467,5,4,0:0:0:0:
188,48,50902,5,0,0:0:0:0:
264,60,51120,1,8,0:0:0:0:
324,108,51337,2,0,P|364:152|344:248,1,150
312,300,51989,1,8,0:0:0:0:
236,300,52207,2,0,P|184:368|104:352,1,150
160,300,52859,1,8,0:0:0:0:
200,236,53076,2,0,P|124:236|80:308,1,150
8,276,53729,5,8,0:0:0:0:
8,200,53946,1,0,0:0:0:0:
28,128,54163,1,0,0:0:0:0:
84,76,54381,1,0,0:0:0:0:
156,56,54598,1,8,0:0:0:0:
228,76,54815,6,0,P|264:80|300:124,2,75
236,152,55467,1,8,0:0:0:0:
184,212,55684,1,0,0:0:0:0:
220,280,55903,1,0,0:0:0:0:
300,264,56119,1,0,0:0:0:0:
304,188,56336,1,8,0:0:0:0:
372,220,56554,2,0,P|412:200|404:152,1,75
392,100,56989,1,0,0:0:0:0:
328,60,57206,1,8,0:0:0:0:
256,80,57424,6,0,L|176:80,1,75
108,68,57859,2,0,L|20:124,1,75,0|8,0:0|0:0,0:0:0:0:
64,180,58294,2,0,L|12:272,1,75
60,312,58729,2,0,L|152:340,1,75,0|8,0:0|0:0,0:0:0:0:
204,360,59163,6,0,L|300:328,1,75,0|0,0:0|0:0,0:0:0:0:
348,348,59598,2,0,L|420:308,1,75,0|8,0:0|0:0,0:0:0:0:
472,264,60033,2,0,L|452:180,1,75
508,140,60468,2,0,L|436:80,1,75,0|8,0:0|0:0,0:0:0:0:
304,88,60903,5,0,0:0:0:0:
256,200,61120,1,4,0:0:0:0:
212,88,61337,1,0,0:0:0:0:
320,164,61555,1,8,0:0:0:0:
192,160,61772,1,0,0:0:0:0:
256,280,61989,1,0,0:0:0:0:
220,344,62206,2,0,P|256:356|292:344,2,75,0|8|0,0:0|0:0|0:0,0:0:0:0:
256,192,62858,12,8,63728,0:0:0:0:
160,132,64163,5,0,0:0:0:0:
160,56,64381,2,0,P|104:84|104:180,1,150,4|0,0:0|0:0,0:0:0:0:
108,240,65033,1,8,0:0:0:0:
32,240,65249,2,0,P|68:304|160:288,1,150
212,324,65903,1,8,0:0:0:0:
188,252,66120,2,0,P|256:264|284:356,1,150
364,324,66772,1,8,0:0:0:0:
416,268,66989,2,0,P|481:231|481:163,1,150
412,192,67642,5,8,0:0:0:0:
368,132,67859,1,0,0:0:0:0:
376,56,68076,2,0,P|336:64|296:160,1,150,0|8,0:0|0:0,0:0:0:0:
304,232,68728,5,0,0:0:0:0:
340,240,68836,1,0,0:0:0:0:
360,272,68946,2,0,P|316:328|232:308,1,150,0|8,0:0|0:0,0:0:0:0:
168,316,69598,1,0,0:0:0:0:
96,292,69816,1,4,0:0:0:0:
52,232,70033,1,0,0:0:0:0:
64,156,70250,1,8,0:0:0:0:
108,96,70468,1,0,0:0:0:0:
164,164,70684,2,0,L|192:236,2,75,0|0|8,0:0|0:0|0:0,0:0:0:0:
348,164,71554,6,0,L|320:236,2,75,4|0|0,0:0|0:0|0:0,0:0:0:0:
424,164,72207,1,0,0:0:0:0:
480,216,72424,1,0,0:0:0:0:
356,304,72859,6,0,P|316:344|212:328,1,150,0|2,0:0|0:0,0:0:0:0:
268,196,73728,2,0,P|256:116|180:84,1,150,0|0,0:0|0:0,0:0:0:0:
196,160,74381,1,0,0:0:0:0:
128,128,74598,1,0,0:0:0:0:
76,184,74816,1,0,0:0:0:0:
144,220,75032,1,4,0:0:0:0:
256,192,75249,12,8,76554,0:0:0:0:
256,192,77642,5,8,0:0:0:0:
256,192,77859,1,8,0:0:0:0:
256,192,78511,5,4,0:0:0:0:
