osu file format v12

[General]
AudioFilename: Kimi to Deaeru Hi.mp3
AudioLeadIn: 1500
PreviewTime: 50033
Countdown: 0
SampleSet: Soft
StackLeniency: 0.7
Mode: 0
LetterboxInBreaks: 0

[Editor]
DistanceSpacing: 1
BeatDivisor: 4
GridSize: 4

[Metadata]
Title:Prime Number Kimi to Deaeru Hi (TV Size)
TitleUnicode:Prime Number ~君と出会える日~ (TV Size)
Artist:Okura Asuka
ArtistUnicode:大倉明日香
Creator:Entreal
Version:Easy
Source:Sakurasou no Pet na Kanojo
Tags:Okura Asuka Sakurasou no Pet na Kanojo Prime Number Kimi to Deaeru Hi Tari
BeatmapID:219547
BeatmapSetID:78473

[Difficulty]
HPDrainRate:3
CircleSize:3
OverallDifficulty:2
ApproachRate:3
SliderMultiplier:0.9
SliderTickRate:1

[Events]
//Background and Video events
Video,0,"Video.flv"
0,0,"BG1.jpg",1,1
//Break Periods
//Storyboard Layer 0 (Background)
//Storyboard Layer 1 (Fail)
//Storyboard Layer 2 (Pass)
//Storyboard Layer 3 (Foreground)
//Storyboard Sound Samples
//Background Colour Transformations
3,100,163,162,255

[TimingPoints]
250,434.782608695652,4,2,1,70,1,0
2316,-100,4,2,1,60,0,0
2533,-100,4,2,1,70,0,0
4055,-100,4,2,1,60,0,0
4272,-100,4,2,1,70,0,0
5794,-100,4,2,1,60,0,0
6011,-100,4,2,1,70,0,0
7533,-100,4,2,1,60,0,0
7750,-100,4,2,1,70,0,0
9272,-100,4,2,1,60,0,0
9489,-100,4,2,1,70,0,0
11011,-100,4,2,1,60,0,0
11229,-100,4,2,1,70,0,0
11446,-100,4,2,1,60,0,0
11663,-100,4,2,1,70,0,0
12423,-100,4,2,1,50,0,0
12750,-100,4,1,2,60,0,0
12968,-100,4,2,1,50,0,0
14489,-100,4,1,2,60,0,0
14707,-100,4,2,1,50,0,0
16229,-100,4,1,2,60,0,0
16446,-100,4,2,1,50,0,0
17968,-100,4,1,2,60,0,0
18185,-100,4,2,1,50,0,0
20468,-100,4,1,2,50,0,0
20794,-100,4,2,1,50,0,0
23077,-100,4,1,2,50,0,0
23511,-100,4,2,1,50,0,0
23946,-100,4,1,2,50,0,0
24381,-100,4,2,1,50,0,0
24923,-100,4,2,1,50,0,0
25141,-100,4,2,1,50,0,0
28403,-100,4,1,2,60,0,0
28620,-100,4,2,1,50,0,0
29163,-100,4,1,2,60,0,0
29598,-100,4,2,1,50,0,0
31010,-100,4,2,1,60,0,0
31228,-100,4,2,1,50,0,0
34489,-100,4,1,2,60,0,0
34706,-100,4,2,1,50,0,0
36771,-100,4,2,0,50,0,0
40249,-100,4,2,1,50,0,0
40576,-100,4,1,2,50,0,0
40793,-100,4,2,1,50,0,0
41445,-100,4,2,1,50,0,0
43184,-100,4,2,0,50,0,0
47858,-100,4,2,1,50,0,0
50467,-100,4,2,1,70,0,1
55250,-100,4,1,2,70,0,1
55577,-100,4,2,1,70,0,1
57641,-100,4,2,1,40,0,1
57749,-100,4,2,0,70,0,1
61119,-100,4,2,1,70,0,1
64272,-100,4,2,1,70,0,1
64489,-100,4,2,1,70,0,1
71555,-100,4,2,0,30,0,0
71663,-100,4,2,0,70,0,0
75032,-100,4,2,1,40,0,0
75141,-100,4,2,1,70,0,0
78511,-100,4,2,1,100,0,0

[Colours]
Combo1 : 0,121,121
Combo2 : 103,0,206
Combo3 : 255,124,62
Combo4 : 40,40,255
Combo5 : 255,255,179

[HitObjects]
136,248,1990,2,0,B|176:272|176:272|224:264,1,90,4|8,0:0|0:0,0:0:0:0:
304,248,2859,2,0,B|344:272|344:272|392:264,1,90,0|8,0:0|0:0,0:0:0:0:
392,176,3729,2,0,B|352:152|352:152|304:160,1,90,0|8,0:0|0:0,0:0:0:0:
216,168,4598,2,0,B|176:144|176:144|128:152,1,90,0|8,0:0|0:0,0:0:0:0:
120,60,5468,6,0,P|80:52|48:100,1,90,4|8,0:0|0:0,0:0:0:0:
8,168,6337,2,0,P|0:208|48:240,1,90,0|8,0:0|0:0,0:0:0:0:
104,180,7207,2,0,P|136:140|184:140,1,90,0|8,0:0|0:0,0:0:0:0:
176,228,8076,1,0,0:0:0:0:
132,308,8510,1,8,0:0:0:0:
216,340,8946,6,0,L|264:260,1,90,4|8,0:0|0:0,0:0:0:0:
352,248,9816,2,0,L|320:160,1,90,0|8,0:0|0:0,0:0:0:0:
412,152,10685,2,0,L|412:56,1,90,0|8,0:0|0:0,0:0:0:0:
328,28,11555,1,8,0:0:0:0:
260,88,11989,1,8,0:0:0:0:
328,148,12424,6,0,P|384:212|328:276,1,180,4|0,0:0|0:0,0:0:0:0:
264,216,13729,1,8,0:0:0:0:
176,216,14163,2,0,P|120:152|176:88,1,180
240,148,15468,1,8,0:0:0:0:
308,88,15903,6,0,P|372:32|428:88,1,180
372,160,17207,1,8,0:0:0:0:
316,228,17642,2,0,P|252:284|196:228,1,180
256,160,18946,1,8,0:0:0:0:
256,68,19381,5,4,0:0:0:0:
348,68,19816,2,0,P|460:116|388:300,1,360,8|8,0:0|0:0,0:0:0:0:
308,264,21989,2,0,L|252:264,2,45,0|0|8,0:0|0:0|0:0,0:0:0:0:
304,352,22859,6,4,P|176:248|304:176,1,360,4|0,0:0|0:0,0:0:0:0:
264,88,25032,1,8,0:0:0:0:
336,40,25468,2,0,P|360:80|336:128,1,90,0|8,0:0|0:0,0:0:0:0:
300,196,26336,6,0,P|356:204|396:236,2,90,0|8|0,0:0|0:0|0:0,0:0:0:0:
340,116,27641,1,8,0:0:0:0:
248,116,28076,2,0,P|200:212|240:276,2,180,0|0|4,0:0|0:0|0:0,0:0:0:0:
292,196,30249,6,0,P|340:124|300:44,2,180,8|8|8,0:0|0:0|0:0,0:0:0:0:
252,116,32423,1,0,0:0:0:0:
172,76,32858,1,8,0:0:0:0:
88,108,33294,1,4,0:0:0:0:
44,184,33728,6,0,P|-20:288|56:332,1,225,8|0,0:0|0:0,0:0:0:0:
100,260,35249,2,0,L|324:260,1,225,0|0,0:0|0:0,0:0:0:0:
396,212,36772,5,2,0:0:0:0:
320,48,37642,1,2,0:0:0:0:
164,136,38511,1,2,0:0:0:0:
212,308,39381,1,2,0:0:0:0:
372,224,40250,6,0,P|437:263|477:127,1,270,0|8,0:0|0:0,0:0:0:0:
388,132,41989,1,0,0:0:0:0:
320,72,42423,2,0,L|172:28,1,135,0|4,0:0|0:0,0:0:0:0:
60,68,43728,5,2,0:0:0:0:
228,132,44597,1,2,0:0:0:0:
192,308,45467,1,2,0:0:0:0:
36,224,46336,1,2,0:0:0:0:
196,140,47206,1,2,0:0:0:0:
256,192,47858,12,0,49380,0:0:0:0:
304,148,50033,6,0,L|344:100,2,45,0|0|4,0:0|0:0|0:0,0:0:0:0:
208,148,50902,2,0,L|168:100,2,45,0|8|0,0:0|0:0|0:0,0:0:0:0:
208,236,51771,2,0,L|168:284,2,45,0|8|0,0:0|0:0|0:0,0:0:0:0:
304,236,52641,2,0,L|344:284,2,45,0|8|0,0:0|0:0|0:0,0:0:0:0:
240,168,53510,6,0,P|184:136|216:80,1,135,0|0,0:0|0:0,0:0:0:0:
288,44,54598,1,8,0:0:0:0:
376,60,55033,2,0,P|488:164|448:188,1,270,0|8,0:0|0:0,0:0:0:0:
400,252,56771,2,0,L|340:319,1,90,0|8,0:0|0:0,0:0:0:0:
256,288,57641,5,4,0:0:0:0:
104,192,58510,1,2,0:0:0:0:
256,96,59380,1,2,0:0:0:0:
408,192,60249,1,2,0:0:0:0:
296,332,61119,6,0,P|248:348|208:320,3,90,0|8|0|8,0:0|0:0|0:0|0:0,0:0:0:0:
256,192,62641,12,8,63728,0:0:0:0:
152,288,64380,6,0,P|192:176|280:184,1,225,4|0,0:0|0:0,0:0:0:0:
240,264,65903,2,0,P|328:272|372:188,1,180,8|8,0:0|0:0,0:0:0:0:
368,112,67206,1,0,0:0:0:0:
312,40,67641,6,0,L|224:88,1,90,8|0,0:0|0:0,0:0:0:0:
244,172,68511,1,8,0:0:0:0:
160,136,68945,5,0,0:0:0:0:
76,100,69381,2,0,P|52:188|112:264,1,180,8|8,0:0|0:0,0:0:0:0:
272,212,71120,1,8,0:0:0:0:
356,176,71554,6,0,P|196:260|196:160,1,360,4|2,0:0|0:0,0:0:0:0:
172,84,73729,2,0,L|112:84,2,45
256,52,74597,1,0,0:0:0:0:
340,84,75033,6,0,P|428:220|344:320,1,315,4|8,0:0|0:0,0:0:0:0:
160,192,77642,2,0,L|224:192,1,45,8|8,0:0|0:0,0:0:0:0:
340,192,78510,5,4,0:0:0:0:
