osu file format v9

[General]
AudioFilename: 01. Good-bye crisis.mp3
AudioLeadIn: 2000
PreviewTime: 11231
Countdown: 0
SampleSet: Normal
StackLeniency: 0.4
Mode: 0
LetterboxInBreaks: 0

[Editor]
DistanceSpacing: 1.3
BeatDivisor: 4
GridSize: 4

[Metadata]
Title:Good-bye crisis
Artist:Okui Masami
Creator:NewRulerNA
Version:Hard
Source:Hello,good-bye
Tags:lump of sugar visual novel eroge opening

[Difficulty]
HPDrainRate:5
CircleSize:4
OverallDifficulty:6
ApproachRate:7
SliderMultiplier:1.6
SliderTickRate:1

[Events]
//Background and Video events
0,0,"BG2.jpg"
//Break Periods
2,33021,42708
2,113920,123606
2,194819,204505
//Storyboard Layer 0 (Background)
//Storyboard Layer 1 (Fail)
//Storyboard Layer 2 (Pass)
//Storyboard Layer 3 (Foreground)
//Storyboard Sound Samples
//Background Colour Transformations
3,100,0,0,0

[TimingPoints]
462,337.078651685393,4,1,1,80,1,0
5855,-133.333333333333,4,2,1,100,0,0
6697,-133.333333333333,4,2,1,80,0,0
7035,-133.333333333333,4,2,1,60,0,0
7372,-133.333333333333,4,2,1,40,0,0
7709,-133.333333333333,4,2,1,20,0,0
8046,-100,4,1,1,80,0,0
11248,-100,4,1,1,90,0,1
21866,-100,4,1,1,90,0,0
22035,-100,4,1,1,90,0,1
30124,-100,4,1,1,70,0,1
30293,-100,4,1,1,90,0,1
32821,-100,4,1,1,80,0,0
43608,-100,4,1,2,80,0,0
51697,-100,4,1,2,70,0,0
54394,-100,4,1,2,80,0,0
62484,-100,4,1,2,70,0,0
65518,-133.333333333333,4,2,1,90,0,0
73270,-133.333333333333,4,2,1,80,0,0
76304,-133.333333333333,4,2,1,90,0,0
81360,-100,4,1,2,80,0,0
86754,-100,4,1,1,90,0,1
97372,-100,4,1,1,90,0,0
97540,-100,4,1,1,90,0,1
111023,-100,4,1,1,70,0,1
111192,-100,4,1,1,90,0,1
113720,-100,4,1,1,80,0,0
124506,-100,4,1,2,80,0,0
132596,-100,4,1,2,70,0,0
135293,-100,4,1,2,80,0,0
143383,-100,4,1,2,70,0,0
146417,-133.333333333333,4,2,1,90,0,0
154169,-133.333333333333,4,2,1,80,0,0
157203,-133.333333333333,4,2,1,90,0,0
162259,-100,4,1,2,80,0,0
167653,-100,4,1,1,90,0,1
178270,-100,4,1,1,90,0,0
178439,-100,4,1,1,90,0,1
191922,-100,4,1,1,70,0,1
192091,-100,4,1,1,90,0,1
194619,-100,4,1,1,80,0,0
205405,-100,4,1,2,80,0,0
218888,-100,4,2,1,80,0,0
221585,-100,4,1,1,90,0,1
229506,-100,4,1,1,90,0,0
229675,-100,4,1,1,90,0,1
243158,-100,4,1,1,70,0,1
243327,-100,4,1,1,90,0,1
245855,-100,4,1,2,80,0,0
256641,-100,4,1,2,65,0,0
256978,-100,4,1,2,50,0,0
257315,-100,4,1,2,35,0,0
257653,-100,4,1,2,20,0,0
257990,-100,4,2,1,5,0,0

[Colours]
Combo1 : 84,84,84
Combo2 : 255,128,64
Combo3 : 170,170,255
Combo4 : 255,255,208

[HitObjects]
224,96,462,6,0,B|136:96,2,80
304,40,967,2,0,B|380:83|380:171,1,160,4|0
472,192,1473,2,0,B|429:268|341:268,1,160,4|0
320,360,1978,2,0,B|244:317|244:229,1,160,4|0
332,188,2484,2,0,B|354:150|332:112,1,80,4|0
244,148,2821,2,0,B|202:160|170:129,1,80
84,84,3158,6,0,B|45:62|7:84,2,80,0|0|0
44,156,3664,2,0,B|21:240|83:302,1,160,4|0
168,260,4169,2,0,B|254:259|299:335,1,160,4|0
396,324,4675,2,0,B|458:261|435:177,1,160,4|0
384,96,5181,2,0,B|362:57|318:58,1,80,4|0
308,152,5518,2,0,B|265:140|234:171,1,80
236,244,5855,6,0,B|236:308,1,59.9999982118607
164,260,6192,2,0,B|164:196,1,59.9999982118607
184,44,6697,1,0
184,44,7035,2,0,B|240:8|296:44,1,119.999996423721
368,196,7709,2,0,B|312:232|256:196,1,119.999996423721
255,195,8214,1,4
104,96,8551,6,0,B|104:192,1,80,4|0
104,272,8888,1,0
176,336,9057,2,0,B|263:336|307:260,1,160,4|0
312,160,9563,2,0,B|312:72,1,80,0|4
392,136,9900,2,0,B|392:224,1,80
472,168,10237,2,0,B|472:256,1,80,0|4
392,304,10574,2,0,B|316:348|240:304,1,160
80,72,11248,6,0,B|160:72,1,80,4|0
112,144,11585,2,0,B|200:144,1,80,8|0
280,144,11922,2,0,B|328:176|328:176|328:288,1,160,0|8
392,336,12428,2,0,B|376:372|328:396|280:372|264:336,1,160
216,264,12933,2,0,B|216:176,1,80,8|0
132,160,13270,2,0,B|96:176|72:224|96:272|132:288,1,160,0|8
380,288,13945,6,0,B|416:272|440:224|416:176|380:160,1,160,4|8
416,80,14450,2,0,B|378:58|340:80,1,80
264,40,14787,2,0,B|221:51|210:93,1,80,0|8
128,120,15124,2,0,B|84:196|128:272,1,160
184,200,15630,2,0,B|228:276|184:352,2,160,8|0|8
16,152,16641,6,0,B|15:64|92:20,1,160,4|8
184,16,17147,2,0,B|224:96,1,80
304,96,17484,2,0,B|264:16,2,80,0|8|0
360,172,17990,2,0,B|404:96|360:20,1,160,0|8
304,96,18495,2,0,B|227:139|228:227,1,160
288,304,19001,2,0,B|256:335|214:322,1,80,8|0
132,316,19338,6,0,B|96:300|72:252|96:204|132:188,1,160,4|8
152,92,19844,2,0,B|64:91|20:168,1,160
20,264,20349,1,8
20,264,20686,2,0,B|84:336,1,80,4|0
104,232,21023,2,0,B|168:160,1,80,0|4
188,264,21360,2,0,B|252:336,2,80,0|0|4
280,96,22035,6,0,B|376:96|376:96|416:160,1,160,4|8
376,240,22540,2,0,B|320:152,1,80
248,224,22877,2,0,B|304:312,1,80,0|8
208,340,23214,2,0,B|165:270|165:270|165:174,1,160
116,108,23720,2,0,B|73:177|73:177|73:273,2,160,8|0|8
288,88,24731,6,0,B|364:132|440:88,1,160,4|8
364,28,25237,1,0
364,28,25405,2,0,B|364:192,1,160,0|8
472,160,25911,2,0,B|508:176|532:224|508:272|472:288,1,160
384,336,26417,2,0,B|308:380|232:336,1,160,8|0
152,308,26922,2,0,B|108:307|86:346,2,80,0|8|0
224,264,27428,6,0,B|300:220|300:132,1,160,4|8
208,120,27933,2,0,B|169:141|170:185,1,80
88,232,28270,2,0,B|49:210|50:166,1,80,0|8
88,72,28608,1,0
176,32,28776,2,0,B|336:32,1,160,4|8
368,120,29282,2,0,B|208:120,1,160
176,212,29787,2,0,B|288:212,2,80,8|0|4
256,192,30293,12,4,32821
128,144,43608,6,0,B|144:108|192:84|240:108|256:144,1,160,0|8
384,144,44282,2,0,B|368:108|320:84|272:108|256:144,1,160,0|8
192,216,44787,2,0,B|191:303|268:347,2,160,0|8|0
280,248,45630,2,0,B|360:248,1,80
424,320,45967,2,0,B|328:320,1,80,8|0
268,348,46304,6,0,B|183:370|121:308,1,160,0|8
176,128,46978,2,0,B|260:105|322:167,1,160,0|8
232,208,47484,2,0,B|156:252|80:208,1,160
56,112,47990,2,0,B|120:40,1,80,8|0
176,128,48327,2,0,B|240:56,2,80,0|0|8
180,320,49001,6,0,B|256:364|332:320,1,160,0|8
472,188,49675,2,0,B|396:144|320:188,1,160,0|8
396,248,50181,2,0,B|396:76,2,160,0|8|0
320,304,51023,1,0
320,304,51192,2,0,B|341:342|385:342,2,80,0|8|0
328,208,51697,6,0,B|284:131|196:132,1,160,4|0
104,144,52203,2,0,B|147:220|235:220,1,160,4|0
196,132,52709,2,0,B|152:55|64:56,1,160,4|0
104,144,53214,2,0,B|48:216,1,80,4|0
0,288,53551,1,0
100,324,53720,2,0,B|137:346|175:324,1,80,4|0
260,264,54057,2,0,B|297:241|335:263,1,80,4|0
424,304,54394,6,0,B|460:288|484:240|460:192|424:176,2,160,0|8|0
336,344,55237,2,0,B|336:264,1,80,0|8
336,168,55574,2,0,B|292:91|204:92,1,160,0|8
104,256,56248,2,0,B|147:332|235:332,1,160
220,212,56754,1,8
376,48,57091,6,0,B|464:47|507:124,1,160,0|8
376,336,57765,2,0,B|464:336|507:259,1,160,0|8
440,192,58270,2,0,B|280:192,1,160
184,192,58776,2,0,B|136:192|136:192|96:240,1,80,8|0
160,304,59113,2,0,B|208:304|208:304|248:256,2,80,0|0|8
48,152,59787,6,0,B|4:228|48:304,1,160,0|8
216,216,60461,2,0,B|260:140|216:64,1,160,0|8
156,140,60967,2,0,B|332:140,1,160,0|8
432,288,61641,2,0,B|376:288|376:288|344:320|344:320|284:320,1,160
312,232,62147,2,0,B|224:232,1,80,8|0
192,320,62484,6,0,B|155:334|104:317|87:266|101:229,1,160,4|0
96,136,62990,2,0,B|59:121|8:138|-8:189|5:226,1,160,4|0
102,230,63495,2,0,B|189:230|233:154,1,160,4|0
236,72,64001,2,0,B|279:71|301:110,1,80,4|0
360,40,64338,2,0,B|391:71|379:113,1,80,0|4
480,96,64675,2,0,B|480:139|442:161,1,80
512,220,65012,2,0,B|480:251|438:239,1,80,0|4
176,192,65518,6,0,B|232:156|288:192,1,119.999996423721
304,272,66023,2,0,B|322:307|362:305,2,59.9999982118607,0|8|0
232,312,66529,2,0,B|201:371|135:367,1,119.999996423721,0|8
56,336,67035,2,8,B|-3:305|1:239,1,119.999996423721,0|0
0,160,67540,1,8
152,136,67877,6,0,B|152:200,1,59.9999982118607
196,272,68214,2,0,B|228:264|235:232,1,59.9999982118607,8|0
264,152,68551,2,0,B|296:159|303:191,1,59.9999982118607
332,272,68888,2,0,B|364:264|371:232,1,59.9999982118607,8|0
400,152,69226,2,0,B|432:159|439:191,2,59.9999982118607,0|0|8
344,16,69900,6,0,B|208:16,1,119.999996423721,0|8
56,48,70574,2,0,B|100:48|100:48|116:80|116:80|156:80,1,119.999996423721,0|8
232,116,71079,2,0,B|234:182|175:213,1,119.999996423721
240,268,71585,1,8
312,224,71754,2,0,B|326:289|391:303,1,119.999996423721
400,216,72259,2,0,B|400:96,1,119.999996423721,8|0
328,56,72765,2,0,B|328:128,1,59.9999982118607,0|8
256,272,73270,6,0,B|200:308|144:272,1,119.999996423721,4|0
200,208,73776,2,0,B|144:172|88:208,1,119.999996423721,4|0
24,264,74282,2,0,B|-12:208|24:152,1,119.999996423721,4|0
88,208,74787,2,0,B|124:152|88:96,1,119.999996423721,4|0
144,32,75293,2,0,B|88:-4|32:32,2,119.999996423721,4|4|4
256,160,76304,6,0,B|256:296,1,119.999996423721,8|0
216,352,76810,2,0,B|188:370|160:352,2,59.9999982118607,0|8|0
296,352,77315,2,0,B|352:388|408:352,1,119.999996423721,0|8
456,288,77821,2,0,B|456:152,2,119.999996423721,0|0|8
376,264,78664,6,0,B|310:249|296:184,1,119.999996423721,0|8
384,176,79169,2,0,B|369:110|304:96,1,119.999996423721
296,184,79675,2,0,B|240:220|184:184,1,119.999996423721,8|0
156,104,80181,2,0,B|122:105|107:76,2,59.9999982118607,0|8|0
240,112,80686,2,0,B|240:248,1,119.999996423721,0|8
376,368,81360,6,0,B|296:368|296:368|240:296,1,160,4|8
312,232,81866,2,0,B|348:232|348:232|400:304|400:304|440:304,1,160
488,224,82372,2,0,B|440:160,1,80,8|0
384,80,82709,2,0,B|304:80|304:80|248:152,1,160,4|8
184,72,83214,2,0,B|140:148|184:224,2,160,0|0|8
256,144,84057,6,0,B|336:144,1,80,4|0
272,216,84394,2,0,B|352:216,1,80,8|0
288,288,84731,2,0,B|208:288,1,80
272,360,85068,2,0,B|192:360,1,80,8|0
96,360,85405,2,0,B|33:297|56:213,1,160,8|8
96,128,85911,2,0,B|127:96|169:108,2,80,0|8|0
300,168,86754,6,0,B|322:206|300:244,1,80,4|0
208,216,87091,2,0,B|186:178|208:140,1,80,8|0
208,56,87428,2,0,B|283:12|359:56,1,160,0|8
448,88,87933,2,0,B|484:104|508:152|484:200|448:216,1,160
416,152,88439,2,0,B|304:152,1,80,8|0
272,224,88776,2,0,B|384:224,2,80,0|0|8
88,264,89450,6,0,B|128:352|128:352|216:352,1,160,4|8
424,264,90124,2,0,B|384:352|384:352|296:352,1,160,0|8
248,288,90630,2,0,B|225:203|140:180,1,160
88,264,91136,2,0,B|88:352,1,80,8|0
0,304,91473,2,0,B|0:120,1,160,0|8
160,40,92147,6,0,B|192:96|192:96|296:96,1,160,4|8
372,136,92653,2,0,B|394:174|372:212,1,80
284,256,92990,2,0,B|262:218|284:180,2,80,0|8|0
376,296,93495,2,0,B|460:273|483:188,1,160,0|8
464,96,94001,2,0,B|402:33|317:56,1,160
256,128,94506,2,0,B|213:139|182:108,1,80,8|0
112,40,94844,6,0,B|49:101|72:186,1,160,4|8
160,232,95349,2,0,B|149:274|106:285,1,80
20,240,95686,2,0,B|30:197|73:186,1,80,0|8
164,156,96023,2,0,B|207:155|229:193,1,80,0|4
256,288,96360,2,0,B|256:376,1,80
348,344,96697,2,0,B|384:358|435:341|452:290|438:253,1,160,4|4
368,272,97203,1,0
352,80,97540,6,0,B|264:79|220:156,1,160,4|8
128,120,98046,2,0,B|105:158|128:196,1,80
216,232,98383,2,0,B|238:270|216:308,1,80,0|8
120,288,98720,2,0,B|43:244|44:156,1,160
72,64,99226,2,0,B|93:25|137:26,1,80,8|0
208,96,99563,2,0,B|292:118|354:56,1,160,0|8
488,192,100237,6,0,B|400:192|400:192|360:264,1,160,4|8
176,280,100911,2,0,B|264:280|264:280|304:208,1,160,0|8
224,152,101417,2,0,B|180:152|180:152|160:188,2,80
312,112,101922,2,0,B|268:35|180:35,1,160,8|0
64,192,102596,2,0,B|107:268|195:268,1,160,8|4
384,320,103270,6,0,B|428:320|449:282,2,80,8|0|0
384,224,103776,2,0,B|384:179|346:158,2,80,0|8|0
288,220,104282,2,0,B|252:204|228:156|252:108|288:92,1,160,0|8
384,96,104787,2,0,B|460:139|459:227,2,160,0|0|8
320,24,105630,6,0,B|235:1|173:63,1,160,4|0
112,136,106136,2,0,B|197:113|259:175,1,160,4|0
320,248,106641,2,0,B|235:225|173:287,1,160,4|0
248,344,107147,2,0,B|333:367|395:305,1,160,4|0
416,208,107653,2,0,B|416:128,1,80,4|0
336,72,107990,2,0,B|336:152,1,80,4|0
232,224,108327,6,0,B|196:208|172:160|196:112|232:96,1,160,4|8
272,160,108832,2,0,B|80:160,2,160,0|0|8
360,208,109675,2,0,B|374:244|357:295|306:312|269:298,1,160,4|8
184,248,110181,2,0,B|140:172|184:96,2,160,0|0|8
264,192,111023,1,4
256,192,111192,12,4,113720
256,88,124506,6,0,B|256:264,1,160,0|8
424,344,125181,2,0,B|468:268|424:192,1,160,0|8
328,176,125686,2,0,B|350:260|288:322,1,160
192,324,126192,2,0,B|96:324,1,80,8|0
104,232,126529,2,0,B|8:232,2,80,0|0|8
184,56,127203,6,0,B|288:56|288:56|312:112,1,160,0|8
456,232,127877,2,0,B|352:232|352:232|328:176,1,160,0|8
432,156,128383,2,0,B|476:232|432:308,1,160
344,368,128888,2,0,B|306:390|267:368,1,80,8|0
188,312,129226,2,0,B|150:290|111:312,2,80,0|0|8
328,184,129900,6,0,B|351:215|347:269|303:298|264:294,1,160,0|8
96,192,130574,2,0,B|72:160|76:106|120:77|160:81,1,160,0|8
156,152,131079,2,0,B|243:152|287:76,1,160
376,48,131585,2,0,B|354:86|376:124,1,80,8|0
472,140,131922,2,0,B|472:183|434:205,1,80
356,264,132259,2,0,B|377:301|421:301,1,80,8|0
332,352,132596,6,0,B|256:396|180:352,1,160,4|0
256,288,133102,2,0,B|171:265|148:180,1,160,4|0
244,196,133608,2,0,B|244:32,1,160,4|0
152,32,134113,2,0,B|112:32|112:32|80:88,1,80,4|0
40,144,134450,2,0,B|80:144|80:144|112:200,1,80,4|0
152,256,134787,2,0,B|112:256|112:256|80:312,2,80,4|0|0
192,344,135293,6,0,B|208:308|256:284|304:308|320:344,1,160,0|8
320,152,135967,2,0,B|304:188|256:212|208:188|192:152,1,160,0|8
256,80,136473,2,0,B|299:3|387:4,2,160,0|8|0
320,152,137315,2,0,B|408:152,1,80
376,248,137653,2,0,B|464:248,1,80,8|0
432,344,137990,6,0,B|328:344|328:344|304:288,1,160,0|8
80,344,138664,2,0,B|184:344|184:344|208:288,1,160,0|8
112,268,139169,2,0,B|68:192|112:116,1,160
176,192,139675,2,0,B|214:214|252:192,1,80,8|0
212,104,140012,2,0,B|250:82|288:104,2,80,0|0|8
332,284,140686,6,0,B|256:328|180:284,2,160,0|8|0
416,328,141529,2,0,B|458:316|469:274,1,80,0|8
392,212,141866,2,0,B|354:226|304:208|286:158|301:121,2,160,0|8|0
416,120,142709,2,0,B|496:120,1,80
476,24,143046,2,0,B|396:24,1,80,8|0
304,52,143383,6,0,B|219:74|157:12,1,160,4|0
64,36,143888,2,0,B|86:120|171:143,1,160,4|0
96,204,144394,2,0,B|171:247|247:203,1,160,4|0
320,140,144900,2,0,B|357:117|357:74,2,80,4|0|0
352,228,145405,2,0,B|395:227|417:189,2,80,4|0|0
335,320,145911,2,0,B|373:341|410:319,1,80,0|4
244,352,146417,6,0,B|186:388|130:352,1,119.999996423721,8|0
140,268,146922,2,0,B|68:268,2,59.9999982118607,0|8|0
204,212,147428,2,0,B|189:146|124:132,1,119.999996423721,0|8
52,88,147933,2,0,B|96:38|160:59,1,119.999996423721
244,76,148439,6,0,B|308:96|352:47,2,119.999996423721,8|0|8
384,168,149450,2,0,B|319:147|275:196,1,119.999996423721,0|8
324,356,150124,2,0,B|388:376|432:327,1,119.999996423721,0|8
272,284,150799,2,0,B|216:248|160:284,1,119.999996423721,0|8
216,356,151473,6,0,B|216:212,1,119.999996423721,0|8
172,164,151978,2,0,B|150:100|200:56,1,119.999996423721
280,76,152484,1,8
352,32,152653,2,0,B|352:176,1,119.999996423721
432,184,153158,2,0,B|401:243|335:240,2,119.999996423721,8|0|8
344,328,154169,6,0,B|280:348|235:299,1,119.999996423721,4|0
200,224,154675,2,0,B|263:203|308:252,1,119.999996423721,4|0
235,299,155181,2,0,B|171:319|126:270,1,119.999996423721,4|0
91,195,155686,2,0,B|154:174|199:223,1,119.999996423721,4|0
126,269,156192,2,0,B|62:289|17:240,2,119.999996423721,4|4|4
100,104,157203,6,0,B|176:104|176:104|204:148,1,119.999996423721,8|0
280,128,157709,2,0,B|240:64,2,59.9999982118607,0|8|0
360,112,158214,2,0,B|424:215,1,119.999996423721,0|8
472,280,158720,2,0,B|448:317|448:317|372:317,1,119.999996423721,0|0
328,248,159226,2,0,B|248:248,1,59.9999982118607,8|0
224,320,159563,6,0,B|157:323|127:264,1,119.999996423721,0|8
144,184,160068,2,0,B|77:180|47:240,1,119.999996423721,0|0
128,264,160574,2,0,B|194:267|224:208,1,119.999996423721,8|0
228,124,161079,2,0,B|228:44,2,59.9999982118607,0|8|0
312,140,161585,2,0,B|371:170|368:236,1,119.999996423721,0|8
160,316,162259,6,0,B|236:360|312:316,1,160,4|8
236,260,162765,2,0,B|236:96,2,160,0|0|8
152,216,163608,2,0,B|116:200|92:152|116:104|152:88,1,160,4|8
224,24,164113,2,0,B|312:24|312:24|352:88,1,160
444,96,164619,2,0,B|401:26,1,80,8|0
350,85,164956,6,0,B|350:197,1,80,4|0
444,176,165293,2,0,B|444:288,1,80,8|0
380,328,165630,2,0,B|358:366|314:366,1,80
304,272,165967,2,0,B|282:233|238:234,1,80,8|0
224,328,166304,2,0,B|148:372|72:328,1,160,8|8
72,232,166810,2,0,B|72:152,2,80,0|8|4
344,320,167653,6,0,B|344:232,1,80,4|0
440,224,167990,2,0,B|440:176|440:176|400:152,1,80,8|0
392,64,168327,2,0,B|304:63|260:140,1,160,0|8
208,216,168832,2,0,B|131:172|132:84,1,160
64,152,169338,2,0,B|1:213|24:298,2,160,8|0|8
232,64,170349,6,0,B|408:64,1,160,4|8
456,136,170855,2,0,B|456:184|456:184|416:208,1,80,0|0
336,200,171192,2,0,B|336:248|336:248|376:272,1,80,0|8
456,280,171529,2,0,B|470:316|453:367|402:384|365:370,1,160
280,320,172035,2,0,B|104:320,2,160,8|0|8
256,132,173046,6,0,B|180:88|104:132,1,160,4|8
180,192,173551,2,0,B|201:230|245:229,1,80
280,320,173888,2,0,B|322:331|353:300,2,80,0|8|0
184,320,174394,2,0,B|16:320,1,160,0|8
0,224,174900,2,0,B|0:136|76:92,2,160,0|0|8
88,188,175742,6,0,B|150:250|234:227,1,160,4|8
176,152,176248,2,0,B|256:152,1,80
320,80,176585,2,0,B|240:80,2,80,0|8|0
416,80,177091,2,0,B|416:140|416:140|384:172|384:172|384:228,1,160,4|0
320,296,177596,2,0,B|336:332|384:356|432:332|448:296,2,160,4|4|0
272,384,178439,6,0,B|209:321|232:237,1,160,4|8
256,48,179113,2,0,B|178:92|179:179,1,160,0|8
272,144,179619,2,0,B|440:144,1,160
488,188,180124,2,0,B|476:230|434:241,1,80,8|0
364,236,180461,2,0,B|359:275|389:319|442:323|474:300,1,160,0|8
288,360,181136,6,0,B|104:360,1,160,4|8
32,192,181810,2,0,B|216:192,1,160,0|8
120,256,182315,2,0,B|84:240|60:192|84:144|120:128,1,160
192,192,182821,2,0,B|203:234|245:245,1,80,8|0
264,344,183158,2,0,B|340:300|340:212,1,160,0|8
368,24,183832,6,0,B|444:67|444:155,2,160,4|8|0
272,24,184675,2,0,B|168:24,2,80,0|8|0
228,108,185181,2,0,B|227:195|304:239,1,160,0|8
228,296,185686,2,0,B|304:340|380:296,2,160,0|0|8
156,232,186529,6,0,B|72:232,2,80,4|0|0
180,140,187035,2,0,B|256:96|332:140,1,160,4|0
408,196,187540,2,0,B|332:240|256:196,1,160,4|0
332,140,188046,2,0,B|408:96|484:140,1,160,4|0
408,196,188551,2,0,B|380:284,1,80,4|0
288,280,188888,2,0,B|260:368,1,80,4|0
176,320,189226,6,0,B|72:320|72:320|40:264,1,160,4|8
72,176,189731,2,0,B|128:272,1,80
144,152,190068,2,0,B|103:82,2,80,0|8|0
230,190,190574,6,0,B|315:167|338:83,1,160,0|8
230,104,191079,2,0,B|230:296,2,160,0|0|8
120,80,191922,1,4
256,192,192091,12,4,194619
360,80,205405,6,0,B|284:36|208:80,1,160,0|8
176,168,205911,2,0,B|132:168|110:129,1,80
16,136,206248,2,0,B|15:179|53:201,1,80,0|8
0,280,206585,2,0,B|76:324|152:280,1,160
184,368,207091,2,0,B|226:356|237:314,1,80,8|0
312,376,207428,2,0,B|334:338|312:300,1,80
408,291,207765,2,0,B|396:248|354:237,1,80,8|0
416,164,208102,6,0,B|340:120|264:164,2,160,0|8|0
340,224,208945,2,0,B|256:288,1,80,0|8
200,328,209282,2,0,B|160:332|116:302|112:249|136:217,1,160
200,256,209787,2,0,B|156:332|68:332,2,160,8|0|8
312,104,210799,6,0,B|356:28|444:28,1,160,0|8
408,120,211304,2,0,B|496:120,1,80
440,200,211641,2,0,B|396:276|308:276,1,160,0|8
344,184,212147,2,0,B|256:184,1,80
208,104,212484,2,0,B|120:104,1,80,8|0
56,168,212821,2,0,B|51:207|81:251|134:255|166:232,1,160,0|8
376,200,213495,6,0,B|448:200,2,53.3333333333333
368,240,213832,2,0,B|430:276,2,53.3333333333333,8|0|0
341,270,214169,2,0,B|377:332,2,53.3333333333333
302,282,214506,2,0,B|302:354,2,53.3333333333333,8|0|0
261,274,214844,2,0,B|225:336,2,53.3333333333333
231,247,215181,2,0,B|168:283,2,53.3333333333333,8|0|0
219,208,215518,2,0,B|147:208,2,53.3333333333333
229,168,215855,2,0,B|166:132,2,53.3333333333333,8|0|0
260,140,216192,6,0,B|348:140,1,80,8|0
248,108,216529,2,0,B|310:45,1,80,8|0
216,93,216866,2,0,B|216:4,1,80,8|0
182,104,217203,2,0,B|119:41,1,80,8|0
167,135,217540,2,0,B|78:135,1,80,8|0
179,168,217877,2,0,B|116:230,1,80,8|0
211,184,218214,2,0,B|211:272,1,80,8|4
440,312,218888,6,0,B|424:348|376:372|328:348|312:312,1,160,4|2
440,128,219563,2,0,B|424:92|376:68|328:92|312:128,1,160,0|2
248,200,220068,2,0,B|160:200|116:124,1,160,4|0
216,120,220574,2,0,B|193:204|108:227,2,160,2|0|2
392,48,221585,6,0,B|306:71|283:155,1,160,4|8
288,248,222091,1,0
352,320,222259,2,0,B|336:356|288:380|240:356|224:320,1,160,0|8
288,248,222765,2,0,B|364:204|440:248,1,160
512,184,223270,2,0,B|512:96|436:52,2,160,8|0|8
328,120,224282,6,0,B|240:120|196:44,1,160,4|8
104,56,224787,2,0,B|60:56|38:94,1,80
88,176,225124,2,0,B|132:176|154:138,2,80,0|8|0
40,264,225630,2,0,B|102:326|187:303,1,160,0|8
272,264,226136,2,0,B|314:252|325:210,1,80
296,120,226473,2,0,B|209:135|179:218,1,160,0|8
184,304,226978,6,0,B|246:366|331:343,1,160,4|8
416,304,227484,2,0,B|458:292|469:250,1,80
472,152,227821,2,0,B|460:109|418:98,2,80,0|8|0
392,200,228327,2,0,B|316:244|240:200,1,160,4|0
164,140,228832,2,0,B|240:96|316:140,1,160,4|4
240,200,229338,1,0
132,356,229675,6,0,B|47:333|24:248,1,160,4|8
132,28,230349,2,0,B|47:50|24:135,1,160,0|8
96,200,230855,2,0,B|180:177|203:92,1,160
268,20,231360,2,0,B|360:20,1,80,8|0
412,92,231697,2,0,B|320:92|320:92|284:152,1,160,0|8
412,292,232372,6,0,B|320:292|320:292|284:232,1,160,4|8
372,192,232877,1,0
372,192,233046,2,0,B|468:192,2,80,0|0|8
285,151,233551,2,0,B|200:173|177:258,1,160
96,312,234057,2,0,B|96:216,1,80,8|0
144,152,234394,2,0,B|144:56,2,80,0|0|8
248,312,235068,6,0,B|243:272|273:228|326:224|358:248,1,160,4|8
320,308,235574,2,0,B|341:346|385:346,1,80,0|0
456,280,235911,2,0,B|456:236|418:214,1,80,0|8
488,148,236248,1,0
488,148,236417,2,0,B|412:103|335:147,1,160,0|8
240,144,236922,2,0,B|263:58|349:37,2,160,0|0|8
144,160,237765,6,0,B|112:128|124:86,2,80,4|0|0
212,228,238270,2,0,B|212:316|136:361,1,160,4|0
136,248,238776,2,0,B|92:324|3:325,1,160,4|0
24,216,239282,2,0,B|68:140|157:139,1,160,4|0
252,136,239787,2,0,B|344:136,1,80,4|0
392,60,240124,2,0,B|312:60,1,80,4|0
252,136,240461,6,0,B|252:228|252:228|304:280,1,160,4|8
388,240,240967,2,0,B|308:160,1,80
300,276,241304,2,0,B|356:332,2,80,0|8|0
248,360,241810,2,0,B|156:360|156:360|104:308,1,160,0|8
192,264,242315,2,0,B|148:188|192:112,2,160,0|0|8
256,192,243158,1,4
256,192,243327,12,0,245518
256,264,245855,6,0,B|256:80,1,160,4|8
192,176,246360,2,0,B|208:212|256:236|304:212|320:176,1,160,0|0
376,96,246866,2,0,B|397:57|441:58,1,80,8|0
480,144,247203,2,0,B|458:182|414:181,1,80
352,256,247540,2,0,B|352:360,1,80,8|0
256,360,247877,2,0,B|168:360|124:284,1,160,0|8
256,64,248551,6,0,B|168:63|124:140,1,160,4|8
208,192,249057,2,0,B|296:192,1,80
352,264,249394,2,0,B|264:264,1,80,0|8
208,336,249731,2,0,B|284:380|360:336,1,160
448,288,250237,2,0,B|480:264|480:264|480:192,1,80,8|0
480,128,250574,2,0,B|420:128|420:128|388:96|388:96|332:96,1,160,0|8
144,88,251248,6,0,B|231:87|275:164,1,160,4|8
272,264,251754,2,0,B|184:264|140:188,1,160
280,56,252428,2,0,B|356:99|356:187,2,160,8|8|0
212,124,253270,2,0,B|168:124|146:85,1,80
56,56,253608,2,0,B|43:99|75:130,1,80,8|0
140,200,253945,6,0,B|96:275|7:275,1,160,4|0
92,336,254450,2,0,B|176:313|238:376,1,160,4|0
256,192,255124,2,0,B|216:156|256:120|296:84|256:48,2,160,4|0|4
256,192,255967,1,4
256,192,256136,12,0,258158
