osu file format v9

[General]
AudioFilename: 01. Good-bye crisis.mp3
AudioLeadIn: 2000
PreviewTime: 11231
Countdown: 0
SampleSet: Soft
StackLeniency: 0.4
Mode: 0
LetterboxInBreaks: 0

[Editor]
DistanceSpacing: 1.3
BeatDivisor: 4
GridSize: 4

[Metadata]
Title:Good-bye crisis
Artist:Okui Masami
Creator:NewRulerNA
Version:Easy
Source:Hello,good-bye
Tags:lump of sugar visual novel eroge opening

[Difficulty]
HPDrainRate:1
CircleSize:3
OverallDifficulty:2
ApproachRate:3
SliderMultiplier:0.6
SliderTickRate:1

[Events]
//Background and Video events
0,0,"BG4.jpg"
//Break Periods
2,33021,42168
2,113920,123066
2,194819,203965
//Storyboard Layer 0 (Background)
//Storyboard Layer 1 (Fail)
//Storyboard Layer 2 (Pass)
//Storyboard Layer 3 (Foreground)
//Storyboard Sound Samples
//Background Colour Transformations
3,100,0,0,0

[TimingPoints]
462,337.078651685393,4,1,0,80,1,0
5855,-100,4,2,1,100,0,0
6697,-100,4,2,1,80,0,0
7035,-100,4,2,1,60,0,0
7372,-100,4,2,1,40,0,0
7709,-100,4,2,1,35,0,0
8046,-100,4,1,0,80,0,0
11248,-100,4,1,1,90,0,1
13439,-100,4,1,0,90,0,1
14619,-100,4,1,1,90,0,1
16136,-100,4,1,0,90,0,1
17315,-100,4,1,1,90,0,1
18158,-100,4,1,0,90,0,1
18664,-100,4,1,1,90,0,1
18832,-100,4,1,0,90,0,1
19338,-100,4,1,1,90,0,1
21866,-100,4,1,1,90,0,0
22035,-100,4,1,1,90,0,1
22203,-100,4,1,0,90,0,1
22709,-100,4,1,1,90,0,1
23383,-100,4,1,0,90,0,1
24057,-100,4,1,1,90,0,1
24731,-100,4,1,0,90,0,1
25405,-100,4,1,1,90,0,1
26079,-100,4,1,0,90,0,1
26754,-100,4,1,1,90,0,1
27428,-100,4,1,0,90,0,1
28102,-100,4,1,1,90,0,1
28776,-100,4,1,0,90,0,1
29450,-100,4,1,1,90,0,1
29619,-100,4,1,0,90,0,1
30124,-100,4,1,0,70,0,1
30293,-100,4,1,0,90,0,1
32821,-100,4,1,1,80,0,0
43608,-100,4,1,2,80,0,0
51697,-100,4,1,0,70,0,0
54394,-100,4,1,2,80,0,0
62484,-100,4,1,0,70,0,0
65518,-100,4,2,1,90,0,0
65855,-100,4,2,2,70,0,0
66192,-100,4,2,1,90,0,0
81360,-100,4,1,2,80,0,0
84226,-100,4,1,0,80,0,0
84563,-100,4,1,2,80,0,0
84900,-100,4,1,0,80,0,0
85405,-100,4,1,2,80,0,0
86754,-100,4,1,1,90,0,1
88102,-100,4,1,0,90,0,1
88776,-100,4,1,1,90,0,1
93495,-100,4,1,0,90,0,1
94001,-100,4,1,1,90,0,1
94338,-100,4,1,0,90,0,1
94844,-100,4,1,1,90,0,1
96192,-100,4,1,0,90,0,1
97372,-100,4,1,0,90,0,0
97540,-100,4,1,0,90,0,1
98214,-100,4,1,1,90,0,1
98383,-100,4,1,0,90,0,1
98720,-100,4,1,1,90,0,1
100237,-100,4,1,0,90,0,1
100742,-100,4,1,1,90,0,1
101079,-100,4,1,0,90,0,1
101585,-100,4,1,1,90,0,1
102933,-100,4,1,0,90,0,1
103439,-100,4,1,1,90,0,1
103776,-100,4,1,0,90,0,1
104282,-100,4,1,1,90,0,1
105124,-100,4,1,0,90,0,1
105461,-100,4,1,1,90,0,1
105967,-100,4,1,0,90,0,1
109001,-100,4,1,1,90,0,1
109675,-100,4,1,0,90,0,1
110349,-100,4,1,1,90,0,1
113720,-100,4,1,1,80,0,0
124506,-100,4,1,2,80,0,0
132596,-100,4,1,0,80,0,0
135293,-100,4,1,2,80,0,0
143383,-100,4,1,0,80,0,0
146417,-100,4,2,2,90,0,0
147091,-100,4,2,1,90,0,0
162259,-100,4,1,0,80,0,0
162933,-100,4,1,2,80,0,0
163608,-100,4,1,0,80,0,0
164282,-100,4,1,2,80,0,0
164956,-100,4,1,0,80,0,0
165630,-100,4,1,2,80,0,0
166304,-100,4,1,0,80,0,0
166978,-100,4,1,2,80,0,0
167653,-100,4,1,0,90,0,1
168327,-100,4,1,1,90,0,1
169001,-100,4,1,0,90,0,1
169675,-100,4,1,1,90,0,1
170349,-100,4,1,0,90,0,1
171023,-100,4,1,1,90,0,1
172540,-100,4,1,0,90,0,1
173551,-100,4,1,1,90,0,1
174563,-100,4,1,0,90,0,1
174900,-100,4,1,1,90,0,1
175237,-100,4,1,0,90,0,1
175574,-100,4,1,1,90,0,1
177091,-100,4,1,0,90,0,1
178270,-100,4,1,0,90,0,0
178439,-100,4,1,1,90,0,1
179787,-100,4,1,0,90,0,1
180461,-100,4,1,1,90,0,1
181136,-100,4,1,0,90,0,1
181810,-100,4,1,1,90,0,1
182484,-100,4,1,0,90,0,1
182990,-100,4,1,1,90,0,1
183327,-100,4,1,0,90,0,1
184506,-100,4,1,1,90,0,1
185181,-100,4,1,0,90,0,1
185855,-100,4,1,1,90,0,1
186529,-100,4,1,0,90,0,1
189900,-100,4,1,1,90,0,1
190574,-100,4,1,0,90,0,1
191248,-100,4,1,1,90,0,1
194619,-100,4,1,1,80,0,0
205405,-100,4,1,2,80,0,0
218888,-100,4,2,2,80,0,0
221585,-100,4,1,0,90,0,1
222259,-100,4,1,1,90,0,1
222933,-100,4,1,0,90,0,1
223608,-100,4,1,1,90,0,1
224282,-100,4,1,0,90,0,1
224956,-100,4,1,1,90,0,1
225630,-100,4,1,0,90,0,1
226304,-100,4,1,1,90,0,1
228327,-100,4,1,0,90,0,1
229506,-100,4,1,0,90,0,0
229675,-100,4,1,0,90,0,1
230349,-100,4,1,1,90,0,1
231023,-100,4,1,0,90,0,1
231697,-100,4,1,1,90,0,1
232372,-100,4,1,0,90,0,1
233046,-100,4,1,1,90,0,1
233720,-100,4,1,0,90,0,1
234394,-100,4,1,1,90,0,1
235068,-100,4,1,0,90,0,1
235742,-100,4,1,1,90,0,1
236417,-100,4,1,0,90,0,1
237091,-100,4,1,1,90,0,1
237765,-100,4,1,0,90,0,1
240461,-100,4,1,1,90,0,1
241810,-100,4,1,0,90,0,1
242484,-100,4,1,1,90,0,1
245855,-100,4,1,2,80,0,0
248551,-100,4,1,0,80,0,0
249226,-100,4,1,2,80,0,0
249900,-100,4,1,0,80,0,0
250574,-100,4,1,2,80,0,0
251248,-100,4,1,0,80,0,0
251922,-100,4,1,2,80,0,0
252596,-100,4,1,0,80,0,0
253270,-100,4,1,2,80,0,0
253945,-100,4,1,0,80,0,0
256641,-100,4,1,2,65,0,0
256978,-100,4,1,2,50,0,0
257315,-100,4,1,2,35,0,0
257653,-100,4,1,2,20,0,0
257990,-100,4,2,1,5,0,0

[Colours]
Combo1 : 84,84,84
Combo2 : 255,128,64
Combo3 : 170,170,255
Combo4 : 255,255,208

[HitObjects]
120,48,462,6,0,B|115:114|175:145,1,120,4|0
336,145,1810,2,0,B|396:114|392:48,1,120
312,48,2821,1,0
256,104,3158,6,0,B|256:240,1,120,4|0
412,248,4506,2,0,B|398:313|332:327,1,120
256,304,5518,1,0
179,327,5855,6,0,B|113:313|100:248,1,120,0|2
208,136,7203,2,0,B|273:150|287:215,1,120,0|2
236,276,8214,1,4
300,324,8551,6,0,B|367:327|397:268,1,120,4|0
397,115,9900,2,0,B|367:56|300:60,1,120,4|0
144,60,11248,5,4
60,192,11922,1,8
144,324,12596,1,0
300,324,13270,2,0,B|365:309|379:244,2,120,8|4|8
256,172,15293,5,0
304,24,15967,2,0,B|376:24|376:24|420:64,2,120,8|4|8
152,56,17990,6,0,B|80:56|80:56|36:96,2,120,0|8|4
256,168,20012,1,8
200,312,20686,1,4
200,312,21023,2,0,B|256:348|312:312,1,120
380,272,22035,6,0,B|380:144,1,120,4|8
256,56,23383,2,0,B|256:184,1,120,0|8
132,272,24731,6,0,B|132:144,1,120,4|8
236,32,26079,2,0,B|297:62|293:128,1,120,0|8
356,176,27091,1,0
432,200,27428,6,0,B|428:266|488:296,1,120,4|8
336,268,28776,2,0,B|290:218|227:238,2,120,4|8|4
256,192,30293,12,4,32821
200,112,43608,6,0,B|256:76|312:112,1,120
312,272,44956,2,0,B|255:308|199:272,1,120
184,192,45967,1,8
264,192,46304,6,0,B|384:192,1,120
284,68,47653,2,0,B|220:47|175:96,1,120
144,168,48664,1,8
144,248,49001,6,0,B|144:312|144:312|180:356,1,120
332,356,50349,2,0,B|368:312|368:312|368:248,1,120
368,172,51360,1,8
312,120,51697,6,0,B|256:84|200:120,1,120,4|0
156,184,52709,1,4
156,260,53046,1,0
200,324,53383,2,0,B|256:360|312:324,1,120,0|4
372,276,54394,6,0,B|405:274|420:304,2,60,0|8|0
372,120,55742,2,0,B|405:121|420:92,2,60,0|8|0
336,188,56754,1,8
260,188,57091,6,0,B|204:152|148:188,1,120
96,336,58439,2,0,B|152:372|208:336,1,120
256,272,59450,1,8
256,196,59787,6,0,B|256:72,1,120
404,28,61136,2,0,B|404:60|404:60|436:92|436:92|436:136,1,120
436,212,62147,1,8
436,288,62484,5,4
300,360,63158,1,4
164,288,63832,1,4
300,216,64506,2,0,B|269:156|203:160,1,120,4|4
124,160,65518,6,0,B|0:160,2,120,0|0|0
164,92,67203,2,0,B|248:92,1,60,8|0
272,156,67877,6,0,B|339:159|369:100,2,120,0|8|0
256,312,69900,2,0,B|340:312,1,60,8|0
392,312,70574,6,0,B|441:267|420:203,1,120,0|8
292,112,71922,2,0,B|243:157|264:221,1,120,0|8
192,360,73270,6,0,B|127:345|113:279,1,120,4|0
112,200,74282,1,4
188,180,74619,2,0,B|252:194|266:260,2,120,0|4|4
140,120,76304,6,0,B|140:36,2,60,0|8|0
64,140,77315,2,0,B|60:206|119:236,1,120,0|8
188,276,78327,1,0
264,260,78664,6,0,B|244:197|293:153,2,120,0|8|0
416,308,80686,2,0,B|446:292|444:259,1,60,8|0
436,180,81360,6,0,B|472:152,2,30,4|0|0
364,212,82035,2,0,B|330:213|315:183,1,60,8|0
300,108,82709,2,0,B|266:106|251:136,1,60,4|0
180,100,83383,1,8
180,100,83720,1,0
180,180,84057,6,0,B|159:243|208:288,2,120,4|8|0
268,48,86079,1,4
336,192,86754,5,4
336,192,87091,2,0,B|412:192,2,60,0|8|0
336,116,88102,2,0,B|291:66|227:87,1,120,0|8
76,120,89450,6,0,B|44:130|21:105,2,60,4|0|8
176,240,90799,1,0
336,240,91473,1,8
436,120,92147,6,0,B|467:130|490:105,2,60,4|0|8
304,40,93495,2,0,B|256:104|208:40,2,120,0|8|0
256,192,95518,1,8
208,344,96192,2,0,B|256:280|304:344,2,120,4|0|4
76,260,98214,6,0,B|72:193|131:163,1,120,8|0
256,260,99563,1,8
379,162,100237,2,0,B|439:193|436:260,2,120,4|8|0
256,68,102259,1,8
160,192,102933,6,0,B|100:192|100:192|56:140,2,120,4|8|0
316,192,104956,2,0,B|376:192|376:192|420:244,1,120,8|4
464,300,105967,1,0
400,344,106304,6,0,B|344:380|288:344,1,120,0|0
212,324,107315,1,0
228,248,107653,2,0,B|242:182|307:168,2,120,4|4|8
100,336,109675,2,0,B|51:292|71:228,1,120,4|8
256,192,111023,12,4,113720
152,76,124506,6,0,B|216:76|216:76|256:116,1,120
256,268,125855,2,0,B|216:308|216:308|152:308,1,120
72,308,126866,1,8
108,236,127203,6,0,B|122:170|187:156,1,120
288,36,128551,2,0,B|347:66|344:133,1,120
332,212,129563,1,8
400,252,129900,6,0,B|431:262|454:237,2,60,0|8|0
268,336,131248,2,0,B|251:365|218:363,2,60,0|8|0
216,276,132259,1,8
292,256,132596,6,0,B|295:189|235:158,1,120,4|0
160,132,133608,2,0,B|190:72|256:76,1,120,4|0
336,76,134619,2,0,B|416:76,1,60,0|4
464,116,135293,6,0,B|500:172|464:228,1,120
348,336,136641,2,0,B|384:280|348:224,1,120
276,192,137653,1,8
200,192,137990,6,0,B|120:192,2,60,0|8|0
336,112,139338,2,0,B|416:112,2,60,0|8|0
256,112,140349,1,8
176,112,140686,6,0,B|109:115|79:56,1,120
0,192,142035,2,0,B|66:188|96:248,1,120
124,320,143046,1,8
200,320,143383,6,0,B|336:320,1,120,4|0
368,256,144394,1,4
320,192,144731,2,0,B|184:192,1,120,0|4
152,128,145742,1,0
200,64,146079,1,4
272,96,146417,6,0,B|338:99|368:40,2,120
256,176,148102,1,8
256,328,148776,5,0
256,176,149450,1,8
160,296,150124,2,0,B|144:325|111:324,2,60,0|0|8
40,192,151473,6,0,B|40:64,1,120,0|8
192,24,152821,2,0,B|192:152,1,120,0|8
192,224,153832,1,0
256,272,154169,6,0,B|256:344,2,60,4|0|0
320,224,155181,2,0,B|320:152,2,60,4|0|0
384,272,156192,2,0,B|384:344,2,60,4|4|4
480,152,157540,5,8
480,152,157877,1,0
480,152,158214,2,0,B|500:88|451:43,1,120,0|8
328,144,159563,6,0,B|331:210|272:240,1,120,0|8
160,136,160911,2,0,B|96:115|51:164,1,120,0|8
24,240,161922,1,0
72,304,162259,6,0,B|135:324|180:275,1,120,4|8
320,344,163608,2,0,B|350:284|416:288,1,120,4|8
496,312,164619,1,0
496,232,164956,6,0,B|496:112,1,120,4|8
368,208,166304,2,0,B|368:272|368:272|328:328,1,120,0|8
176,320,167653,6,0,B|143:274|143:274|143:210,1,120,4|8
16,112,169001,2,0,B|16:232,1,120,0|8
16,312,170012,1,0
72,368,170349,6,0,B|128:332|184:368,1,120,4|8
256,232,171697,1,0
327,368,172372,2,0,B|384:332|440:368,2,120,8|4|8
256,232,174394,6,0,B|196:201|199:134,2,120,0|8|4
344,104,176417,1,8
432,232,177091,2,0,B|491:201|488:134,2,120,4|0|4
344,360,179113,5,8
272,224,179787,2,0,B|216:188|160:224,1,120,0|8
104,280,180799,1,0
84,204,181136,6,0,B|63:140|112:95,1,120,4|8
264,56,182484,2,0,B|284:119|235:164,2,120,0|8|4
112,96,184506,1,8
120,252,185181,6,0,B|176:356,1,120,0|8
335,357,186529,2,0,B|392:252,1,120,4|0
444,104,187877,6,0,B|380:83|335:132,1,120,0|4
176,133,189226,2,0,B|131:83|68:104,1,120,4|8
32,256,190574,2,0,B|77:305|140:285,1,120,0|8
256,192,191922,12,4,194619
200,72,205405,6,0,B|72:72,2,120
256,216,207428,1,0
312,72,208102,6,0,B|440:72,2,120
256,216,210124,1,0
104,176,210799,6,0,B|44:206|48:272,2,120
256,216,212821,1,0
408,176,213495,6,0,B|467:206|464:272,2,120
256,216,215518,1,0
184,80,216192,5,4
256,216,216866,1,0
328,80,217540,1,4
256,216,218214,1,4
256,372,218888,5,0
400,312,219563,1,2
332,172,220237,1,0
480,128,220911,1,2
336,72,221585,6,0,B|269:68|239:128,1,120,4|8
84,156,222933,2,0,B|150:152|180:212,1,120,0|8
216,284,223945,1,0
256,352,224282,6,0,B|320:352|320:352|344:296,1,120,4|8
392,152,225630,2,0,B|369:203|369:203|305:203,1,120,0|8
228,204,226641,6,0,B|156:204,2,60,0|4|0
256,48,227990,1,0
256,48,228327,2,0,B|136:48,1,120,4|0
8,144,229675,6,0,B|72:144|72:144|112:192,1,120,4|8
208,304,231023,2,0,B|272:304|272:304|312:256,1,120,0|8
276,188,232035,1,0
308,116,232372,6,0,B|364:80|420:116,1,120,4|8
512,256,233720,2,0,B|456:292|400:256,1,120,0|8
332,212,234731,1,0
312,136,235068,6,0,B|256:100|200:136,1,120,4|8
96,252,236417,2,0,B|152:288|208:252,1,120,0|8
256,312,237428,1,0
303,251,237765,6,0,B|360:288|416:252,2,120,4|0|0
332,180,239450,1,0
360,108,239787,2,0,B|321:52|255:64,1,120,0|4
256,208,241136,5,8
152,108,241810,2,0,B|190:52|256:64,1,120,0|8
256,192,243158,12,4,245855
256,120,247203,6,0,B|256:48,2,60,0|0|8
256,196,248214,1,0
216,264,248551,6,0,B|192:336|192:336|128:336,1,120,4|8
88,192,249900,2,0,B|64:120|64:120|0:120,1,120,4|8
16,40,250911,1,0
96,40,251248,6,0,B|161:54|175:119,1,120,4|8
336,119,252596,2,0,B|350:54|416:40,1,120,0|8
472,96,253608,1,0
412,148,253945,6,0,B|412:276,1,120,4|0
256,284,255293,2,0,B|256:164,1,120,0|4
256,192,256136,12,0,258158
