osu file format v12

[General]
AudioFilename: FISSION.mp3
AudioLeadIn: 1500
PreviewTime: 67289
Countdown: 0
SampleSet: Soft
StackLeniency: 0.7
Mode: 0
LetterboxInBreaks: 1
WidescreenStoryboard: 0

[Editor]
Bookmarks: 179,102491,198214,228387
DistanceSpacing: 0.8
BeatDivisor: 4
GridSize: 4
TimelineZoom: 2

[Metadata]
Title:FISSION
TitleUnicode:FISSION
Artist:Okui Masami
ArtistUnicode:奥井雅美
Creator:-Asagi
Version:Insane
Source:グリザイアの楽園 -LE EDEN DE LA GRISAIA-
Tags:kazami kazuki frontwing opening eroge visual novel grisaia no rakuen el solarbeam happy623
BeatmapID:338797
BeatmapSetID:135182

[Difficulty]
HPDrainRate:7
CircleSize:4
OverallDifficulty:8
ApproachRate:9
SliderMultiplier:1.93
SliderTickRate:2

[Events]
//Background and Video events
0,0,"Kazami Kazuki 1.png",0,0
//Break Periods
2,91597,101895
2,198418,203167
//Storyboard Layer 0 (Background)
//Storyboard Layer 1 (Fail)
//Storyboard Layer 2 (Pass)
//Storyboard Layer 3 (Foreground)
//Storyboard Sound Samples
//Background Colour Transformations
3,100,163,162,255

[TimingPoints]
-163,346.820809248555,4,2,1,60,1,0
877,-133.333333333333,4,2,4,30,0,0
7813,-133.333333333333,4,2,2,40,0,0
7900,-133.333333333333,4,2,1,40,0,0
8160,-142.857142857143,4,2,4,40,0,0
8507,-125,4,2,4,50,0,0
8854,-111.111111111111,4,2,4,60,0,0
9201,-100,4,2,4,80,0,0
9547,-100,4,2,1,80,0,0
10935,-100,4,2,1,80,0,0
17524,-100,4,2,2,70,0,0
17611,-100,4,2,1,80,0,0
20646,-100,4,2,1,60,0,0
22033,-100,4,2,3,50,0,0
22120,-100,4,2,1,60,0,0
30010,-100,4,2,3,50,0,0
30097,-100,4,2,1,60,0,0
31744,-100,4,2,1,80,0,0
33131,-100,4,2,3,70,0,0
33218,-100,4,2,1,80,0,0
35212,-100,4,2,3,70,0,0
35299,-100,4,2,1,80,0,0
35906,-100,4,2,3,70,0,0
35993,-100,4,2,1,80,0,0
38334,-100,4,2,2,70,0,0
38420,-100,4,2,1,80,0,0
39374,-100,4,2,3,70,0,0
39461,-100,4,2,1,80,0,0
41455,-100,4,2,3,70,0,0
41542,-100,4,2,1,80,0,0
44230,-100,4,2,3,70,0,0
44316,-100,4,2,1,80,0,0
47004,-100,4,2,3,70,0,0
47091,-100,4,2,1,80,0,0
48912,-100,4,2,3,70,0,0
48998,-100,4,2,1,80,0,0
49779,-100,4,2,3,70,0,0
49865,-100,4,2,1,80,0,0
50299,-100,4,2,3,70,0,0
50386,-100,4,2,1,80,0,0
50819,-100,4,2,2,70,0,0
50906,-100,4,2,1,80,0,0
52553,-100,4,2,3,70,0,0
52640,-100,4,2,1,80,0,0
56021,-100,4,2,2,70,0,0
56108,-100,4,2,1,80,0,0
63652,-100,4,2,3,70,0,0
63738,-100,4,2,1,80,0,0
65386,-100,4,2,2,70,0,0
65472,-100,4,2,1,80,0,0
67467,-100,4,2,2,100,0,0
67553,-100,4,2,1,80,0,0
69027,-100,4,2,1,80,0,1
70068,-100,4,2,3,70,0,1
70154,-100,4,2,1,80,0,1
73363,-100,4,2,3,70,0,1
73449,-100,4,2,1,80,0,1
75443,-100,4,2,3,70,0,1
75530,-100,4,2,1,80,0,1
78565,-100,4,2,2,100,0,1
78652,-76.9230769230769,4,2,1,80,0,1
79432,-100,4,2,1,80,0,1
80039,-100,4,2,1,80,0,0
80126,-76.9230769230769,4,2,1,80,0,1
80646,-100,4,2,1,80,0,1
84114,-100,4,2,2,70,0,1
84201,-100,4,2,1,80,0,1
88623,-100,4,2,3,70,0,1
88709,-100,4,2,1,80,0,1
91397,-100,4,2,1,80,0,0
102495,-133.333333333333,4,2,4,40,0,0
112380,-90.9090909090909,4,2,1,80,0,0
113073,-100,4,2,1,80,0,0
114981,-100,4,2,3,70,0,0
115068,-100,4,2,1,80,0,0
117062,-100,4,2,3,70,0,0
117149,-100,4,2,1,80,0,0
117756,-100,4,2,3,70,0,0
117842,-100,4,2,1,80,0,0
120183,-100,4,2,2,70,0,0
120270,-100,4,2,1,80,0,0
121224,-100,4,2,3,70,0,0
121310,-100,4,2,1,80,0,0
123305,-100,4,2,3,70,0,0
123391,-100,4,2,1,80,0,0
126079,-100,4,2,3,70,0,0
126166,-100,4,2,1,80,0,0
128854,-100,4,2,3,70,0,0
128941,-100,4,2,1,80,0,0
130761,-100,4,2,3,70,0,0
130848,-100,4,2,1,80,0,0
131628,-100,4,2,3,70,0,0
131715,-100,4,2,1,80,0,0
132149,-100,4,2,3,70,0,0
132235,-100,4,2,1,80,0,0
132669,-100,4,2,2,70,0,0
132756,-100,4,2,1,80,0,0
134403,-100,4,2,3,70,0,0
134490,-100,4,2,1,80,0,0
137871,-100,4,2,2,70,0,0
137958,-100,4,2,1,80,0,0
145501,-100,4,2,3,70,0,0
145588,-100,4,2,1,80,0,0
147235,-100,4,2,2,70,0,0
147322,-100,4,2,1,80,0,0
149316,-100,4,2,2,100,0,0
149403,-100,4,2,1,80,0,0
150877,-100,4,2,1,80,0,1
151917,-100,4,2,3,70,0,1
152004,-100,4,2,1,80,0,1
155212,-100,4,2,3,70,0,1
155299,-100,4,2,1,80,0,1
157293,-100,4,2,3,70,0,1
157380,-100,4,2,1,80,0,1
160415,-100,4,2,2,100,0,1
160501,-76.9230769230769,4,2,1,80,0,1
161282,-100,4,2,1,80,0,1
161889,-100,4,2,1,80,0,0
161975,-76.9230769230769,4,2,1,80,0,1
162495,-100,4,2,1,80,0,1
172553,-100,4,2,2,70,0,1
172640,-100,4,2,1,80,0,1
173247,-100,4,2,1,80,0,0
174461,-100,4,2,2,100,0,0
174547,-100,4,2,1,80,0,0
174634,-100,4,2,3,70,0,0
174721,-100,4,2,1,80,0,0
175328,-100,4,2,3,70,0,0
175415,-100,4,2,1,80,0,0
178796,-100,4,2,3,70,0,0
178883,-100,4,2,1,80,0,0
185212,-100,4,2,2,100,0,0
185299,-100,4,2,1,80,0,0
186773,-100,4,2,2,70,0,0
186860,-76.9230769230769,4,2,1,80,0,0
187120,-76.9230769230769,4,2,2,70,0,0
187206,-76.9230769230769,4,2,1,80,0,0
188160,-100,4,2,2,70,0,0
188247,-100,4,2,1,80,0,0
191975,-100,4,2,2,70,0,0
192062,-100,4,2,1,80,0,0
192322,-100,4,2,3,70,0,0
192409,-100,4,2,1,80,0,0
203767,-133.333333333333,4,2,4,40,0,0
207582,-100,4,2,2,100,0,0
207669,-76.9230769230769,4,2,1,90,0,0
208449,-125,4,2,1,80,0,0
209143,-66.6666666666667,4,2,1,80,0,1
209663,-83.3333333333333,4,2,1,80,0,1
213131,-83.3333333333333,4,2,2,70,0,1
213218,-83.3333333333333,4,2,1,80,0,1
217640,-83.3333333333333,4,2,3,70,0,1
217727,-83.3333333333333,4,2,1,80,0,1
218507,-83.3333333333333,4,2,2,100,0,1
218594,-83.3333333333333,4,2,1,80,0,1
220588,-83.3333333333333,4,2,1,80,0,0
223189,-83.3333333333333,4,2,3,70,0,0
223276,-83.3333333333333,4,2,1,80,0,0
225443,-83.3333333333333,4,2,2,100,0,0
225530,-83.3333333333333,4,2,1,80,0,0
225617,-83.3333333333333,4,2,2,70,0,0
225704,-83.3333333333333,4,2,1,80,0,0
228391,-83.3333333333333,4,2,1,5,0,0

[Colours]
Combo1 : 98,176,255
Combo2 : 214,89,255
Combo3 : 113,113,255

[HitObjects]
171,168,877,6,0,P|163:202|171:237,1,72.3750027608873,2|0,0:0|0:0,0:0:0:0:
340,236,1224,1,2,0:0:0:0:
340,236,1397,2,0,P|348:202|339:167,1,72.3750027608873,2|0,0:0|0:0,0:0:0:0:
256,32,1744,2,0,L|256:120,1,72.3750027608873,2|0,0:0|0:0,0:0:0:0:
256,192,2091,1,2,0:0:0:0:
188,244,2264,2,0,P|148:242|100:212,1,72.3750027608873,0|0,0:0|0:0,0:0:0:0:
92,144,2611,1,2,0:0:0:0:
368,148,2958,6,0,B|423:145|443:89|443:89|443:46,1,144.750005521775,2|0,0:0|0:0,0:0:0:0:
186,88,3652,1,2,0:0:0:0:
186,88,3825,2,0,B|186:132|186:132|206:188|260:191,1,144.750005521775,2|0,0:0|0:0,0:0:0:0:
368,148,4345,1,2,0:0:0:0:
471,200,4519,2,0,P|449:227|417:245,1,72.3750027608873,2|0,0:0|0:0,0:0:0:0:
368,148,4865,1,2,0:0:0:0:
319,323,5039,2,0,P|247:328|182:298,1,144.750005521775,2|0,0:0|0:0,0:0:0:0:
143,147,5559,6,0,P|136:112|141:77,1,72.3750027608873,2|0,0:0|0:0,0:0:0:0:
216,32,5906,1,2,0:0:0:0:
180,224,6079,2,0,P|145:230|110:223,1,72.3750027608873,2|0,0:0|0:0,0:0:0:0:
56,152,6426,1,2,0:0:0:0:
232,116,6600,6,0,P|282:166|294:236,1,144.750005521775,2|2,0:0|0:0,0:0:0:0:
180,224,7120,1,0,0:0:0:0:
128,92,7293,2,0,P|170:34|238:12,1,144.750005521775,2|0,0:0|0:0,0:0:0:0:
448,64,7813,1,4,0:0:0:0:
448,64,8160,6,0,L|412:140,1,67.5499979385377,2|0,0:0|0:0,0:0:0:0:
312,80,8507,6,0,L|324:168,1,77.2,2|0,0:0|0:0,0:0:0:0:
204,164,8854,6,0,L|272:248,1,86.8499973495484,2|0,0:0|0:0,0:0:0:0:
160,292,9201,6,0,L|256:336,1,96.5,2|0,0:0|0:0,0:0:0:0:
256,168,9547,5,8,0:0:0:0:
256,176,10068,1,8,0:0:0:0:
256,184,10588,5,0,0:0:0:0:
288,200,10675,1,0,0:0:0:0:
324,204,10761,1,0,0:0:0:0:
360,196,10848,1,0,0:0:0:0:
392,176,10935,6,0,P|424:141|434:95,2,96.5,4|0|0,0:0|0:0|0:0,0:0:0:0:
182,294,11455,2,0,P|139:210|152:116,1,193,2|0,0:0|0:0,0:0:0:0:
148,112,11889,1,0,0:0:0:0:
144,108,11975,2,0,P|104:68|88:20,1,96.5,8|0,0:0|0:0,0:0:0:0:
240,32,12322,6,0,P|274:64|293:108,2,96.5,2|0|0,0:0|0:0|0:0,0:0:0:0:
260,248,12842,2,0,P|306:257|353:244,1,96.5,2|0,0:0|0:0,0:0:0:0:
508,44,13189,1,0,0:0:0:0:
440,152,13363,2,0,P|371:168|302:148,1,144.75,8|0,0:0|0:0,0:0:0:0:
273,120,13709,2,0,P|227:108|181:120,2,96.5,2|0|0,0:0|0:0|0:0,0:0:0:0:
224,200,14230,5,2,0:0:0:0:
220,212,14576,1,8,0:0:0:0:
214,222,14923,6,0,P|124:194|72:116,1,193,6|0,0:0|0:0,0:0:0:0:
72,108,15357,1,0,0:0:0:0:
74,102,15443,1,8,0:0:0:0:
200,36,15617,2,0,P|244:60|284:108,1,96.5,0|2,0:0|0:0,0:0:0:0:
308,220,15964,1,0,0:0:0:0:
188,136,16137,1,8,0:0:0:0:
272,336,16310,6,0,P|364:314|424:241,1,193,0|2,0:0|0:0,0:0:0:0:
452,148,16831,1,8,0:0:0:0:
248,48,17004,1,0,0:0:0:0:
238,48,17351,2,0,B|188:48|188:48|116:96|136:169,1,193,6|0,0:0|0:0,0:0:0:0:
132,276,17871,6,0,P|85:265|49:234,1,96.5,4|0,0:0|0:0,0:0:0:0:
136,169,18218,1,8,0:0:0:0:
136,169,18391,2,0,P|105:134|91:88,1,96.5,4|0,0:0|0:0,0:0:0:0:
196,84,18738,1,8,0:0:0:0:
196,84,18912,2,0,P|227:119|241:165,1,96.5,4|0,0:0|0:0,0:0:0:0:
284,344,19258,5,8,0:0:0:0:
284,344,19345,1,0,0:0:0:0:
284,344,19432,2,0,P|323:317|345:275,1,96.5,6|0,0:0|0:0,0:0:0:0:
206,150,19779,2,0,P|213:197|238:238,1,96.5,6|0,0:0|0:0,0:0:0:0:
414,166,20126,2,0,P|367:154|319:160,1,96.5,6|0,0:0|0:0,0:0:0:0:
238,239,20472,1,0,0:0:0:0:
480,224,20646,6,0,P|490:133|415:80,1,193,6|0,0:0|0:0,0:0:0:0:
388,288,21166,2,0,P|423:320|468:335,1,96.5,2|0,0:0|0:0,0:0:0:0:
480,224,21513,1,0,0:0:0:0:
360,176,21686,1,0,0:0:0:0:
238,240,21860,2,0,P|142:235|62:183,1,193
36,88,22380,5,0,0:0:0:0:
300,144,22727,2,0,P|340:229|324:323,1,193,0|0,0:0|0:0,0:0:0:0:
180,152,23420,1,2,0:0:0:0:
180,152,23594,2,0,P|222:66|305:22,1,193,0|2,0:0|0:0,0:0:0:0:
415,216,24287,6,0,P|396:259|357:286,1,96.5
320,200,24634,1,0,0:0:0:0:
264,280,24808,2,0,P|273:327|304:364,1,96.5,2|0,0:0|0:0,0:0:0:0:
504,223,25154,2,0,P|494:177|464:139,1,96.5,0|2,0:0|0:0,0:0:0:0:
96,276,25675,5,0,0:0:0:0:
36,144,25848,1,0,0:0:0:0:
180,160,26021,1,0,0:0:0:0:
167,332,26195,2,0,P|128:359|81:368,2,96.5,2|0|0,0:0|0:0|0:0,0:0:0:0:
248,279,26715,2,0,P|343:273|434:302,1,193,2|0,0:0|0:0,0:0:0:0:
463,211,27235,2,0,P|416:158|405:88,1,144.75
400,48,27582,6,0,L|320:136,1,96.5,2|0,0:0|0:0,0:0:0:0:
260,184,27929,1,0,0:0:0:0:
175,40,28102,2,0,P|129:123|130:218,1,193,2|0,0:0|0:0,0:0:0:0:
99,312,28623,2,0,P|52:309|7:291,1,96.5
260,184,28969,6,0,L|328:300,1,96.5,2|0,0:0|0:0,0:0:0:0:
248,344,29316,1,0,0:0:0:0:
172,192,29490,2,0,B|172:140|212:100|264:96|264:96|278:49,2,193,2|0|0,0:0|0:0|0:0,0:0:0:0:
248,344,30357,2,0,P|342:326|421:271,1,193,12|0,0:0|0:0,0:0:0:0:
440,176,30877,1,12,0:0:0:0:
352,72,31050,5,0,0:0:0:0:
316,56,31137,1,0,0:0:0:0:
280,48,31224,1,0,0:0:0:0:
240,48,31310,1,0,0:0:0:0:
204,56,31397,2,0,L|168:112,1,48.25,4|0,0:0|0:0,0:0:0:0:
96,80,31571,2,0,L|100:128,1,48.25,0|0,0:0|0:0,0:0:0:0:
12,144,31744,6,0,L|69:221,1,96.5,4|0,0:0|0:0,0:0:0:0:
204,295,32091,2,0,P|210:248|197:202,1,96.5,8|0,0:0|0:0,0:0:0:0:
124,156,32438,1,2,0:0:0:0:
300,260,32611,2,0,P|346:271|392:261,1,96.5,0|8,0:0|0:0,0:0:0:0:
488,82,32958,2,0,P|397:101|351:182,1,193
480,315,33478,6,0,P|488:268|479:221,1,96.5,8|0,0:0|0:0,0:0:0:0:
395,267,33825,2,0,P|381:222|352:184,1,96.5,2|0,0:0|0:0,0:0:0:0:
299,259,34172,2,0,P|260:232|214:217,1,96.5,8|0,0:0|0:0,0:0:0:0:
20,256,34519,6,0,P|68:260|114:248,1,96.5,2|0,0:0|0:0,0:0:0:0:
56,148,34865,1,8,0:0:0:0:
111,354,35039,2,0,P|192:308|214:216,1,193
168,132,35559,1,8,0:0:0:0:
280,56,35732,6,0,P|298:149|359:222,1,193
480,288,36253,1,8,0:0:0:0:
479,87,36426,2,0,P|432:92|390:116,1,96.5,0|2,0:0|0:0,0:0:0:0:
480,288,36773,1,0,0:0:0:0:
311,179,36946,2,0,P|296:134|300:86,1,96.5,8|0,0:0|0:0,0:0:0:0:
216,39,37293,6,0,P|183:129|107:188,1,193,6|8,0:0|0:0,0:0:0:0:
16,71,37813,2,0,P|63:67|108:84,1,96.5,0|2,0:0|0:0,0:0:0:0:
236,212,38160,2,0,P|162:272|71:302,1,193
0,216,38680,5,2,0:0:0:0:
116,132,38854,1,0,0:0:0:0:
236,212,39027,1,8,0:0:0:0:
358,304,39201,2,0,B|400:320|400:320|472:284|458:195,1,193
375,148,39721,2,0,P|305:140|251:93,1,144.75,8|0,0:0|0:0,0:0:0:0:
212,69,40068,6,0,L|236:212,1,144.75,6|0,0:0|0:0,0:0:0:0:
236,212,40415,1,8,0:0:0:0:
112,328,40588,2,0,L|90:234,1,96.5,4|2,0:0|0:0,0:0:0:0:
72,120,40935,1,0,0:0:0:0:
0,264,41108,1,8,0:0:0:0:
216,308,41282,6,0,P|303:274|324:184,1,193,4|0,0:0|0:0,0:0:0:0:
264,112,41802,1,0,0:0:0:0:
176,147,41975,2,0,P|150:188|113:218,2,96.5,2|0|0,0:0|0:0|0:0,0:0:0:0:
168,52,42495,1,4,0:0:0:0:
72,120,42669,1,2,0:0:0:0:
72,120,42756,1,8,0:0:0:0:
72,120,42842,1,2,0:0:0:0:
152,288,43016,6,0,P|194:309|242:309,1,96.5
328,296,43363,1,2,0:0:0:0:
400,60,43536,2,0,P|423:152|398:244,1,193,0|8,0:0|0:0,0:0:0:0:
111,323,44056,2,0,P|88:231|113:139,1,193
275,232,44576,6,0,P|228:240|180:234,1,96.5,0|2,0:0|0:0,0:0:0:0:
352,144,44923,2,0,P|381:182|397:227,1,96.5
232,119,45270,2,0,P|254:77|287:42,1,96.5,8|0,0:0|0:0,0:0:0:0:
384,24,45617,5,2,0:0:0:0:
275,232,45790,2,0,P|204:226|142:191,1,144.75
116,160,46137,2,0,L|64:244,2,96.5,2|0|0,0:0|0:0|0:0,0:0:0:0:
168,72,46657,1,8,0:0:0:0:
224,307,46831,6,0,P|317:327|412:313,1,193,0|0,0:0|0:0,0:0:0:0:
387,132,47351,2,0,P|375:178|384:225,1,96.5,0|2,0:0|0:0,0:0:0:0:
339,24,47698,2,0,P|302:53|276:94,1,96.5,0|2,0:0|0:0,0:0:0:0:
143,175,48045,2,0,P|101:153|68:119,1,96.5,8|0,0:0|0:0,0:0:0:0:
256,40,48391,5,4,0:0:0:0:
256,40,48738,2,0,P|307:119|394:158,2,193,0|0|8,0:0|0:0|0:0,0:0:0:0:
488,64,49605,2,0,P|500:168|476:268,1,193,2|0,0:0|0:0,0:0:0:0:
384,304,50126,2,0,P|290:290|203:329,1,193
32,240,50646,2,0,P|125:222|199:162,1,193
160,48,51166,5,6,0:0:0:0:
12,104,51339,2,0,P|51:131|97:145,1,96.5
260,56,51686,1,2,0:0:0:0:
472,192,52033,1,0,0:0:0:0:
259,328,52380,6,0,P|168:356|72:352,1,193,2|8,0:0|0:0,0:0:0:0:
199,236,52900,2,0,P|244:217|292:211,1,96.5,0|2,0:0|0:0,0:0:0:0:
126,140,53247,2,0,P|80:151|32:149,1,96.5,8|0,0:0|0:0,0:0:0:0:
227,63,53594,2,0,P|272:44|320:40,1,96.5,0|0,0:0|0:0,0:0:0:0:
408,80,53941,5,6,0:0:0:0:
472,152,54114,1,0,0:0:0:0:
508,64,54287,1,0,0:0:0:0:
377,170,54461,2,0,P|330:178|283:170,1,96.5,0|8,0:0|0:0,0:0:0:0:
282,169,54981,1,2,0:0:0:0:
52,68,55328,5,2,0:0:0:0:
52,68,55501,2,0,P|96:87|143:91,1,96.5,0|2,0:0|0:0,0:0:0:0:
56,255,55848,2,0,P|143:216|207:145,1,193
344,92,56368,2,0,P|364:135|370:182,1,96.5
373,352,56715,6,0,P|328:268|247:215,1,193,2|0,0:0|0:0,0:0:0:0:
56,256,57235,2,0,P|102:266|150:259,1,96.5,2|8,0:0|0:0,0:0:0:0:
248,216,57582,1,0,0:0:0:0:
56,128,57756,1,0,0:0:0:0:
248,216,57929,2,0,P|344:217|437:192,1,193,2|8,0:0|0:0,0:0:0:0:
496,116,58449,1,2,0:0:0:0:
496,116,58796,1,8,0:0:0:0:
204,304,59143,1,2,0:0:0:0:
204,304,59490,6,0,P|167:216|161:120,1,193,4|0,0:0|0:0,0:0:0:0:
308,80,60010,2,0,P|344:168|350:264,1,193,2|0,0:0|0:0,0:0:0:0:
204,304,60530,1,8,0:0:0:0:
203,304,60877,6,0,P|108:304|20:265,1,193,4|8,0:0|0:0,0:0:0:0:
308,79,61397,2,0,P|403:78|490:117,1,193,2|0,0:0|0:0,0:0:0:0:
464,312,61917,1,8,0:0:0:0:
463,312,62264,6,0,P|373:344|277:345,1,193,4|8,0:0|0:0,0:0:0:0:
48,71,62784,2,0,P|138:39|234:37,1,193,2|0,0:0|0:0,0:0:0:0:
360,152,63305,1,8,0:0:0:0:
359,152,63478,6,0,P|339:245|361:338,1,193,0|0,0:0|0:0,0:0:0:0:
152,232,63998,1,8,0:0:0:0:
152,231,64172,2,0,P|171:138|150:44,1,193,2|2,0:0|0:0,0:0:0:0:
68,248,64692,6,0,P|131:313|218:284,1,193,8|0,0:0|0:0,0:0:0:0:
443,135,65212,2,0,P|380:70|293:99,1,193,2|2,0:0|0:0,0:0:0:0:
344,291,65732,2,0,P|375:256|396:212,1,96.5,0|2,0:0|0:0,0:0:0:0:
167,92,66079,2,0,P|136:127|115:171,1,96.5,8|0,0:0|0:0,0:0:0:0:
124,316,66426,5,6,0:0:0:0:
388,68,66600,1,0,0:0:0:0:
388,68,66946,2,0,P|423:157|416:252,1,193,4|0,0:0|0:0,0:0:0:0:
352,328,67467,1,4,0:0:0:0:
256,336,67640,1,0,0:0:0:0:
256,336,67727,1,0,0:0:0:0:
255,336,67813,6,0,P|208:341|161:330,1,96.5,4|0,0:0|0:0,0:0:0:0:
256,47,68334,2,0,P|303:41|350:52,1,96.5
412,128,68680,1,0,0:0:0:0:
256,336,68854,1,0,0:0:0:0:
100,127,69027,6,0,P|161:56|255:47,1,193,4|2,0:0|0:0,0:0:0:0:
327,200,69547,2,0,P|259:219|189:201,1,144.75,8|0,0:0|0:0,0:0:0:0:
168,172,69894,2,0,P|187:241|170:310,1,144.75,2|0,0:0|0:0,0:0:0:0:
140,344,70241,1,8,0:0:0:0:
368,323,70415,6,0,P|437:259|466:168,1,193,2|2,0:0|0:0,0:0:0:0:
396,64,70935,1,8,0:0:0:0:
276,132,71108,2,0,P|303:172|343:199,1,96.5,0|2,0:0|0:0,0:0:0:0:
396,64,71455,1,0,0:0:0:0:
171,172,71628,2,0,P|124:176|77:166,2,96.5,8|0|2,0:0|0:0|0:0,0:0:0:0:
240,80,72149,5,0,0:0:0:0:
172,172,72322,1,8,0:0:0:0:
324,96,72495,1,0,0:0:0:0:
260,228,72669,1,2,0:0:0:0:
408,108,72842,1,2,0:0:0:0:
356,272,73016,1,8,0:0:0:0:
492,108,73189,6,0,P|496:203|466:295,1,193,0|2,0:0|0:0,0:0:0:0:
392,360,73709,1,8,0:0:0:0:
356,272,73883,2,0,P|285:211|190:207,1,193,2|2,0:0|0:0,0:0:0:0:
37,233,74403,1,8,0:0:0:0:
36,233,74750,6,0,P|112:176|148:88,1,193,6|8,0:0|0:0,0:0:0:0:
254,235,75270,2,0,P|178:177|148:88,1,193,0|2,0:0|0:0,0:0:0:0:
434,229,75790,1,8,0:0:0:0:
434,229,76137,6,0,P|348:187|304:104,1,193,6|8,0:0|0:0,0:0:0:0:
470,50,76657,2,0,P|398:110|304:104,1,193,2|2,0:0|0:0,0:0:0:0:
91,40,77178,6,0,P|72:133|97:225,1,193,8|4,0:0|0:0,0:0:0:0:
152,304,77698,1,0,0:0:0:0:
256,120,77871,1,8,0:0:0:0:
240,348,78045,2,0,P|344:360|428:320,1,193,2|2,0:0|0:0,0:0:0:0:
488,236,78565,2,0,P|496:188|472:108,1,96.5,4|0,0:0|0:0,0:0:0:0:
376,8,78912,5,4,0:0:0:0:
284,204,79085,2,0,P|180:224|100:184,1,188.174991386033,8|0,0:0|0:0,0:0:0:0:
76,164,79432,6,0,P|59:259|88:350,1,193,8|0,0:0|0:0,0:0:0:0:
424,348,79952,1,8,0:0:0:0:
424,348,80126,6,4,P|456:232|400:108,1,250.89998851471,4|2,0:0|0:0,0:0:0:0:
252,196,80646,6,0,P|299:200|344:184,1,96.5,8|0,0:0|0:0,0:0:0:0:
332,20,80993,2,0,L|290:106,1,96.5
252,196,81339,1,8,0:0:0:0:
192,80,81513,6,0,P|98:98|27:162,1,193,2|2,0:0|0:0,0:0:0:0:
32,260,82033,1,8,0:0:0:0:
108,336,82206,2,0,P|134:296|143:249,1,96.5,0|2,0:0|0:0,0:0:0:0:
32,260,82553,1,2,0:0:0:0:
205,380,82727,2,0,P|244:292|251:196,1,193,8|2,0:0|0:0,0:0:0:0:
240,104,83247,5,0,0:0:0:0:
96,40,83420,1,8,0:0:0:0:
181,159,83594,1,2,0:0:0:0:
20,68,83767,1,0,0:0:0:0:
128,220,83941,2,0,P|195:238|253:199,1,144.75,2|0,0:0|0:0,0:0:0:0:
268,164,84287,6,0,P|251:258|299:339,1,193,4|0,0:0|0:0,0:0:0:0:
412,304,84808,1,8,0:0:0:0:
476,224,84981,2,0,P|432:204|384:206,1,96.5,6|0,0:0|0:0,0:0:0:0:
412,304,85328,1,0,0:0:0:0:
268,164,85501,2,0,P|271:117|291:73,1,96.5,12|0,0:0|0:0,0:0:0:0:
432,32,85848,5,12,0:0:0:0:
432,32,86021,2,0,P|426:78|396:144,1,96.5,2|0,0:0|0:0,0:0:0:0:
104,124,86542,1,0,0:0:0:0:
104,124,86715,2,0,P|86:79|80:24,1,96.5,12|0,0:0|0:0,0:0:0:0:
220,152,87062,6,0,P|148:232|40:228,1,193,12|2,0:0|0:0,0:0:0:0:
164,343,87582,2,0,P|256:320|347:346,1,193,8|2,0:0|0:0,0:0:0:0:
436,308,88102,1,2,0:0:0:0:
480,220,88276,1,8,0:0:0:0:
416,148,88449,6,0,P|326:119|268:44,1,193
256,192,88969,1,8,0:0:0:0:
256,192,89056,12,6,91397,0:0:0:0:
152,152,102495,5,6,0:0:0:0:
88,212,102669,1,0,0:0:0:0:
68,124,102842,1,0,0:0:0:0:
172,236,103016,2,0,P|207:243|243:241,1,72.3750027608873,2|0,0:0|0:0,0:0:0:0:
372,188,103363,1,0,0:0:0:0:
292,144,103536,1,2,0:0:0:0:
336,272,103709,2,0,P|284:321|214:336,1,144.750005521775,2|0,0:0|0:0,0:0:0:0:
136,332,104230,5,2,0:0:0:0:
40,216,104576,2,0,P|36:145|54:75,1,144.750005521775
176,160,105270,1,2,0:0:0:0:
176,160,105443,2,0,P|203:93|254:42,1,144.750005521775,0|2,0:0|0:0,0:0:0:0:
420,176,106137,5,0,0:0:0:0:
420,176,106310,2,0,P|402:207|369:229,1,72.3750027608873,2|0,0:0|0:0,0:0:0:0:
412,84,106657,2,0,P|447:87|481:100,1,72.3750027608873,2|0,0:0|0:0,0:0:0:0:
336,140,107004,2,0,P|320:107|316:68,1,72.3750027608873,0|2,0:0|0:0,0:0:0:0:
136,48,107524,5,0,0:0:0:0:
76,112,107698,1,0,0:0:0:0:
76,200,107871,1,0,0:0:0:0:
132,264,108045,2,0,P|122:298|98:325,2,72.3750027608873,2|0|0,0:0|0:0|0:0,0:0:0:0:
204,156,108565,2,0,P|243:215|302:258,1,144.750005521775,2|0,0:0|0:0,0:0:0:0:
380,219,109085,2,0,P|406:172|450:141,1,108.562504141331
480,144,109432,6,0,L|416:76,1,72.3750027608873,2|0,0:0|0:0,0:0:0:0:
344,52,109779,1,0,0:0:0:0:
203,155,109952,2,0,P|147:111|109:50,1,144.750005521775,2|0,0:0|0:0,0:0:0:0:
256,84,110472,2,0,P|279:111|295:143,1,72.3750027608873
295,287,110819,6,0,P|272:260|255:228,1,72.3750027608873,2|0,0:0|0:0,0:0:0:0:
340,208,111166,1,0,0:0:0:0:
195,312,111339,2,0,P|125:300|66:259,1,144.750005521775,2|0,0:0|0:0,0:0:0:0:
28,140,111860,1,0,0:0:0:0:
132,67,112033,2,0,P|168:63|204:56,1,72.3750027608873,0|2,0:0|0:0,0:0:0:0:
204,56,112380,6,0,P|192:116|224:176,1,106.150003239441,4|0,0:0|0:0,0:0:0:0:
400,276,112727,2,0,P|416:189|368:116,1,159.225004859162,4|0,0:0|0:0,0:0:0:0:
304,116,113073,6,0,L|272:160,1,48.25
236,256,113247,2,0,L|196:204,1,48.25,8|0,0:0|0:0,0:0:0:0:
152,136,113420,2,0,L|112:188,1,48.25,0|0,0:0|0:0,0:0:0:0:
79,259,113594,6,0,P|44:227|28:182,1,96.5,4|0,0:0|0:0,0:0:0:0:
204,56,113941,2,0,P|234:93|248:138,1,96.5,8|0,0:0|0:0,0:0:0:0:
152,136,114287,1,2,0:0:0:0:
224,352,114461,2,0,P|271:359|318:352,1,96.5,0|8,0:0|0:0,0:0:0:0:
372,288,114808,2,0,P|315:212|305:112,1,193
463,247,115328,6,0,P|473:295|463:342,1,96.5,8|0,0:0|0:0,0:0:0:0:
359,191,115675,2,0,P|348:144|352:96,1,96.5,2|0,0:0|0:0,0:0:0:0:
273,287,116021,2,0,P|234:314|188:329,1,96.5,8|0,0:0|0:0,0:0:0:0:
4,188,116368,5,2,0:0:0:0:
96,252,116542,2,0,P|144:260|190:244,1,96.5,0|8,0:0|0:0,0:0:0:0:
144,28,116889,2,0,P|90:100|135:179,1,193
244,116,117409,1,8,0:0:0:0:
359,60,117582,6,0,P|362:155|407:239,1,193
468,132,118102,1,8,0:0:0:0:
389,340,118276,2,0,P|437:335|479:312,1,96.5,0|2,0:0|0:0,0:0:0:0:
468,132,118623,1,0,0:0:0:0:
283,235,118796,2,0,P|254:198|240:152,1,96.5,8|0,0:0|0:0,0:0:0:0:
192,23,119143,6,0,P|159:113|83:172,1,193,6|8,0:0|0:0,0:0:0:0:
44,259,119663,2,0,P|91:255|136:272,1,96.5,0|2,0:0|0:0,0:0:0:0:
219,324,120010,2,0,P|314:309|390:251,1,193
432,164,120530,5,2,0:0:0:0:
304,100,120704,1,0,0:0:0:0:
428,24,120877,1,8,0:0:0:0:
319,200,121050,2,0,P|231:169|198:82,1,193
108,156,121571,2,0,P|97:226|55:285,1,144.75,8|0,0:0|0:0,0:0:0:0:
24,321,121917,6,0,P|89:352|160:344,1,144.75,6|0,0:0|0:0,0:0:0:0:
160,344,122264,1,8,0:0:0:0:
320,200,122438,2,0,P|350:237|366:282,1,96.5,4|2,0:0|0:0,0:0:0:0:
300,356,122784,1,0,0:0:0:0:
160,144,122958,1,8,0:0:0:0:
320,200,123131,6,0,P|407:166|433:77,1,193,4|0,0:0|0:0,0:0:0:0:
356,24,123652,1,0,0:0:0:0:
251,144,123825,2,0,P|232:187|235:235,2,96.5,2|0|0,0:0|0:0|0:0,0:0:0:0:
356,24,124345,1,4,0:0:0:0:
320,200,124519,1,2,0:0:0:0:
320,200,124605,1,8,0:0:0:0:
320,200,124692,1,2,0:0:0:0:
268,316,124865,6,0,P|220:315|177:294,1,96.5
128,196,125212,1,2,0:0:0:0:
400,108,125386,2,0,P|423:200|394:290,1,193,0|8,0:0|0:0,0:0:0:0:
117,289,125906,2,0,P|86:199|112:107,1,193
216,248,126426,6,0,P|226:294|217:342,1,96.5,0|2,0:0|0:0,0:0:0:0:
308,144,126773,2,0,P|284:108|272:44,1,96.5
452,164,127120,2,0,P|440:208|404:264,1,96.5,8|0,0:0|0:0,0:0:0:0:
332,328,127467,5,2,0:0:0:0:
212,340,127640,2,0,P|151:302|127:235,1,144.75
116,200,127987,2,0,L|48:284,2,96.5,2|0|0,0:0|0:0|0:0,0:0:0:0:
172,112,128507,1,8,0:0:0:0:
276,288,128680,6,0,P|369:307|464:293,1,193,0|0,0:0|0:0,0:0:0:0:
431,179,129201,2,0,P|412:136|414:88,1,96.5,0|2,0:0|0:0,0:0:0:0:
335,32,129547,2,0,P|298:61|272:102,1,96.5,0|2,0:0|0:0,0:0:0:0:
156,204,129894,2,0,P|113:181|80:147,1,96.5,8|0,0:0|0:0,0:0:0:0:
272,176,130241,5,4,0:0:0:0:
272,176,130588,2,0,P|232:262|160:326,2,193,0|0|8,0:0|0:0|0:0,0:0:0:0:
344,32,131455,2,0,P|361:126|418:203,1,193,2|0,0:0|0:0,0:0:0:0:
511,315,131975,2,0,P|416:305|327:338,1,193,2|0,0:0|0:0,0:0:0:0:
52,320,132495,2,0,P|146:302|221:244,1,193
256,144,133016,5,6,0:0:0:0:
412,264,133189,2,0,P|451:291|497:305,2,96.5,0|0|2,0:0|0:0|0:0,0:0:0:0:
256,48,133883,1,0,0:0:0:0:
28,200,134230,6,0,P|85:275|175:306,1,193,2|8,0:0|0:0,0:0:0:0:
279,252,134750,2,0,P|324:233|372:227,1,96.5,0|2,0:0|0:0,0:0:0:0:
475,128,135097,2,0,P|428:120|386:98,1,96.5,8|0,0:0|0:0,0:0:0:0:
256,48,135443,2,0,P|209:52|164:70,1,96.5,0|0,0:0|0:0,0:0:0:0:
92,136,135790,5,6,0:0:0:0:
44,220,135964,1,0,0:0:0:0:
184,148,136137,1,0,0:0:0:0:
256,295,136310,2,0,P|304:300|352:292,1,96.5,2|8,0:0|0:0,0:0:0:0:
351,293,136831,1,2,0:0:0:0:
440,128,137178,5,2,0:0:0:0:
440,128,137351,2,0,P|446:175|442:223,1,96.5,0|2,0:0|0:0,0:0:0:0:
257,294,137698,2,0,P|238:201|253:106,1,193
101,33,138218,2,0,P|121:76|132:124,1,96.5
146,324,138565,6,0,P|99:240|19:187,1,193,2|0,0:0|0:0,0:0:0:0:
132,124,139085,2,0,P|178:135|226:128,1,96.5,2|8,0:0|0:0,0:0:0:0:
276,36,139432,1,0,0:0:0:0:
100,32,139605,1,2,0:0:0:0:
192,220,139779,2,0,P|277:263|373:266,1,193,0|8,0:0|0:0,0:0:0:0:
496,192,140299,1,2,0:0:0:0:
496,192,140646,1,8,0:0:0:0:
256,356,140993,1,2,0:0:0:0:
256,356,141339,6,0,P|219:268|213:172,1,193,4|8,0:0|0:0,0:0:0:0:
256,28,141860,2,0,P|292:116|298:212,1,193,2|0,0:0|0:0,0:0:0:0:
208,128,142380,1,8,0:0:0:0:
208,128,142727,6,0,P|113:128|25:89,1,193,4|8,0:0|0:0,0:0:0:0:
304,255,143247,2,0,P|399:254|486:293,1,193,2|0,0:0|0:0,0:0:0:0:
124,360,143767,1,8,0:0:0:0:
124,360,143941,1,2,0:0:0:0:
124,360,144114,6,0,P|51:302|42:209,1,193,4|8,0:0|0:0,0:0:0:0:
388,24,144634,2,0,P|461:82|470:175,1,193,2|2,0:0|0:0,0:0:0:0:
256,272,145154,1,8,0:0:0:0:
256,272,145328,6,0,P|169:233|74:231,1,193
256,112,145848,1,8,0:0:0:0:
256,112,146021,2,0,P|343:151|438:153,1,193,2|2,0:0|0:0,0:0:0:0:
263,23,146542,6,0,P|174:60|108:130,1,193,8|0,0:0|0:0,0:0:0:0:
248,359,147062,2,0,P|336:322|402:253,1,193,2|0,0:0|0:0,0:0:0:0:
109,130,147582,2,0,P|93:175|87:223,1,96.5,2|0,0:0|0:0,0:0:0:0:
403,253,147929,2,0,P|418:207|424:159,1,96.5,8|0,0:0|0:0,0:0:0:0:
104,48,148276,5,6,0:0:0:0:
408,336,148449,1,0,0:0:0:0:
408,335,148796,2,0,P|443:246|436:151,1,193,4|0,0:0|0:0,0:0:0:0:
360,72,149316,1,4,0:0:0:0:
256,32,149490,1,0,0:0:0:0:
256,32,149576,1,0,0:0:0:0:
256,32,149663,6,0,P|209:27|162:38,1,96.5,4|0,0:0|0:0,0:0:0:0:
256,352,150183,2,0,P|303:358|350:347,1,96.5
412,268,150530,1,0,0:0:0:0:
256,32,150704,1,0,0:0:0:0:
100,272,150877,6,0,P|161:343|255:352,1,193,4|2,0:0|0:0,0:0:0:0:
395,199,151397,2,0,P|326:182|272:134,1,144.75,8|0,0:0|0:0,0:0:0:0:
259,86,151744,2,0,P|253:158|224:224,1,144.75,2|0,0:0|0:0,0:0:0:0:
224,224,152091,1,8,0:0:0:0:
404,319,152264,6,0,P|473:255|502:164,1,193,2|0,0:0|0:0,0:0:0:0:
396,64,152784,1,8,0:0:0:0:
342,198,152958,2,0,P|303:172|276:132,1,96.5,0|2,0:0|0:0,0:0:0:0:
396,64,153305,1,0,0:0:0:0:
171,172,153478,2,0,P|124:176|77:166,2,96.5,8|0|2,0:0|0:0|0:0,0:0:0:0:
240,80,153998,5,0,0:0:0:0:
172,172,154172,1,8,0:0:0:0:
292,184,154345,1,0,0:0:0:0:
204,36,154519,1,2,0:0:0:0:
136,216,154692,1,2,0:0:0:0:
312,132,154865,1,8,0:0:0:0:
151,16,155039,6,0,P|65:54|18:137,1,193,0|2,0:0|0:0,0:0:0:0:
36,248,155559,1,8,0:0:0:0:
132,311,155732,2,0,P|216:269|311:279,1,193,2|2,0:0|0:0,0:0:0:0:
367,198,156253,1,8,0:0:0:0:
366,198,156600,6,0,P|289:140|256:52,1,193,6|8,0:0|0:0,0:0:0:0:
143,197,157120,2,0,P|218:139|256:52,1,193,0|2,0:0|0:0,0:0:0:0:
256,288,157640,1,8,0:0:0:0:
255,288,157987,6,0,P|164:284|145:195,1,193,6|8,0:0|0:0,0:0:0:0:
256,288,158507,2,0,P|346:285|368:198,1,193,2|2,0:0|0:0,0:0:0:0:
293,39,159027,6,0,P|274:132|299:224,1,193,8|4,0:0|0:0,0:0:0:0:
376,328,159547,1,0,0:0:0:0:
508,192,159721,1,8,0:0:0:0:
376,327,159894,2,0,P|283:345|204:293,1,193,2|2,0:0|0:0,0:0:0:0:
256,104,160415,2,0,P|256:152|228:208,1,96.5,4|0,0:0|0:0,0:0:0:0:
48,264,160761,5,12,0:0:0:0:
168,64,160935,2,0,P|244:15|332:48,1,188.174991386033,8|0,0:0|0:0,0:0:0:0:
372,67,161282,6,0,P|356:160|388:252,1,193,8|0,0:0|0:0,0:0:0:0:
140,316,161802,1,8,0:0:0:0:
140,316,161975,6,4,P|155:222|84:84,1,250.89998851471,4|2,0:0|0:0,0:0:0:0:
244,180,162495,6,0,P|291:186|338:174,1,96.5,8|0,0:0|0:0,0:0:0:0:
403,248,162842,2,0,P|372:284|361:330,1,96.5
456,328,163189,1,8,0:0:0:0:
476,140,163363,6,0,P|382:158|311:224,1,193,2|2,0:0|0:0,0:0:0:0:
270,324,163883,1,8,0:0:0:0:
180,160,164056,2,0,P|154:121|145:74,1,96.5,0|2,0:0|0:0,0:0:0:0:
270,324,164403,1,2,0:0:0:0:
103,243,164576,2,0,P|52:161|39:66,1,193,8|2,0:0|0:0,0:0:0:0:
128,28,165097,5,0,0:0:0:0:
180,160,165270,1,8,0:0:0:0:
256,48,165443,1,2,0:0:0:0:
304,172,165617,1,0,0:0:0:0:
388,52,165790,2,0,P|414:92|429:138,1,96.5,0|8,0:0|0:0,0:0:0:0:
436,176,166050,1,0,0:0:0:0:
428,212,166137,6,0,P|339:245|284:328,1,193,4|0,0:0|0:0,0:0:0:0:
400,320,166657,1,8,0:0:0:0:
167,291,166831,2,0,P|131:260|106:219,1,96.5,6|0,0:0|0:0,0:0:0:0:
96,72,167178,1,0,0:0:0:0:
212,188,167351,2,0,P|242:151|254:104,1,96.5,12|0,0:0|0:0,0:0:0:0:
376,20,167698,5,12,0:0:0:0:
376,20,167871,2,0,P|420:48|460:92,1,96.5,8|0,0:0|0:0,0:0:0:0:
300,220,168391,1,0,0:0:0:0:
300,220,168565,2,0,P|252:192|216:144,1,96.5,4|0,0:0|0:0,0:0:0:0:
124,32,168912,6,0,P|112:126|142:217,1,193,12|0,0:0|0:0,0:0:0:0:
387,355,169432,2,0,P|399:260|369:169,1,193,10|2,0:0|0:0,0:0:0:0:
296,80,169952,1,2,0:0:0:0:
180,100,170126,1,8,0:0:0:0:
264,200,170299,6,0,P|295:235|304:282,2,96.5,0|8|0,0:0|0:0|0:0,0:0:0:0:
124,272,170819,1,0,0:0:0:0:
84,108,170993,2,0,P|95:62|125:25,1,96.5,2|0,0:0|0:0,0:0:0:0:
296,112,171339,2,0,P|289:159|265:200,1,96.5,2|0,0:0|0:0,0:0:0:0:
240,35,171686,6,0,P|285:20|332:25,1,96.5,2|0,0:0|0:0,0:0:0:0:
460,112,172033,1,2,0:0:0:0:
464,264,172206,1,0,0:0:0:0:
332,344,172380,2,0,P|265:275|241:183,1,193,2|0,0:0|0:0,0:0:0:0:
176,51,172900,6,0,P|129:135|47:184,1,193,2|2,0:0|0:0,0:0:0:0:
64,72,173420,1,0,0:0:0:0:
232,144,173594,2,0,P|280:143|326:129,2,96.5,8|0|2,0:0|0:0|0:0,0:0:0:0:
160,236,174114,1,0,0:0:0:0:
160,236,174461,6,0,P|248:271|310:344,1,193,4|2,0:0|0:0,0:0:0:0:
180,356,174981,1,8,0:0:0:0:
371,255,175154,2,0,P|398:164|366:75,1,193,0|2,0:0|0:0,0:0:0:0:
280,156,175675,1,8,0:0:0:0:
144,248,175848,1,2,0:0:0:0:
120,260,175935,1,8,0:0:0:0:
94,272,176021,6,0,B|56:276|56:276|0:240|2:190,1,144.75,4|0,0:0|0:0,0:0:0:0:
0,92,176368,2,0,L|28:16,1,48.25,8|0,0:0|0:0,0:0:0:0:
116,40,176542,2,0,L|136:92,1,48.25,2|0,0:0|0:0,0:0:0:0:
48,188,176715,2,0,L|76:112,1,48.25
192,128,176889,2,0,L|212:180,1,48.25,2|0,0:0|0:0,0:0:0:0:
120,260,177062,2,0,L|148:184,1,48.25,8|0,0:0|0:0,0:0:0:0:
292,192,177235,2,0,L|312:244,1,48.25
212,320,177409,6,0,L|240:244,1,48.25,2|0,0:0|0:0,0:0:0:0:
400,216,177582,2,0,L|420:268,1,48.25
344,352,177756,2,0,L|360:284,1,48.25,8|0,0:0|0:0,0:0:0:0:
500,224,177929,2,0,B|512:272|512:272|508:328|473:357,1,144.75,2|0,0:0|0:0,0:0:0:0:
452,372,178276,1,2,0:0:0:0:
288,276,178449,1,8,0:0:0:0:
400,215,178623,6,0,P|455:139|448:44,1,193
356,16,179143,1,8,0:0:0:0:
204,48,179316,2,0,P|270:115|364:122,1,193,2|2,0:0|0:0,0:0:0:0:
356,16,179837,1,8,0:0:0:0:
219,172,180010,6,0,P|136:216|44:196,1,193,2|2,0:0|0:0,0:0:0:0:
12,172,180443,1,0,0:0:0:0:
4,136,180530,1,8,0:0:0:0:
16,100,180617,1,0,0:0:0:0:
44,76,180704,1,0,0:0:0:0:
80,68,180790,1,0,0:0:0:0:
116,80,180877,2,0,P|163:87|210:78,1,96.5,2|2,0:0|0:0,0:0:0:0:
408,24,181224,2,0,P|361:16|314:25,1,96.5,8|0,0:0|0:0,0:0:0:0:
104,196,181571,5,6,0:0:0:0:
104,196,181657,1,0,0:0:0:0:
104,196,181744,1,0,0:0:0:0:
408,196,181917,2,0,L|468:220,2,48.25,8|0|2,0:0|0:0|0:0,0:0:0:0:
180,88,182264,1,0,0:0:0:0:
180,88,182351,1,0,0:0:0:0:
180,88,182438,1,2,0:0:0:0:
332,296,182611,2,0,L|340:360,2,48.25,8|0|0,0:0|0:0|0:0,0:0:0:0:
316,88,182958,5,2,0:0:0:0:
316,88,183045,1,0,0:0:0:0:
316,88,183131,1,2,0:0:0:0:
180,296,183305,2,0,L|120:324,2,48.25,8|0|2,0:0|0:0|0:0,0:0:0:0:
408,196,183652,1,0,0:0:0:0:
408,196,183738,1,0,0:0:0:0:
408,196,183825,1,2,0:0:0:0:
104,192,183998,2,0,L|36:160,2,48.25,8|0|0,0:0|0:0|0:0,0:0:0:0:
332,296,184345,5,6,0:0:0:0:
372,304,184432,1,0,0:0:0:0:
408,292,184519,1,0,0:0:0:0:
432,264,184605,1,0,0:0:0:0:
432,224,184692,1,8,0:0:0:0:
408,196,184779,1,0,0:0:0:0:
375,175,184865,2,0,P|344:136|324:76,1,96.5,2|0,0:0|0:0,0:0:0:0:
180,48,185212,2,0,P|143:77|115:117,1,96.5,4|8,0:0|0:0,0:0:0:0:
140,351,185559,6,0,P|213:296|228:200,1,193,2|2,0:0|0:0,0:0:0:0:
60,120,186079,1,8,0:0:0:0:
228,200,186253,2,0,P|268:174|294:134,1,96.5,2|0,0:0|0:0,0:0:0:0:
384,40,186600,2,0,P|402:108|456:156,1,144.75,2|0,0:0|0:0,0:0:0:0:
491,188,186946,6,0,P|428:256|280:248,1,250.89998851471,4|0,0:0|0:0,0:0:0:0:
235,76,187467,1,8,0:0:0:0:
144,240,187640,2,0,P|152:292|216:352,1,125.449994257355,6|0,0:0|0:0,0:0:0:0:
400,136,187987,2,0,P|295:127|228:64,1,188.174991386033,6|0,0:0|0:0,0:0:0:0:
199,43,188334,6,0,P|106:56|39:124,1,193,6|2,0:0|0:0,0:0:0:0:
40,124,188767,1,0,0:0:0:0:
40,124,188854,1,8,0:0:0:0:
184,276,189027,1,0,0:0:0:0:
184,276,189114,1,0,0:0:0:0:
184,275,189201,2,0,P|188:228|180:180,1,96.5,2|2,0:0|0:0,0:0:0:0:
328,108,189547,2,0,P|324:155|332:203,1,96.5,8|0,0:0|0:0,0:0:0:0:
348,244,189808,1,0,0:0:0:0:
348,244,189894,6,0,P|354:290|344:338,1,96.5,4|0,0:0|0:0,0:0:0:0:
180,160,190241,1,8,0:0:0:0:
263,288,190415,2,0,P|175:320|87:285,1,193,2|2,0:0|0:0,0:0:0:0:
29,157,190935,2,0,P|32:104|48:64,1,96.5,8|0,0:0|0:0,0:0:0:0:
160,24,191282,5,4,0:0:0:0:
260,164,191455,1,0,0:0:0:0:
260,164,191542,1,8,0:0:0:0:
260,164,191628,1,8,0:0:0:0:
327,67,191802,2,0,P|347:238|175:245,1,386,2|0,0:0|0:0,0:0:0:0:
104,76,192669,5,2,0:0:0:0:
92,52,192756,1,0,0:0:0:0:
80,28,192842,1,0,0:0:0:0:
212,112,193016,1,8,0:0:0:0:
200,88,193102,1,0,0:0:0:0:
188,64,193189,1,0,0:0:0:0:
320,148,193363,5,2,0:0:0:0:
308,124,193449,1,0,0:0:0:0:
296,100,193536,1,0,0:0:0:0:
428,184,193709,1,8,0:0:0:0:
416,160,193796,1,0,0:0:0:0:
404,136,193883,1,0,0:0:0:0:
104,308,194056,5,2,0:0:0:0:
92,332,194143,1,0,0:0:0:0:
80,356,194230,1,0,0:0:0:0:
212,272,194403,1,8,0:0:0:0:
200,296,194490,1,0,0:0:0:0:
188,320,194576,1,0,0:0:0:0:
320,232,194750,5,2,0:0:0:0:
308,256,194837,1,0,0:0:0:0:
296,280,194923,1,0,0:0:0:0:
440,176,195097,1,8,0:0:0:0:
428,200,195183,1,0,0:0:0:0:
416,224,195270,1,0,0:0:0:0:
404,248,195357,1,0,0:0:0:0:
392,272,195443,6,0,B|360:320|360:320|328:300|328:300|296:348|228:344,1,193,6|0,0:0|0:0,0:0:0:0:
256,192,195877,12,4,198218,0:0:0:0:
160,172,203767,6,0,P|220:132|258:71,1,144.750005521775,2|2,0:0|0:0,0:0:0:0:
67,152,204287,2,0,P|85:221|140:265,1,144.750005521775,0|0,0:0|0:0,0:0:0:0:
352,212,204808,1,2,0:0:0:0:
351,212,205154,6,0,P|291:250|254:311,1,144.750005521775,0|2,0:0|0:0,0:0:0:0:
445,231,205675,2,0,P|427:162|372:117,1,144.750005521775,0|0,0:0|0:0,0:0:0:0:
291,152,206195,2,0,P|251:158|192:144,1,72.3750027608873,2|0,0:0|0:0,0:0:0:0:
124,136,206542,5,0,0:0:0:0:
20,104,206715,1,0,0:0:0:0:
96,48,206889,1,2,0:0:0:0:
56,196,207062,2,0,P|116:234|188:240,1,144.750005521775,0|2,0:0|0:0,0:0:0:0:
412,153,207582,2,0,P|360:144|304:160,1,96.5,4|0,0:0|0:0,0:0:0:0:
368,280,207929,5,8,0:0:0:0:
488,216,208102,2,0,P|492:108|416:56,1,188.174991386033,10|0,0:0|0:0,0:0:0:0:
383,59,208449,6,0,P|405:132|383:205,1,154.4,2|0,0:0|0:0,0:0:0:0:
120,344,208969,1,8,0:0:0:0:
120,344,209143,6,4,P|54:218|136:88,1,289.500011043549,4|2,0:0|0:0,0:0:0:0:
280,240,209663,6,0,P|223:243|168:227,1,115.799996466065,8|0,0:0|0:0,0:0:0:0:
180,12,210010,2,0,P|214:58|228:120,1,115.799996466065,2|0,0:0|0:0,0:0:0:0:
88,116,210357,1,8,0:0:0:0:
156,324,210530,6,0,P|263:364|377:351,1,231.599992932129,2|2,0:0|0:0,0:0:0:0:
472,296,211050,1,8,0:0:0:0:
432,196,211224,2,0,P|377:178|338:136,1,115.799996466065,0|2,0:0|0:0,0:0:0:0:
448,64,211571,1,2,0:0:0:0:
256,256,211744,2,0,P|211:150|210:34,1,231.599992932129,8|2,0:0|0:0,0:0:0:0:
368,72,212264,5,0,0:0:0:0:
220,200,212438,1,8,0:0:0:0:
416,192,212611,1,2,0:0:0:0:
256,80,212784,1,0,0:0:0:0:
312,268,212958,2,0,P|248:322|166:305,1,173.699994699097,2|0,0:0|0:0,0:0:0:0:
139,260,213305,6,0,P|138:145|72:53,1,231.599992932129,4|0,0:0|0:0,0:0:0:0:
20,152,213825,1,8,0:0:0:0:
220,200,213998,2,0,P|286:203|352:172,1,115.799996466065,4|0,0:0|0:0,0:0:0:0:
20,152,214345,1,0,0:0:0:0:
256,80,214519,2,0,P|304:56|352:-4,1,115.799996466065,12|0,0:0|0:0,0:0:0:0:
460,48,214865,5,12,0:0:0:0:
460,48,215039,2,0,P|468:112|448:172,1,115.799996466065,8|0,0:0|0:0,0:0:0:0:
216,328,215559,1,0,0:0:0:0:
216,328,215732,2,0,P|185:273|176:216,1,115.799996466065,12|0,0:0|0:0,0:0:0:0:
24,71,216079,6,0,P|21:185|89:276,1,231.599992932129,12|2,0:0|0:0,0:0:0:0:
422,279,216600,2,0,P|487:186|488:72,1,231.599992932129,8|2,0:0|0:0,0:0:0:0:
388,12,217120,1,2,0:0:0:0:
288,72,217293,1,8,0:0:0:0:
288,187,217467,6,0,P|182:229|78:185,1,231.599992932129
408,134,217987,2,0,P|366:241|272:308,1,231.599992932129,8|2,0:0|0:0,0:0:0:0:
140,140,218507,2,0,P|190:166|224:213,1,115.799996466065,4|8,0:0|0:0,0:0:0:0:
100,264,218854,1,0,0:0:0:0:
99,264,219201,6,0,P|63:307|8:336,2,115.799996466065,2|8|0,0:0|0:0|0:0,0:0:0:0:
160,84,219721,2,0,P|193:130|241:163,1,115.799996466065,2|2,0:0|0:0,0:0:0:0:
344,320,220068,2,0,P|287:314|230:325,2,115.799996466065,8|2|6,0:0|0:0|0:0,0:0:0:0:
432,356,220588,5,8,0:0:0:0:
256,36,220761,1,0,0:0:0:0:
256,36,221108,5,2,0:0:0:0:
76,344,221282,1,12,0:0:0:0:
76,344,221628,6,0,P|24:240|40:128,1,231.599992932129,6|2,0:0|0:0,0:0:0:0:
367,217,222149,2,0,P|256:246|144:216,1,231.599992932129,8|2,0:0|0:0,0:0:0:0:
472,128,222669,2,0,P|500:184|500:248,1,115.799996466065,2|8,0:0|0:0,0:0:0:0:
256,248,223016,6,0,P|217:140|256:36,1,231.599992932129,0|0,0:0|0:0,0:0:0:0:
332,295,223536,2,0,P|284:328|228:335,2,115.799996466065,8|2|0,0:0|0:0|0:0,0:0:0:0:
108,99,224056,6,0,P|91:155|100:211,1,115.799996466065,2|8,0:0|0:0,0:0:0:0:
403,283,224403,2,0,P|419:229|411:172,1,115.799996466065,0|2,0:0|0:0,0:0:0:0:
176,155,224750,2,0,P|187:212|219:260,1,115.799996466065,0|8,0:0|0:0,0:0:0:0:
336,227,225097,2,0,P|324:171|292:123,1,115.799996466065,2|0,0:0|0:0,0:0:0:0:
188,20,225443,2,0,P|152:55|72:80,1,115.799996466065,4|0,0:0|0:0,0:0:0:0:
0,188,225790,6,0,P|27:240|71:276,1,115.799996466065,2|0,0:0|0:0,0:0:0:0:
108,284,226050,1,0,0:0:0:0:
108,284,226137,1,2,0:0:0:0:
256,192,226310,1,8,0:0:0:0:
276,72,226484,1,0,0:0:0:0:
236,312,226657,1,2,0:0:0:0:
108,104,226831,1,2,0:0:0:0:
404,280,227004,1,8,0:0:0:0:
256,192,227178,5,6,0:0:0:0:
256,192,227264,12,0,228391,0:0:0:0:
