osu file format v12

[General]
AudioFilename: FISSION.mp3
AudioLeadIn: 1500
PreviewTime: 67289
Countdown: 0
SampleSet: Soft
StackLeniency: 0.7
Mode: 0
LetterboxInBreaks: 1
WidescreenStoryboard: 0

[Editor]
Bookmarks: 179,102491,198214,228387
DistanceSpacing: 1.2
BeatDivisor: 4
GridSize: 4
TimelineZoom: 1.8

[Metadata]
Title:FISSION
TitleUnicode:FISSION
Artist:Okui Masami
ArtistUnicode:奥井雅美
Creator:-Asagi
Version:Hard
Source:グリザイアの楽園 -LE EDEN DE LA GRISAIA-
Tags:kazami kazuki frontwing opening eroge visual novel grisaia no rakuen el solarbeam happy623
BeatmapID:339318
BeatmapSetID:135182

[Difficulty]
HPDrainRate:6
CircleSize:4
OverallDifficulty:6
ApproachRate:8
SliderMultiplier:1.63
SliderTickRate:2

[Events]
//Background and Video events
0,0,"Kazami Kazuki 1.png",0,0
//Break Periods
2,91597,101745
2,198418,203017
//Storyboard Layer 0 (Background)
//Storyboard Layer 1 (Fail)
//Storyboard Layer 2 (Pass)
//Storyboard Layer 3 (Foreground)
//Storyboard Sound Samples
//Background Colour Transformations
3,100,163,162,255

[TimingPoints]
-163,346.820809248555,4,2,1,60,1,0
877,-133.333333333333,4,2,4,30,0,0
8160,-142.857142857143,4,2,4,40,0,0
8507,-125,4,2,4,50,0,0
8854,-111.111111111111,4,2,4,60,0,0
9201,-100,4,2,4,80,0,0
9547,-100,4,2,1,80,0,0
10935,-100,4,2,1,80,0,0
17524,-100,4,2,2,70,0,0
17611,-100,4,2,1,80,0,0
20646,-100,4,2,1,60,0,0
22033,-100,4,2,3,50,0,0
22120,-100,4,2,1,60,0,0
30010,-100,4,2,3,50,0,0
30097,-100,4,2,1,60,0,0
31744,-100,4,2,1,80,0,0
33131,-100,4,2,3,70,0,0
33218,-100,4,2,1,80,0,0
35212,-100,4,2,3,70,0,0
35299,-100,4,2,1,80,0,0
35906,-100,4,2,3,70,0,0
35993,-100,4,2,1,80,0,0
38334,-100,4,2,2,70,0,0
38420,-100,4,2,1,80,0,0
39374,-100,4,2,3,70,0,0
39461,-100,4,2,1,80,0,0
41455,-100,4,2,3,70,0,0
41542,-100,4,2,1,80,0,0
44230,-100,4,2,3,70,0,0
44316,-100,4,2,1,80,0,0
47004,-100,4,2,3,70,0,0
47091,-100,4,2,1,80,0,0
48912,-100,4,2,3,70,0,0
48998,-100,4,2,1,80,0,0
49779,-100,4,2,3,70,0,0
49865,-100,4,2,1,80,0,0
50299,-100,4,2,3,70,0,0
50386,-100,4,2,1,80,0,0
50819,-100,4,2,2,70,0,0
50906,-100,4,2,1,80,0,0
52553,-100,4,2,3,70,0,0
52640,-100,4,2,1,80,0,0
56021,-100,4,2,2,70,0,0
56108,-100,4,2,1,80,0,0
63652,-100,4,2,3,70,0,0
63738,-100,4,2,1,80,0,0
65386,-100,4,2,2,70,0,0
65472,-100,4,2,1,80,0,0
67467,-100,4,2,2,100,0,0
67553,-100,4,2,1,80,0,0
69027,-100,4,2,1,80,0,1
70068,-100,4,2,3,70,0,1
70154,-100,4,2,1,80,0,1
73363,-100,4,2,3,70,0,1
73449,-100,4,2,1,80,0,1
75443,-100,4,2,3,70,0,1
75530,-100,4,2,1,80,0,1
78565,-100,4,2,2,70,0,1
78652,-100,4,2,1,80,0,1
80039,-100,4,2,1,80,0,0
80126,-100,4,2,1,80,0,1
84114,-100,4,2,2,70,0,1
84201,-100,4,2,1,80,0,1
88623,-100,4,2,3,70,0,1
88709,-100,4,2,1,80,0,1
91397,-100,4,2,1,80,0,0
102495,-133.333333333333,4,2,4,40,0,0
112380,-100,4,2,1,80,0,0
114981,-100,4,2,3,70,0,0
115068,-100,4,2,1,80,0,0
117062,-100,4,2,3,70,0,0
117149,-100,4,2,1,80,0,0
117756,-100,4,2,3,70,0,0
117842,-100,4,2,1,80,0,0
120183,-100,4,2,2,70,0,0
120270,-100,4,2,1,80,0,0
121224,-100,4,2,3,70,0,0
121310,-100,4,2,1,80,0,0
123305,-100,4,2,3,70,0,0
123391,-100,4,2,1,80,0,0
126079,-100,4,2,3,70,0,0
126166,-100,4,2,1,80,0,0
128854,-100,4,2,3,70,0,0
128941,-100,4,2,1,80,0,0
130761,-100,4,2,3,70,0,0
130848,-100,4,2,1,80,0,0
131628,-100,4,2,3,70,0,0
131715,-100,4,2,1,80,0,0
132149,-100,4,2,3,70,0,0
132235,-100,4,2,1,80,0,0
132669,-100,4,2,2,70,0,0
132756,-100,4,2,1,80,0,0
134403,-100,4,2,3,70,0,0
134490,-100,4,2,1,80,0,0
137871,-100,4,2,2,70,0,0
137958,-100,4,2,1,80,0,0
145501,-100,4,2,3,70,0,0
145588,-100,4,2,1,80,0,0
147235,-100,4,2,2,70,0,0
147322,-100,4,2,1,80,0,0
149316,-100,4,2,2,70,0,0
149403,-100,4,2,1,80,0,0
150877,-100,4,2,1,80,0,1
151917,-100,4,2,3,70,0,1
152004,-100,4,2,1,80,0,1
155212,-100,4,2,3,70,0,1
155299,-100,4,2,1,80,0,1
157293,-100,4,2,3,70,0,1
157380,-100,4,2,1,80,0,1
160414,-100,4,2,2,100,0,1
160501,-100,4,2,1,80,0,1
161889,-100,4,2,1,80,0,0
161975,-100,4,2,1,80,0,1
165964,-100,4,2,2,70,0,1
166050,-100,4,2,1,80,0,1
172553,-100,4,2,2,70,0,1
172640,-100,4,2,1,80,0,1
173247,-100,4,2,1,80,0,0
174461,-100,4,2,2,100,0,0
174547,-100,4,2,1,80,0,0
174634,-100,4,2,3,70,0,0
174721,-100,4,2,1,80,0,0
175328,-100,4,2,3,70,0,0
175415,-100,4,2,1,80,0,0
178796,-100,4,2,3,70,0,0
178883,-100,4,2,1,80,0,0
185212,-100,4,2,2,70,0,0
185299,-100,4,2,1,80,0,0
186773,-100,4,2,2,70,0,0
186860,-100,4,2,1,10,0,0
186946,-100,4,2,1,70,0,0
187120,-100,4,2,2,70,0,0
187206,-100,4,2,1,80,0,0
188160,-100,4,2,2,70,0,0
188247,-100,4,2,1,80,0,0
191282,-100,4,2,5,70,0,0
191368,-100,4,2,1,80,0,0
191975,-100,4,2,2,70,0,0
192062,-100,4,2,1,80,0,0
192322,-100,4,2,3,70,0,0
192409,-100,4,2,1,80,0,0
203767,-133.333333333333,4,2,4,40,0,0
207582,-83.3333333333333,4,2,2,70,0,0
207669,-83.3333333333333,4,2,1,80,0,0
208449,-125,4,2,1,80,0,0
209143,-83.3333333333333,4,2,1,80,0,1
213131,-83.3333333333333,4,2,2,70,0,1
213218,-83.3333333333333,4,2,1,80,0,1
217640,-83.3333333333333,4,2,3,70,0,1
217727,-83.3333333333333,4,2,1,80,0,1
218507,-83.3333333333333,4,2,2,100,0,1
218594,-83.3333333333333,4,2,1,80,0,1
220588,-83.3333333333333,4,2,1,80,0,0
223189,-83.3333333333333,4,2,3,70,0,0
223276,-83.3333333333333,4,2,1,80,0,0
225443,-83.3333333333333,4,2,2,100,0,0
225530,-83.3333333333333,4,2,1,80,0,0
225617,-83.3333333333333,4,2,2,70,0,0
225704,-83.3333333333333,4,2,1,80,0,0
228391,-83.3333333333333,4,2,1,5,0,0

[Colours]
Combo1 : 98,176,255
Combo2 : 214,89,255
Combo3 : 113,113,255

[HitObjects]
128,143,877,6,0,P|120:173|123:203,1,61.1250023317338,2|0,0:0|0:0,0:0:0:0:
167,264,1224,2,0,P|140:276|109:277,2,61.1250023317338,2|2|0,0:0|0:0|0:0,0:0:0:0:
232,227,1744,2,0,P|289:207|349:215,1,122.250004663468,2|2,0:0|0:0,0:0:0:0:
420,192,2264,2,0,P|431:163|431:133,2,61.1250023317338,2|2|0,0:0|0:0|0:0,0:0:0:0:
307,107,2958,6,0,P|273:58|221:26,1,122.250004663468,2|0,0:0|0:0,0:0:0:0:
120,136,3652,1,2,0:0:0:0:
120,136,3825,2,0,P|160:181|214:208,1,122.250004663468,2|0,0:0|0:0,0:0:0:0:
288,203,4345,2,0,P|283:234|268:260,2,61.1250023317338,2|2|0,0:0|0:0|0:0,0:0:0:0:
276,120,4865,1,2,0:0:0:0:
352,148,5039,2,0,P|412:160|464:132,1,122.250004663468,2|0,0:0|0:0,0:0:0:0:
384,24,5559,6,0,P|388:56|408:92,2,61.1250023317338,2|2|0,0:0|0:0|0:0,0:0:0:0:
302,65,6079,2,0,P|293:95|276:120,2,61.1250023317338,2|2|0,0:0|0:0|0:0,0:0:0:0:
224,64,6600,6,0,P|164:59|97:85,1,122.250004663468,2|2,0:0|0:0,0:0:0:0:
84,148,7120,1,0,0:0:0:0:
104,220,7293,2,0,P|166:243|224:236,1,122.250004663468,2|0,0:0|0:0,0:0:0:0:
256,152,7813,5,2,0:0:0:0:
256,192,8160,12,8,9547,0:0:0:0:
256,184,10068,5,8,0:0:0:0:
256,192,10588,6,0,L|332:192,3,40.75
336,191,10935,2,0,P|356:157|359:116,2,81.5,4|0|0,0:0|0:0|0:0,0:0:0:0:
303,268,11455,2,0,P|227:294|167:348,1,163,2|0,0:0|0:0,0:0:0:0:
88,340,11975,2,0,P|48:328|15:305,1,81.5,8|0,0:0|0:0,0:0:0:0:
48,184,12322,6,0,P|72:216|84:255,2,81.5,2|0|0,0:0|0:0|0:0,0:0:0:0:
88,112,12842,2,0,P|127:120|167:112,1,81.5,2|0,0:0|0:0,0:0:0:0:
232,60,13189,1,0,0:0:0:0:
264,136,13363,2,0,P|303:182|355:213,1,122.25,8|0,0:0|0:0,0:0:0:0:
396,220,13709,6,0,L|354:289,2,81.5,2|0|0,0:0|0:0|0:0,0:0:0:0:
439,151,14230,2,0,P|368:113|319:49,1,163,2|8,0:0|0:0,0:0:0:0:
292,207,14923,6,0,P|233:263|156:288,1,163,6|0,0:0|0:0,0:0:0:0:
76,272,15443,1,8,0:0:0:0:
56,191,15617,2,0,P|50:151|32:115,1,81.5,0|2,0:0|0:0,0:0:0:0:
88,56,15964,1,0,0:0:0:0:
168,48,16137,1,8,0:0:0:0:
231,99,16310,6,0,P|298:146|376:165,1,163,2|2,0:0|0:0,0:0:0:0:
444,120,16831,2,0,P|472:80|480:40,1,81.5,8|2,0:0|0:0,0:0:0:0:
484,252,17351,2,0,B|479:276|468:290|468:290|432:294|432:294|415:345|377:353,1,163,6|0,0:0|0:0,0:0:0:0:
295,355,17871,6,0,P|257:342|223:320,1,81.5,4|0,0:0|0:0,0:0:0:0:
232,156,18391,2,0,P|232:196|221:235,1,81.5,4|0,0:0|0:0,0:0:0:0:
68,295,18912,2,0,P|106:283|147:280,1,81.5,4|0,0:0|0:0,0:0:0:0:
224,320,19258,5,8,0:0:0:0:
224,320,19345,1,0,0:0:0:0:
224,320,19432,2,0,P|263:306|291:277,1,81.5,6|0,0:0|0:0,0:0:0:0:
372,291,19779,2,0,P|366:251|347:216,1,81.5,6|0,0:0|0:0,0:0:0:0:
399,151,20126,2,0,P|362:136|322:135,2,81.5,4|0|0,0:0|0:0|0:0,0:0:0:0:
463,204,20646,6,0,P|476:128|420:72,1,163,6|0,0:0|0:0,0:0:0:0:
336,56,21166,1,0,0:0:0:0:
211,160,21513,2,0,P|184:120|172:64,1,81.5
239,239,21860,2,0,P|158:238|85:205,1,163
12,168,22380,5,0,0:0:0:0:
104,48,22727,2,0,P|111:128|85:204,1,163
192,316,23420,1,2,0:0:0:0:
192,316,23594,2,0,P|232:324|273:322,2,81.5,0|0|2,0:0|0:0|0:0,0:0:0:0:
88,204,24287,6,0,P|47:199|6:203,2,81.5
160,164,24808,2,0,P|200:167|239:158,1,81.5,2|0,0:0|0:0,0:0:0:0:
315,131,25154,2,0,P|341:163|358:200,1,81.5,0|2,0:0|0:0,0:0:0:0:
436,344,25675,5,0,0:0:0:0:
356,360,25848,1,0,0:0:0:0:
284,320,26021,1,0,0:0:0:0:
236,251,26195,2,0,P|226:212|199:182,2,81.5,2|0|0,0:0|0:0|0:0,0:0:0:0:
115,203,26715,2,0,P|137:128|211:101,1,163,2|0,0:0|0:0,0:0:0:0:
288,132,27235,2,0,P|347:143|404:124,1,122.25
444,112,27582,6,0,L|416:212,1,81.5,2|0,0:0|0:0,0:0:0:0:
376,256,27929,1,0,0:0:0:0:
295,255,28102,2,0,P|214:258|138:285,1,163,2|0,0:0|0:0,0:0:0:0:
32,247,28623,2,0,P|66:227|93:196,1,81.5
51,48,28969,6,0,P|59:87|84:119,1,81.5,2|0,0:0|0:0,0:0:0:0:
160,156,29316,1,0,0:0:0:0:
248,168,29490,2,0,B|316:160|340:120|340:120|336:96|345:65,2,163,2|0|0,0:0|0:0|0:0,0:0:0:0:
255,248,30357,6,0,P|334:229|396:177,1,163,12|0,0:0|0:0,0:0:0:0:
420,100,30877,1,12,0:0:0:0:
345,66,31050,2,0,L|277:50,3,40.75
260,72,31397,2,0,L|216:64,3,40.75,4|0|0|0,0:0|0:0|0:0|0:0,0:0:0:0:
187,84,31744,6,0,P|148:91|107:89,1,81.5,4|0,0:0|0:0,0:0:0:0:
39,136,32091,2,0,P|38:176|52:214,1,81.5,8|0,0:0|0:0,0:0:0:0:
116,268,32438,1,2,0:0:0:0:
195,288,32611,2,0,P|235:277|275:274,1,81.5,0|8,0:0|0:0,0:0:0:0:
340,328,32958,2,0,P|418:312|470:251,1,163
478,170,33478,6,0,P|458:136|428:109,1,81.5,8|0,0:0|0:0,0:0:0:0:
396,184,33825,2,0,P|354:168|288:166,1,81.5,2|0,0:0|0:0,0:0:0:0:
335,244,34172,2,0,P|295:246|248:268,1,81.5,8|0,0:0|0:0,0:0:0:0:
188,304,34519,6,0,P|144:312|96:292,2,81.5,2|0|8,0:0|0:0|0:0,0:0:0:0:
152,231,35039,2,0,P|221:195|259:119,1,163
232,44,35559,1,8,0:0:0:0:
150,60,35732,6,0,P|164:139|221:194,1,163
304,208,36253,1,8,0:0:0:0:
380,183,36426,2,0,P|397:147|426:118,2,81.5,0|2|0,0:0|0:0|0:0,0:0:0:0:
372,263,36946,2,0,P|339:288|300:297,1,81.5,8|0,0:0|0:0,0:0:0:0:
128,275,37293,6,0,P|186:220|222:147,1,163,6|8,0:0|0:0,0:0:0:0:
69,121,37813,2,0,P|109:129|148:124,1,81.5,0|2,0:0|0:0,0:0:0:0:
204,67,38160,2,0,P|283:52|364:60,1,163
436,99,38680,6,0,P|466:73|484:36,2,81.5,2|0|8,0:0|0:0|0:0,0:0:0:0:
367,144,39201,2,0,P|304:192|273:267,1,163
227,336,39721,2,0,P|185:346|147:341,1,81.5,8|0,0:0|0:0,0:0:0:0:
124,148,40068,6,0,P|184:180|180:267,1,163,6|2,0:0|0:0,0:0:0:0:
56,208,40588,2,0,P|38:169|36:128,1,81.5,4|2,0:0|0:0,0:0:0:0:
84,64,40935,1,0,0:0:0:0:
164,52,41108,1,8,0:0:0:0:
236,96,41282,6,0,P|312:122|393:127,1,163,4|0,0:0|0:0,0:0:0:0:
440,64,41802,1,10,0:0:0:0:
472,140,41975,2,0,P|448:188|392:216,2,81.5,2|0|2,0:0|0:0|0:0,0:0:0:0:
440,64,42495,1,4,0:0:0:0:
360,52,42669,2,0,L|376:0,2,40.75,2|8|2,0:0|0:0|0:0,0:0:0:0:
272,152,43016,6,0,P|228:156|190:145,1,81.5
124,100,43363,1,2,0:0:0:0:
103,179,43536,2,0,P|115:259|80:331,1,163,0|8,0:0|0:0,0:0:0:0:
152,375,44056,2,0,P|220:332|300:336,1,163
400,280,44576,6,0,P|368:257|342:225,1,81.5,0|2,0:0|0:0,0:0:0:0:
416,196,44923,2,0,P|395:162|380:124,1,81.5
464,124,45270,2,0,P|454:85|452:45,1,81.5,8|0,0:0|0:0,0:0:0:0:
352,32,45617,5,2,0:0:0:0:
275,83,45790,2,0,P|215:75|157:92,1,122.25
124,116,46137,2,0,L|84:20,2,81.5,2|0|0,0:0|0:0|0:0,0:0:0:0:
160,188,46657,1,8,0:0:0:0:
220,244,46831,6,0,P|291:282|371:296,1,163,2|0,0:0|0:0,0:0:0:0:
443,255,47351,2,0,P|435:216|440:176,1,81.5,0|2,0:0|0:0,0:0:0:0:
416,100,47698,2,0,P|383:124|364:159,1,81.5,0|2,0:0|0:0,0:0:0:0:
304,213,48045,2,0,P|288:173|292:125,1,81.5,8|0,0:0|0:0,0:0:0:0:
352,52,48391,5,4,0:0:0:0:
351,52,48738,2,0,P|307:119|238:161,2,163,0|0|8,0:0|0:0|0:0,0:0:0:0:
428,75,49605,2,0,P|423:156|452:232,1,163,2|0,0:0|0:0,0:0:0:0:
392,292,50126,2,0,P|325:246|244:242,1,163
107,183,50646,2,0,P|188:172|255:128,1,163
296,56,51166,5,4,0:0:0:0:
348,120,51339,2,0,P|376:148|414:162,1,81.5
492,196,51686,1,2,0:0:0:0:
256,332,52033,1,0,0:0:0:0:
15,188,52380,6,0,P|55:117|116:63,1,163,2|8,0:0|0:0,0:0:0:0:
144,139,52900,2,0,P|177:116|214:101,1,81.5,0|2,0:0|0:0,0:0:0:0:
216,187,53247,2,0,P|253:171|293:166,1,81.5,8|0,0:0|0:0,0:0:0:0:
276,247,53594,2,0,P|316:247|356:256,1,81.5,0|0,0:0|0:0,0:0:0:0:
432,283,53941,6,0,P|454:250|471:213,2,81.5,6|0|0,0:0|0:0|0:0,0:0:0:0:
395,356,54461,2,0,P|356:362|315:356,1,81.5,2|8,0:0|0:0,0:0:0:0:
160,304,54981,1,2,0:0:0:0:
80,160,55328,5,2,0:0:0:0:
80,160,55501,2,0,P|117:174|158:179,1,81.5,0|2,0:0|0:0,0:0:0:0:
236,155,55848,2,0,P|315:140|396:147,1,163
444,215,56368,2,0,P|417:247|384:270,1,81.5
304,256,56715,6,0,P|266:184|198:135,1,163,2|0,0:0|0:0,0:0:0:0:
132,95,57235,2,0,P|88:104|32:96,2,81.5,2|8|0,0:0|0:0|0:0,0:0:0:0:
208,64,57756,1,0,0:0:0:0:
284,43,57929,2,0,P|362:62|421:116,1,163,2|8,0:0|0:0,0:0:0:0:
456,188,58449,1,2,0:0:0:0:
456,188,58796,1,8,0:0:0:0:
341,297,59143,1,2,0:0:0:0:
340,297,59490,6,0,P|260:286|184:258,1,163,4|8,0:0|0:0,0:0:0:0:
172,84,60010,2,0,P|252:93|328:121,1,163,0|0,0:0|0:0,0:0:0:0:
456,188,60530,1,8,0:0:0:0:
456,187,60877,6,0,P|409:254|341:297,1,163,4|8,0:0|0:0,0:0:0:0:
331,92,61397,2,0,P|408:80|496:112,1,163,2|0,0:0|0:0,0:0:0:0:
316,200,61917,1,8,0:0:0:0:
316,200,62264,6,0,P|253:151|227:75,1,163,4|8,0:0|0:0,0:0:0:0:
40,156,62784,2,0,P|100:216|122:291,1,163,2|0,0:0|0:0,0:0:0:0:
264,316,63305,1,8,0:0:0:0:
264,316,63478,6,0,P|344:309|420:279,1,163
316,200,63998,1,8,0:0:0:0:
316,199,64172,2,0,P|390:166|456:119,1,163,2|2,0:0|0:0,0:0:0:0:
352,8,64692,6,0,P|268:39|200:88,1,163,8|0,0:0|0:0,0:0:0:0:
356,92,65212,2,0,P|282:127|213:193,1,163,2|2,0:0|0:0,0:0:0:0:
316,200,65732,2,0,P|286:231|265:266,1,81.5,0|2,0:0|0:0,0:0:0:0:
372,348,66079,2,0,P|400:320|424:280,1,81.5,8|0,0:0|0:0,0:0:0:0:
460,204,66426,5,6,0:0:0:0:
364,124,66600,1,0,0:0:0:0:
364,124,66946,2,0,P|272:144|180:140,1,163,4|0,0:0|0:0,0:0:0:0:
120,144,67467,1,4,0:0:0:0:
108,228,67640,1,0,0:0:0:0:
108,228,67727,1,0,0:0:0:0:
108,228,67813,6,0,P|116:264|148:324,1,81.5,6|0,0:0|0:0,0:0:0:0:
376,304,68334,2,0,P|394:268|404:229,1,81.5
380,108,68680,1,0,0:0:0:0:
280,40,68854,1,0,0:0:0:0:
160,56,69027,6,0,P|160:124|228:184,1,163,4|0,0:0|0:0,0:0:0:0:
304,208,69547,2,0,P|349:248|378:307,1,122.25,8|0,0:0|0:0,0:0:0:0:
396,343,69894,2,0,P|458:293|487:218,1,163,2|8,0:0|0:0,0:0:0:0:
472,136,70415,6,0,P|400:97|344:39,1,163,2|2,0:0|0:0,0:0:0:0:
264,28,70935,1,8,0:0:0:0:
184,35,71108,2,0,P|143:36|103:28,1,81.5,0|2,0:0|0:0,0:0:0:0:
52,88,71455,1,0,0:0:0:0:
136,116,71628,2,0,P|175:123|211:143,2,81.5,8|0|2,0:0|0:0|0:0,0:0:0:0:
68,192,72149,6,0,P|96:220|118:255,1,81.5,0|8,0:0|0:0,0:0:0:0:
204,363,72495,2,0,P|230:333|249:297,1,81.5,0|2,0:0|0:0,0:0:0:0:
320,196,72842,2,0,P|346:227|366:262,1,81.5,2|8,0:0|0:0,0:0:0:0:
459,348,73189,6,0,P|486:271|486:190,1,163,0|2,0:0|0:0,0:0:0:0:
448,120,73709,1,8,0:0:0:0:
367,120,73883,2,0,P|287:121|212:89,1,163,2|2,0:0|0:0,0:0:0:0:
84,40,74403,1,8,0:0:0:0:
84,40,74750,6,0,P|137:102|160:179,1,163,6|8,0:0|0:0,0:0:0:0:
156,304,75270,2,0,P|97:247|71:171,1,163,0|2,0:0|0:0,0:0:0:0:
208,72,75790,1,8,0:0:0:0:
208,72,76137,6,0,P|237:147|290:209,1,163,6|8,0:0|0:0,0:0:0:0:
417,268,76657,2,0,P|383:193|331:131,1,163,2|2,0:0|0:0,0:0:0:0:
247,149,77178,6,0,P|197:212|122:241,1,163,8|4,0:0|0:0,0:0:0:0:
40,236,77698,1,0,0:0:0:0:
72,312,77871,1,8,0:0:0:0:
147,340,78045,2,0,P|226:319|306:328,1,163,2|2,0:0|0:0,0:0:0:0:
428,328,78565,2,0,P|396:304|369:273,1,81.5,4|0,0:0|0:0,0:0:0:0:
372,152,78912,5,12,0:0:0:0:
252,183,79085,2,0,P|192:196|132:187,1,122.25,8|0,0:0|0:0,0:0:0:0:
88,155,79432,2,0,P|61:233|72:315,1,163,8|0,0:0|0:0,0:0:0:0:
192,332,79952,1,8,0:0:0:0:
192,332,80126,6,4,P|272:280|356:276,1,163,4|2,0:0|0:0,0:0:0:0:
443,195,80646,2,0,P|411:172|385:140,1,81.5,8|0,0:0|0:0,0:0:0:0:
336,74,80993,2,0,P|312:105|300:144,1,81.5,2|0,0:0|0:0,0:0:0:0:
256,216,81339,1,8,0:0:0:0:
211,147,81513,6,0,P|132:132|51:138,1,163
28,216,82033,1,8,0:0:0:0:
48,300,82206,2,0,P|83:279|106:247,1,81.5,0|2,0:0|0:0,0:0:0:0:
28,216,82553,1,2,0:0:0:0:
163,302,82727,2,0,P|199:227|211:147,1,163,8|2,0:0|0:0,0:0:0:0:
280,100,83247,6,0,P|301:134|333:158,1,81.5,0|8,0:0|0:0,0:0:0:0:
343,240,83594,2,0,P|305:253|270:274,1,81.5,2|0,0:0|0:0,0:0:0:0:
196,245,83941,2,0,P|144:229|56:241,1,122.25,2|0,0:0|0:0,0:0:0:0:
39,247,84287,6,0,P|19:169|31:89,1,163,4|0,0:0|0:0,0:0:0:0:
104,52,84808,1,8,0:0:0:0:
184,40,84981,2,0,P|224:40|263:28,2,81.5,4|0|0,0:0|0:0|0:0,0:0:0:0:
156,120,85501,2,0,P|172:158|196:191,1,81.5,12|0,0:0|0:0,0:0:0:0:
296,244,85848,5,12,0:0:0:0:
296,244,86021,2,0,P|319:205|332:144,1,81.5,8|0,0:0|0:0,0:0:0:0:
144,236,86542,1,0,0:0:0:0:
144,236,86715,2,0,P|120:272|108:316,1,81.5,12|0,0:0|0:0,0:0:0:0:
52,212,87062,6,0,P|56:116|112:48,1,163,12|2,0:0|0:0,0:0:0:0:
176,88,87582,2,0,P|256:108|356:68,1,163,8|2,0:0|0:0,0:0:0:0:
408,60,88102,1,2,0:0:0:0:
444,132,88276,1,8,0:0:0:0:
427,212,88449,6,0,P|381:278|312:320,1,163
216,296,88969,1,8,0:0:0:0:
256,192,89056,12,6,91397,0:0:0:0:
87,95,102495,6,0,P|75:67|71:37,2,61.1250023317338,6|0|0,0:0|0:0|0:0,0:0:0:0:
136,152,103016,1,2,0:0:0:0:
275,192,103363,2,0,P|295:168|306:140,1,61.1250023317338,2|0,0:0|0:0,0:0:0:0:
376,163,103709,2,0,P|383:103|366:45,1,122.250004663468,2|0,0:0|0:0,0:0:0:0:
296,64,104230,5,2,0:0:0:0:
160,120,104576,2,0,P|212:150|272:156,1,122.250004663468
76,184,105270,1,2,0:0:0:0:
76,184,105443,2,0,P|106:237|156:272,1,122.250004663468,0|2,0:0|0:0,0:0:0:0:
376,248,106310,5,2,0:0:0:0:
352,104,106657,1,2,0:0:0:0:
216,52,107004,2,0,L|192:116,1,61.1250023317338,0|2,0:0|0:0,0:0:0:0:
139,244,107524,6,0,P|138:274|147:303,2,61.1250023317338
212,264,108045,2,0,P|226:290|248:311,2,61.1250023317338,2|0|0,0:0|0:0|0:0,0:0:0:0:
287,246,108565,2,0,P|344:266|405:268,1,122.250004663468,2|0,0:0|0:0,0:0:0:0:
440,204,109085,2,0,P|407:171|388:130,1,91.6875034976007
376,96,109432,6,0,L|320:148,1,61.1250023317338,2|0,0:0|0:0,0:0:0:0:
264,172,109779,1,0,0:0:0:0:
191,155,109952,2,0,P|143:119|114:66,1,122.250004663468,2|0,0:0|0:0,0:0:0:0:
44,92,110472,2,0,P|45:123|38:152,1,61.1250023317338
40,228,110819,6,0,P|54:255|74:278,1,61.1250023317338,2|0,0:0|0:0,0:0:0:0:
148,284,111166,1,0,0:0:0:0:
216,259,111339,2,0,P|263:222|321:202,1,122.250004663468,2|0,0:0|0:0,0:0:0:0:
384,244,111860,1,2,0:0:0:0:
396,172,112033,2,0,P|384:138|380:92,1,61.1250023317338,0|2,0:0|0:0,0:0:0:0:
296,56,112380,6,0,P|292:96|282:135,1,81.5,6|0,0:0|0:0,0:0:0:0:
215,259,112727,2,0,P|192:180|108:148,1,163,6|0,0:0|0:0,0:0:0:0:
43,239,113247,6,0,P|83:247|124:241,2,81.5,0|0|4,0:0|0:0|0:0,0:0:0:0:
16,164,113767,1,0,0:0:0:0:
52,91,113941,2,0,P|88:64|128:52,1,81.5,8|0,0:0|0:0,0:0:0:0:
204,60,114287,2,0,P|243:67|284:66,2,81.5,2|0|8,0:0|0:0|0:0,0:0:0:0:
160,132,114808,6,0,P|201:199|220:288,1,163
284,331,115328,2,0,P|295:292|314:256,1,81.5,8|0,0:0|0:0,0:0:0:0:
394,274,115675,2,0,P|381:236|376:196,1,81.5,2|0,0:0|0:0,0:0:0:0:
452,163,116021,2,0,P|419:141|389:114,1,81.5,8|0,0:0|0:0,0:0:0:0:
348,40,116368,6,0,P|388:44|429:40,2,81.5,2|0|8,0:0|0:0|0:0,0:0:0:0:
287,84,116889,2,0,P|214:118|133:124,1,163
52,132,117409,1,8,0:0:0:0:
88,204,117582,6,0,P|153:252|200:318,1,163
260,376,118102,1,8,0:0:0:0:
296,303,118276,2,0,P|315:268|345:240,1,81.5,0|2,0:0|0:0,0:0:0:0:
404,184,118623,1,0,0:0:0:0:
331,147,118796,2,0,P|294:132|262:107,1,81.5,8|0,0:0|0:0,0:0:0:0:
172,24,119143,6,0,P|148:100|91:158,1,163,6|8,0:0|0:0,0:0:0:0:
48,236,119663,2,0,P|88:246|124:265,1,81.5,0|2,0:0|0:0,0:0:0:0:
207,295,120010,2,0,P|288:287|355:242,1,163
428,204,120530,6,0,P|454:234|473:270,2,81.5,2|0|8,0:0|0:0|0:0,0:0:0:0:
360,160,121050,2,0,P|292:116|250:46,1,163
179,88,121571,2,0,P|143:136|86:155,1,122.25,8|0,0:0|0:0,0:0:0:0:
48,147,121917,6,0,P|66:226|119:287,1,163,6|2,0:0|0:0,0:0:0:0:
199,296,122438,2,0,P|240:294|279:304,1,81.5,4|2,0:0|0:0,0:0:0:0:
352,344,122784,1,0,0:0:0:0:
416,292,122958,1,8,0:0:0:0:
391,212,123131,6,0,B|424:137|424:137|472:128|496:80,1,163,4|0,0:0|0:0,0:0:0:0:
412,48,123652,1,8,0:0:0:0:
327,36,123825,2,0,P|287:36|247:30,2,81.5,2|0|2,0:0|0:0|0:0,0:0:0:0:
328,116,124345,1,4,0:0:0:0:
248,132,124519,2,0,L|192:96,2,40.75,2|8|2,0:0|0:0|0:0,0:0:0:0:
312,260,124865,6,0,P|269:258|221:238,1,81.5
160,212,125212,1,2,0:0:0:0:
112,140,125386,2,0,P|138:217|123:296,1,163,0|8,0:0|0:0,0:0:0:0:
40,216,125906,2,0,P|14:139|29:60,1,163
107,59,126426,6,0,P|146:71|178:96,1,81.5,0|2,0:0|0:0,0:0:0:0:
244,48,126773,2,0,P|257:86|248:140,1,81.5
336,136,127120,2,0,P|320:173|290:204,1,81.5,8|0,0:0|0:0,0:0:0:0:
240,264,127467,5,2,0:0:0:0:
304,316,127640,2,0,P|372:312|436:256,1,122.25
440,248,127987,2,0,L|484:340,2,81.5,2|0|0,0:0|0:0|0:0,0:0:0:0:
400,176,128507,1,8,0:0:0:0:
324,143,128680,6,0,P|244:158|164:144,1,163,0|0,0:0|0:0,0:0:0:0:
87,116,129201,2,0,P|84:156|97:194,1,81.5,0|2,0:0|0:0,0:0:0:0:
28,236,129547,2,0,P|63:267|103:271,1,81.5,0|2,0:0|0:0,0:0:0:0:
88,352,129894,2,0,P|126:346|163:314,1,81.5,8|0,0:0|0:0,0:0:0:0:
256,192,130241,5,4,0:0:0:0:
256,192,130588,2,0,P|332:221|387:280,2,163,0|0|8,0:0|0:0|0:0,0:0:0:0:
252,111,131455,2,0,P|327:82|382:23,1,163,0|0,0:0|0:0,0:0:0:0:
451,68,131975,2,0,P|432:146|450:225,1,163,2|0,0:0|0:0,0:0:0:0:
408,295,132495,2,0,P|333:328|252:334,1,163
184,288,133016,5,6,0:0:0:0:
136,224,133189,2,0,P|103:202|60:192,2,81.5,0|0|2,0:0|0:0|0:0,0:0:0:0:
296,344,133883,1,0,0:0:0:0:
408,176,134230,2,0,P|375:101|317:44,1,163,2|8,0:0|0:0,0:0:0:0:
287,119,134750,2,0,P|252:98|213:82,1,81.5,0|2,0:0|0:0,0:0:0:0:
207,167,135097,2,0,P|167:151|127:143,1,81.5,8|0,0:0|0:0,0:0:0:0:
136,224,135443,2,0,P|95:222|55:228,1,81.5,0|2,0:0|0:0,0:0:0:0:
92,304,135790,6,0,P|44:316|0:340,2,81.5,4|0|2,0:0|0:0|0:0,0:0:0:0:
172,320,136310,2,0,P|219:326|260:316,1,81.5,2|8,0:0|0:0,0:0:0:0:
392,244,136831,1,2,0:0:0:0:
396,80,137178,5,2,0:0:0:0:
396,79,137351,2,0,P|361:101|322:113,1,81.5,0|2,0:0|0:0,0:0:0:0:
243,91,137698,2,0,P|163:83|84:100,1,163
95,179,138218,2,0,P|114:216|122:256,1,81.5
131,336,138565,6,0,P|206:303|266:249,1,163,2|0,0:0|0:0,0:0:0:0:
308,179,139085,2,0,P|346:167|387:169,1,81.5,2|8,0:0|0:0,0:0:0:0:
456,216,139432,1,0,0:0:0:0:
424,292,139605,1,2,0:0:0:0:
344,303,139779,2,0,P|262:303|187:274,1,163,2|8,0:0|0:0,0:0:0:0:
120,228,140299,1,2,0:0:0:0:
120,228,140646,1,8,0:0:0:0:
188,80,140993,1,2,0:0:0:0:
188,80,141339,6,0,P|261:113|341:127,1,163,4|8,0:0|0:0,0:0:0:0:
323,303,141860,2,0,P|249:267|166:258,1,163,2|0,0:0|0:0,0:0:0:0:
112,108,142380,1,8,0:0:0:0:
112,108,142727,6,0,P|153:177|170:258,1,163,4|8,0:0|0:0,0:0:0:0:
399,275,143247,2,0,P|358:206|341:127,1,163,2|0,0:0|0:0,0:0:0:0:
200,84,143767,1,8,0:0:0:0:
200,84,143941,1,2,0:0:0:0:
200,84,144114,6,0,P|133:126|111:203,1,163,4|8,0:0|0:0,0:0:0:0:
311,299,144634,2,0,P|379:256|399:179,1,163,2|0,0:0|0:0,0:0:0:0:
344,120,145154,1,8,0:0:0:0:
344,119,145328,6,0,P|293:183|223:223,1,163
240,120,145848,1,8,0:0:0:0:
240,119,146021,2,0,P|167:156|86:163,1,163,2|0,0:0|0:0,0:0:0:0:
271,264,146542,6,0,P|344:227|425:220,1,163,8|0,0:0|0:0,0:0:0:0:
447,143,147062,2,0,P|398:80|324:46,1,163,2|2,0:0|0:0,0:0:0:0:
252,88,147582,2,0,P|275:120|287:159,1,81.5,2|0,0:0|0:0,0:0:0:0:
207,183,147929,2,0,P|173:163|133:154,1,81.5,10|0,0:0|0:0,0:0:0:0:
48,164,148276,5,6,0:0:0:0:
164,272,148449,1,0,0:0:0:0:
163,271,148796,2,0,P|243:263|297:204,1,163,4|0,0:0|0:0,0:0:0:0:
328,112,149316,1,4,0:0:0:0:
268,40,149490,1,0,0:0:0:0:
268,40,149576,1,0,0:0:0:0:
268,40,149663,6,0,P|228:35|188:40,1,81.5,4|0,0:0|0:0,0:0:0:0:
48,272,150183,2,0,P|88:278|127:271,1,81.5
236,212,150530,1,0,0:0:0:0:
348,156,150704,1,0,0:0:0:0:
448,224,150877,6,0,P|428:292|324:304,1,163,4|2,0:0|0:0,0:0:0:0:
368,235,151397,2,0,P|308:224|268:176,1,122.25,8|0,0:0|0:0,0:0:0:0:
248,148,151744,2,0,P|239:227|185:287,1,163,2|8,0:0|0:0,0:0:0:0:
107,255,152264,2,0,P|80:179|25:119,1,163,2|2,0:0|0:0,0:0:0:0:
88,60,152784,1,8,0:0:0:0:
160,26,152958,2,0,P|200:22|240:29,1,81.5,0|2,0:0|0:0,0:0:0:0:
312,72,153305,1,0,0:0:0:0:
384,111,153478,2,0,P|423:104|458:82,2,81.5,8|0|2,0:0|0:0|0:0,0:0:0:0:
323,168,153998,6,0,P|302:202|271:228,1,81.5,0|8,0:0|0:0,0:0:0:0:
220,339,154345,2,0,P|258:327|298:328,1,81.5,0|2,0:0|0:0,0:0:0:0:
419,335,154692,2,0,P|401:300|401:259,1,81.5,2|8,0:0|0:0,0:0:0:0:
440,187,155039,6,0,P|444:107|417:30,1,163,0|2,0:0|0:0,0:0:0:0:
344,68,155559,1,8,0:0:0:0:
279,120,155732,2,0,P|209:159|128:162,1,163,2|2,0:0|0:0,0:0:0:0:
32,104,156253,1,8,0:0:0:0:
32,104,156600,6,0,P|96:154|130:228,1,163,6|8,0:0|0:0,0:0:0:0:
256,296,157120,2,0,P|210:229|199:149,1,163,0|2,0:0|0:0,0:0:0:0:
332,64,157640,1,8,0:0:0:0:
331,63,157987,6,0,P|369:135|377:216,1,163,6|8,0:0|0:0,0:0:0:0:
491,299,158507,2,0,P|462:224|457:143,1,163,2|2,0:0|0:0,0:0:0:0:
403,80,159027,6,0,P|326:104|246:94,1,163,8|4,0:0|0:0,0:0:0:0:
172,60,159547,1,0,0:0:0:0:
100,100,159721,1,8,0:0:0:0:
79,180,159894,2,0,P|161:184|237:211,1,163,2|2,0:0|0:0,0:0:0:0:
288,276,160415,2,0,P|310:242|314:200,1,81.5,4|0,0:0|0:0,0:0:0:0:
236,108,160761,5,12,0:0:0:0:
340,44,160935,2,0,P|394:69|455:74,1,122.25,8|0,0:0|0:0,0:0:0:0:
495,56,161282,2,0,P|478:134|495:213,1,163,8|0,0:0|0:0,0:0:0:0:
416,308,161802,1,8,0:0:0:0:
416,308,161975,6,4,P|332:332|232:320,1,163,4|2,0:0|0:0,0:0:0:0:
296,252,162495,2,0,P|249:240|213:220,1,81.5,8|0,0:0|0:0,0:0:0:0:
272,160,162842,2,0,P|235:134|208:96,1,81.5,2|0,0:0|0:0,0:0:0:0:
272,40,163189,1,8,0:0:0:0:
364,48,163363,6,0,P|423:102|464:173,1,163,2|2,0:0|0:0,0:0:0:0:
444,252,163883,1,8,0:0:0:0:
399,319,164056,2,0,P|374:288|363:249,1,81.5,0|2,0:0|0:0,0:0:0:0:
352,168,164403,1,2,0:0:0:0:
287,219,164576,2,0,P|243:152|224:73,1,163,8|2,0:0|0:0,0:0:0:0:
152,36,165097,6,0,P|130:70|102:100,1,81.5,0|8,0:0|0:0,0:0:0:0:
88,179,165443,2,0,P|128:177|167:187,1,81.5,2|0,0:0|0:0,0:0:0:0:
243,219,165790,2,0,P|301:240|362:240,1,122.25,2|0,0:0|0:0,0:0:0:0:
387,212,166137,6,0,P|383:292|412:368,1,163,4|0,0:0|0:0,0:0:0:0:
472,308,166657,1,8,0:0:0:0:
480,228,166831,2,0,P|471:188|454:151,1,81.5,6|0,0:0|0:0,0:0:0:0:
388,104,167178,1,0,0:0:0:0:
316,144,167351,2,0,P|311:184|288:216,1,81.5,12|0,0:0|0:0,0:0:0:0:
208,140,167698,5,12,0:0:0:0:
208,140,167871,2,0,P|216:96|244:56,1,81.5,8|0,0:0|0:0,0:0:0:0:
476,88,168391,1,0,0:0:0:0:
476,88,168565,2,0,P|468:132|440:176,1,81.5,12|0,0:0|0:0,0:0:0:0:
384,256,168912,6,0,P|325:314|252:349,1,163,6|2,0:0|0:0,0:0:0:0:
175,324,169432,2,0,P|120:264|48:228,1,163,8|2,0:0|0:0,0:0:0:0:
24,152,169952,1,0,0:0:0:0:
84,96,170126,1,8,0:0:0:0:
164,108,170299,6,0,P|172:148|200:188,2,81.5,0|8|0,0:0|0:0|0:0,0:0:0:0:
220,48,170819,1,0,0:0:0:0:
300,40,170993,2,0,P|326:70|341:108,1,81.5,2|0,0:0|0:0,0:0:0:0:
424,96,171339,2,0,P|418:138|367:190,1,81.5,2|0,0:0|0:0,0:0:0:0:
472,216,171686,2,0,P|444:240|384:260,1,81.5,2|0,0:0|0:0,0:0:0:0:
328,232,172033,5,2,0:0:0:0:
240,304,172206,1,0,0:0:0:0:
168,252,172380,2,0,P|125:184|112:96,1,163,2|0,0:0|0:0,0:0:0:0:
151,28,172900,6,0,P|114:99|50:148,1,163,2|2,0:0|0:0,0:0:0:0:
8,216,173420,1,0,0:0:0:0:
88,231,173594,2,0,P|128:208|172:204,2,81.5,8|0|2,0:0|0:0|0:0,0:0:0:0:
168,320,174114,1,0,0:0:0:0:
168,320,174461,6,0,P|240:292|292:220,1,163,4|2,0:0|0:0,0:0:0:0:
260,148,174981,1,8,0:0:0:0:
340,156,175154,2,0,P|374:233|324:308,1,163,0|2,0:0|0:0,0:0:0:0:
260,312,175675,1,8,0:0:0:0:
180,308,175848,1,2,0:0:0:0:
112,268,176021,6,0,P|80:213|20:172,1,122.25,4|0,0:0|0:0,0:0:0:0:
12,140,176368,2,0,P|5:101|10:60,1,81.5,8|2,0:0|0:0,0:0:0:0:
88,94,176715,2,0,P|98:49|115:16,1,81.5,0|2,0:0|0:0,0:0:0:0:
172,85,177062,2,0,P|196:50|232:28,1,81.5,8|0,0:0|0:0,0:0:0:0:
253,108,177409,6,0,P|292:92|332:88,2,81.5,2|0|8,0:0|0:0|0:0,0:0:0:0:
317,170,177929,2,0,P|406:203|470:267,1,163
428,324,178449,1,8,0:0:0:0:
352,296,178623,6,0,P|277:264|196:261,1,163
124,300,179143,1,8,0:0:0:0:
99,224,179316,2,0,P|166:178|210:110,1,163,2|2,0:0|0:0,0:0:0:0:
220,28,179837,1,8,0:0:0:0:
287,71,180010,6,0,P|317:147|374:204,1,163,2|2,0:0|0:0,0:0:0:0:
456,212,180530,1,10,0:0:0:0:
488,284,180704,1,0,0:0:0:0:
431,340,180877,2,0,P|391:342|351:334,1,81.5,2|2,0:0|0:0,0:0:0:0:
284,288,181224,2,0,P|243:283|203:290,1,81.5,8|0,0:0|0:0,0:0:0:0:
132,247,181571,6,0,P|156:215|167:176,1,81.5,6|0,0:0|0:0,0:0:0:0:
135,91,181917,2,0,P|176:96|216:91,1,81.5,8|2,0:0|0:0,0:0:0:0:
300,36,182264,2,0,P|311:75|330:111,1,81.5,0|2,0:0|0:0,0:0:0:0:
424,163,182611,2,0,P|391:188|365:220,1,81.5,8|0,0:0|0:0,0:0:0:0:
339,331,182958,6,0,P|310:304|272:289,1,81.5,2|2,0:0|0:0,0:0:0:0:
152,275,183305,2,0,P|177:244|195:208,1,81.5,8|0,0:0|0:0,0:0:0:0:
192,84,183652,2,0,P|226:105|265:115,1,81.5
383,140,183998,2,0,P|359:172|343:209,1,81.5,8|0,0:0|0:0,0:0:0:0:
339,331,184345,6,0,L|367:367,2,40.75,4|0|0,0:0|0:0|0:0,0:0:0:0:
284,272,184692,1,8,0:0:0:0:
212,324,184865,2,0,P|173:316|136:298,1,81.5,2|0,0:0|0:0,0:0:0:0:
112,212,185212,2,0,P|143:186|161:150,1,81.5,4|8,0:0|0:0,0:0:0:0:
223,83,185559,6,0,P|264:153|336:189,1,163,2|2,0:0|0:0,0:0:0:0:
412,223,186079,2,0,P|451:215|491:221,2,81.5,8|0|0,0:0|0:0|0:0,0:0:0:0:
344,271,186600,2,0,P|285:284|231:259,1,122.25,2|0,0:0|0:0,0:0:0:0:
207,224,186946,6,0,P|180:299|115:346,1,163,4|0,0:0|0:0,0:0:0:0:
36,268,187467,1,8,0:0:0:0:
4,172,187640,2,0,P|24:136|32:92,1,81.5,6|0,0:0|0:0,0:0:0:0:
144,48,187987,2,0,P|204:57|263:44,1,122.25,6|0,0:0|0:0,0:0:0:0:
296,16,188334,6,0,P|273:93|289:172,1,163,6|2,0:0|0:0,0:0:0:0:
344,244,188854,1,8,0:0:0:0:
404,188,189027,1,0,0:0:0:0:
404,188,189114,1,0,0:0:0:0:
404,187,189201,2,0,P|412:144|409:107,1,81.5,2|2,0:0|0:0,0:0:0:0:
252,132,189547,2,0,P|292:140|340:136,1,81.5,8|0,0:0|0:0,0:0:0:0:
252,48,189894,6,0,P|196:68|165:108,1,81.5,4|0,0:0|0:0,0:0:0:0:
108,148,190241,1,8,0:0:0:0:
92,244,190415,2,0,P|135:311|204:353,1,163,2|2,0:0|0:0,0:0:0:0:
312,332,190935,1,8,0:0:0:0:
386,257,191108,6,0,P|350:185|368:108,1,163
368,108,191542,1,8,0:0:0:0:
368,108,191628,1,8,0:0:0:0:
456,168,191802,2,0,B|388:236|308:192|308:192|216:148|140:212,1,326,2|0,0:0|0:0,0:0:0:0:
72,176,192669,6,0,L|64:124,2,40.75,2|0|0,0:0|0:0|0:0,0:0:0:0:
124,268,193016,2,0,L|100:320,2,40.75,8|0|0,0:0|0:0|0:0,0:0:0:0:
188,140,193363,6,0,L|176:88,2,40.75
240,284,193709,2,0,L|224:332,2,40.75,8|0|0,0:0|0:0|0:0,0:0:0:0:
296,112,194056,6,0,L|284:56,2,40.75,2|0|0,0:0|0:0|0:0,0:0:0:0:
352,300,194403,2,0,L|340:352,2,40.75,8|0|0,0:0|0:0|0:0,0:0:0:0:
408,88,194750,6,0,L|392:32,2,40.75,2|0|0,0:0|0:0|0:0,0:0:0:0:
344,192,195097,1,8,0:0:0:0:
336,192,195183,1,0,0:0:0:0:
328,192,195270,1,0,0:0:0:0:
320,192,195357,1,0,0:0:0:0:
312,192,195443,6,0,B|290:192|290:192|264:176|264:176|248:200|248:200|216:192|216:192|148:192,1,163,6|0,0:0|0:0,0:0:0:0:
256,192,195877,12,4,198218,0:0:0:0:
192,135,203767,6,0,P|218:81|260:37,1,122.250004663468,2|2,0:0|0:0,0:0:0:0:
367,88,204287,2,0,P|343:143|304:190,1,122.250004663468,0|0,0:0|0:0,0:0:0:0:
192,248,204808,1,2,0:0:0:0:
192,248,205154,6,0,P|218:302|260:346,1,122.250004663468,0|2,0:0|0:0,0:0:0:0:
367,294,205675,2,0,P|343:238|304:191,1,122.250004663468,0|0,0:0|0:0,0:0:0:0:
243,144,206195,6,0,P|183:152|125:137,1,122.250004663468,2|0,0:0|0:0,0:0:0:0:
72,88,206715,1,0,0:0:0:0:
16,136,206889,1,2,0:0:0:0:
63,191,207062,2,0,P|99:241|103:301,1,122.250004663468,0|2,0:0|0:0,0:0:0:0:
196,334,207582,6,0,P|244:327|292:335,1,97.799997015381,4|0,0:0|0:0,0:0:0:0:
396,336,207929,1,8,0:0:0:0:
451,244,208102,2,0,P|443:172|394:118,1,146.699995523071,8|0,0:0|0:0,0:0:0:0:
356,108,208449,6,0,P|288:104|228:60,1,130.4,8|0,0:0|0:0,0:0:0:0:
92,160,208969,1,8,0:0:0:0:
92,160,209143,6,4,P|184:204|216:307,1,195.599994030762,4|2,0:0|0:0,0:0:0:0:
300,340,209663,2,0,P|347:347|394:334,1,97.799997015381,8|0,0:0|0:0,0:0:0:0:
340,248,210010,2,0,P|386:234|427:208,1,97.799997015381,2|0,0:0|0:0,0:0:0:0:
436,112,210357,1,8,0:0:0:0:
343,144,210530,6,0,P|247:131|164:81,1,195.599994030762,2|2,0:0|0:0,0:0:0:0:
92,16,211050,1,8,0:0:0:0:
79,112,211224,2,0,P|84:160|107:202,1,97.799997015381,0|2,0:0|0:0,0:0:0:0:
180,272,211571,1,2,0:0:0:0:
275,292,211744,2,0,P|346:225|438:193,1,195.599994030762,8|2,0:0|0:0,0:0:0:0:
424,96,212264,5,0,0:0:0:0:
320,44,212438,1,8,0:0:0:0:
372,148,212611,1,2,0:0:0:0:
388,32,212784,1,0,0:0:0:0:
307,116,212958,2,0,P|236:128|164:113,1,146.699995523071,2|0,0:0|0:0,0:0:0:0:
127,79,213305,6,0,P|174:164|169:261,1,195.599994030762,4|0,0:0|0:0,0:0:0:0:
128,352,213825,1,8,0:0:0:0:
224,352,213998,2,0,P|273:346|318:327,1,97.799997015381,4|0,0:0|0:0,0:0:0:0:
128,352,214345,1,0,0:0:0:0:
252,260,214519,2,0,P|277:207|284:160,1,97.799997015381,12|0,0:0|0:0,0:0:0:0:
384,40,214865,5,12,0:0:0:0:
384,40,215039,2,0,P|390:88|382:136,1,97.799997015381,8|0,0:0|0:0,0:0:0:0:
128,136,215559,1,0,0:0:0:0:
128,136,215732,2,0,P|120:80|132:24,1,97.799997015381,12|0,0:0|0:0,0:0:0:0:
4,128,216079,6,0,P|22:200|108:288,1,195.599994030762,12|2,0:0|0:0,0:0:0:0:
188,236,216600,2,0,P|276:184|375:203,1,195.599994030762,8|2,0:0|0:0,0:0:0:0:
444,256,217120,1,2,0:0:0:0:
384,332,217293,1,8,0:0:0:0:
299,279,217467,6,0,P|270:187|269:89,1,195.599994030762
203,16,217987,2,0,P|146:94|67:152,1,195.599994030762,8|2,0:0|0:0,0:0:0:0:
28,239,218507,2,0,P|76:243|122:259,1,97.799997015381,4|8,0:0|0:0,0:0:0:0:
216,296,218854,1,2,0:0:0:0:
215,296,219201,6,0,P|185:334|144:359,2,97.799997015381,2|8|0,0:0|0:0|0:0,0:0:0:0:
268,176,219721,2,0,P|295:216|332:247,1,97.799997015381,2|2,0:0|0:0,0:0:0:0:
396,360,220068,2,0,P|348:354|300:363,2,97.799997015381,8|2|6,0:0|0:0|0:0,0:0:0:0:
480,364,220588,5,8,0:0:0:0:
380,196,220761,1,0,0:0:0:0:
380,196,221108,5,0,0:0:0:0:
268,360,221282,1,12,0:0:0:0:
268,360,221628,6,0,P|222:276|232:180,1,195.599994030762,6|0,0:0|0:0,0:0:0:0:
228,79,222149,2,0,P|144:130|48:141,1,195.599994030762,8|0,0:0|0:0,0:0:0:0:
36,240,222669,2,0,P|67:283|112:312,1,97.799997015381,0|8,0:0|0:0,0:0:0:0:
199,308,223016,6,0,P|280:254|376:244,1,195.599994030762,2|0,0:0|0:0,0:0:0:0:
452,183,223536,2,0,P|488:151|510:108,2,97.799997015381,8|2|0,0:0|0:0|0:0,0:0:0:0:
384,116,224056,6,0,P|386:68|367:23,1,97.799997015381,2|8,0:0|0:0,0:0:0:0:
296,89,224403,2,0,P|256:49|200:25,1,97.799997015381,0|2,0:0|0:0,0:0:0:0:
212,129,224750,2,0,P|160:121|96:149,1,97.799997015381,0|8,0:0|0:0,0:0:0:0:
164,221,225097,2,0,P|120:237|76:280,1,97.799997015381
188,344,225443,2,0,P|232:324|264:284,1,97.799997015381,4|0,0:0|0:0,0:0:0:0:
324,184,225790,6,0,P|380:272|488:280,1,195.599994030762,2|2,0:0|0:0,0:0:0:0:
500,184,226310,2,0,P|480:132|488:80,1,97.799997015381,8|0,0:0|0:0,0:0:0:0:
384,52,226657,1,2,0:0:0:0:
272,128,226831,1,2,0:0:0:0:
400,176,227004,1,8,0:0:0:0:
288,252,227178,5,6,0:0:0:0:
256,192,227264,12,0,228391,0:0:0:0:
