osu file format v9

[General]
AudioFilename: loveless op.mp3
AudioLeadIn: 1500
PreviewTime: 58843
Countdown: 0
SampleSet: Soft
StackLeniency: 0.7
Mode: 0
LetterboxInBreaks: 0

[Editor]
Bookmarks: 19530,33185,45599,58841,86151,99392,112634,125875,149047,174703,189599,203668
DistanceSpacing: 1.1
BeatDivisor: 4
GridSize: 4

[Metadata]
Title:Tsuki no Curse
Artist:Okina Reika
Creator:tutuhaha
Version:Hard
Source:Loveless
Tags:Megurine Luka meiguodage Yaoi BL Beren sherrie__fay

[Difficulty]
HPDrainRate:5
CircleSize:4
OverallDifficulty:5
ApproachRate:6
SliderMultiplier:1.4
SliderTickRate:1

[Events]
//Background and Video events
0,0,"11716371055495740.jpg"
//Break Periods
2,13526,18483
2,162491,173655
2,217112,222483
//Storyboard Layer 0 (Background)
//Storyboard Layer 1 (Fail)
//Storyboard Layer 2 (Pass)
//Storyboard Layer 3 (Foreground)
//Storyboard Sound Samples
//Background Colour Transformations
3,100,163,162,255

[TimingPoints]
85,413.793103448276,4,2,1,60,1,0
912,-133.333333333333,4,2,1,60,0,0
2878,-133.333333333333,4,2,2,60,0,0
3085,-133.333333333333,4,2,1,60,0,0
5154,-133.333333333333,4,2,2,60,0,0
5360,-133.333333333333,4,2,1,60,0,0
7016,-133.333333333333,4,2,2,60,0,0
7222,-133.333333333333,4,2,1,60,0,0
8257,-133.333333333333,4,2,1,10,0,0
13326,-100,4,2,0,80,0,0
19533,-100,4,2,1,80,0,0
57602,-100,4,2,0,60,0,0
58016,-100,4,2,1,80,0,0
59671,-100,4,2,1,90,0,1
79222,-100,4,2,1,10,0,1
81188,-100,4,2,1,90,0,1
86153,-100,4,2,1,80,0,0
125878,-100,4,2,1,90,0,1
148636,-100,4,2,0,70,0,0
148740,-100,4,2,0,10,0,0
151533,-100,4,2,2,60,0,0
155671,-100,4,2,2,10,0,0
158153,-100,4,2,2,60,0,0
158981,-100,4,2,2,10,0,0
162291,-100,4,2,0,70,0,0
175533,-100,4,2,1,60,0,0
175844,-100,4,2,2,60,0,0
176050,-100,4,2,1,60,0,0
177292,-100,4,2,2,60,0,0
177499,-100,4,2,1,60,0,0
183292,-100,4,2,2,60,0,0
183499,-100,4,2,1,60,0,0
185464,-100,4,2,1,10,0,0
189602,-100,4,2,1,60,0,0
193844,-100,4,2,2,60,0,0
194050,-100,4,2,1,60,0,0
200464,-100,4,2,2,60,0,0
200878,-100,4,2,1,60,0,0
201292,-100,4,2,2,60,0,0
202016,-100,4,2,1,60,0,0
202430,-100,4,2,1,50,0,0
203671,-100,4,2,1,90,0,1
209981,-100,4,2,1,10,0,1
211947,-100,4,2,1,90,0,1
216912,-100,4,2,0,80,0,0
223533,-100,4,2,1,90,0,0
224360,-100,4,2,1,90,0,1
235119,-100,4,2,1,10,0,1
236774,-100,4,2,1,90,0,1
245981,-100,4,2,2,90,0,1
246291,-100,4,2,1,40,0,0
246498,-100,4,2,1,10,0,0

[Colours]
Combo1 : 151,214,244
Combo2 : 128,128,255
Combo3 : 181,253,176
Combo4 : 255,255,130

[HitObjects]
256,84,912,1,0
144,112,1326,1,0
144,112,1533,2,0,B|112:168|48:196,1,104.999996870756,4|0
140,280,2360,1,0
140,280,2567,2,0,B|200:224|296:224,1,157.499995306134,0|0
376,292,3602,2,0,B|432:256,1,52.4999984353781
412,148,4222,5,0
312,92,4636,1,0
288,80,4843,2,0,B|240:36|112:92|128:164,1,209.999993741512,4|0
200,312,6291,2,0,B|260:288,1,52.4999984353781
272,300,6705,2,0,B|320:344|448:288|432:216,1,209.999993741512,0|0
324,192,7947,1,0
324,192,8153,1,4
256,192,8360,12,4,13326
256,52,19533,6,0,B|328:80,1,70,2|0
384,120,19947,2,0,B|432:180|416:252,1,140,4|8
272,192,20774,1,0
236,340,21188,1,8
124,236,21602,6,0,B|56:176,1,70,2|0
72,112,22016,2,0,B|48:28,1,70,8|0
132,44,22429,2,0,B|176:104|264:112,1,140,0|8
308,60,23050,1,0
384,80,23257,6,0,B|456:112|480:188,1,140,4|8
400,312,24084,2,0,B|328:280|304:204,1,140,0|8
232,196,24705,1,0
156,184,24912,6,0,B|76:160,1,70,2|0
88,88,25326,2,0,B|155:108,1,70,8|0
300,60,25947,1,0
372,88,26153,2,0,B|400:172,1,70,8|0
448,212,26567,6,0,B|436:292|368:328,1,140,4|8
220,300,27395,1,0
80,236,27809,2,0,B|24:172,1,70,8|0
60,108,28222,6,0,B|132:96|184:24,1,140,2|8
228,92,28843,2,0,B|292:124|312:204,1,140
312,276,29464,2,0,B|368:336,2,70,8|0|4
160,300,30291,5,8
36,212,30705,2,0,B|48:140|128:96,1,140,0|8
156,36,31326,2,0,B|208:88|308:96,1,140,2|0
344,136,31947,2,0,B|432:136,2,70,8|0|0
328,212,32567,1,0
288,280,32774,6,0,B|252:340,1,70,8|0
172,340,33188,2,0,B|132:276|36:272,1,140,4|8
92,124,34016,2,0,B|144:44,1,70
208,68,34429,2,0,B|292:24,1,70,8|0
344,56,34843,6,0,B|392:120|484:124,1,140,2|8
468,200,35464,1,0
340,332,35878,1,0
256,320,36085,2,0,B|216:264,1,70,8|0
244,184,36498,6,0,B|228:112|144:88,1,140,4|8
80,120,37119,1,0
96,196,37326,2,0,B|32:224|12:308,1,140,0|8
92,312,37947,1,0
168,312,38153,6,0,B|236:256,1,70,2|0
280,216,38567,2,0,B|300:136,1,70,8|0
312,72,38981,2,0,B|380:32|472:60,1,140,0|8
484,124,39602,1,0
444,188,39809,6,0,B|380:232|364:320,1,140,4|8
216,324,40636,1,0
100,220,41050,5,8
100,220,41257,2,0,B|160:172|168:68,1,140,2|0
220,48,41878,2,0,B|308:48,2,70,8|0|0
340,144,42705,5,8
388,204,42912,1,0
340,264,43119,2,0,B|264:268|216:336,1,140,4|8
156,292,43740,2,0,B|96:344,1,70,0|0
60,192,44360,6,0,B|92:112,1,70,8|0
132,64,44774,1,2
208,48,44981,1,0
284,36,45188,1,8
240,184,45602,6,0,B|292:252,1,70,0|0
304,312,46016,2,0,B|380:336,1,70,8|0
436,292,46429,2,0,B|476:232|452:144,1,140,4|8
380,148,47050,2,0,B|344:80|264:56,1,140
200,64,47671,1,8
128,32,47878,6,0,B|56:52|20:140,1,140
32,200,48498,2,0,B|84:256,1,70,8|0
136,196,48912,2,0,B|196:228,1,70
240,164,49326,2,0,B|208:88,2,70,8|0|2
392,152,50153,5,8
392,152,50360,2,0,B|408:232|480:272,1,140
412,320,50981,1,8
332,324,51188,1,2
176,324,51602,6,0,B|100:296,1,70,0|8
60,240,52016,2,0,B|24:164,1,70,0|0
64,108,52429,1,0
112,48,52636,2,0,B|172:96,1,70,8|0
148,168,53050,5,4
148,168,53257,2,0,B|232:176|272:244,1,140
328,188,53878,2,0,B|380:136|384:60,1,140,0|8
460,84,54498,1,2
452,236,54912,6,0,B|376:260|336:336,1,140
272,344,55533,2,0,B|204:332|160:256,1,140,0|8
96,228,56153,1,0
28,192,56360,5,4
128,76,56774,2,0,B|208:48,1,70,8|2
256,196,57395,2,0,B|284:132,1,70,0|4
360,152,57809,1,0
428,192,58016,6,0,B|440:268|504:320,1,140,4|8
348,360,58843,1,0
196,336,59257,2,0,B|140:284,1,70,8|0
84,240,59671,6,0,B|152:204|176:120,1,140,4|8
228,84,60291,1,0
288,36,60498,1,0
256,184,60912,6,0,B|320:152,1,70,8|0
392,124,61326,2,0,B|460:168|468:260,1,140,4|8
400,280,61947,1,0
336,324,62153,5,0
192,268,62567,1,8
192,268,62774,2,0,B|144:200|56:200,1,140,2|0
36,136,63395,2,0,B|64:72|144:40,1,140,8|0
256,140,64222,1,8
375,43,64636,6,0,B|448:72|476:136,1,140,2|8
448,208,65257,1,0
428,284,65464,1,0
280,332,65878,2,0,B|192:296,1,70,8|0
140,316,66291,2,0,B|64:300|40:224,1,140,4|8
80,160,66912,1,0
128,100,67119,5,0
256,176,67533,1,8
256,176,67740,2,0,B|336:168|380:96,1,140,4|0
436,152,68360,2,0,B|484:208,1,70,8|0
464,280,68774,6,0,B|384:292|336:368,1,140,0|8
276,324,69395,2,0,B|200:324|156:244,1,140,2|0
84,240,70016,2,0,B|76:168|136:112,1,140,8|0
276,52,70843,1,8
412,124,71257,5,2
384,276,71671,1,8
308,296,71878,1,0
236,316,72085,1,0
108,228,72498,2,0,B|48:176,2,70,8|0|4
140,156,73119,1,0
136,76,73326,1,8
260,164,73740,5,0
260,164,74153,2,0,B|300:96,1,70,8|0
328,36,74567,2,0,B|408:48|460:120,1,140,4|8
412,172,75188,2,0,B|472:224|472:312,1,140
404,332,75809,2,0,B|332:332,1,70,8|0
256,324,76222,1,2
256,324,76636,1,8
256,172,77050,5,0
256,172,77464,2,0,B|224:96,1,70,8|0
184,44,77878,2,0,B|104:56|52:128,1,140,4|8
104,180,78498,2,0,B|44:232|44:320,1,140
116,332,79119,1,8
256,192,79222,12,4,81188
256,124,81602,6,0,B|328:124,1,70,8|0
256,260,82222,2,0,B|180:260,1,70,0|8
112,236,82636,1,0
48,192,82843,1,2
64,40,83257,5,8
208,96,83671,1,0
208,96,83878,1,0
208,96,84085,1,8
272,236,84498,6,0,B|348:204|372:116,1,140,4|8
380,60,85119,2,0,B|460:88|484:148,1,140
448,216,85740,2,0,B|420:292,1,70,8|0
348,304,86153,5,4
196,328,86567,1,8
84,220,86981,2,0,B|40:152,2,70,0|0|8
192,108,87809,2,0,B|228:40|320:28,1,140,2|8
340,96,88429,1,0
408,132,88636,1,0
496,256,89050,6,0,B|452:320,1,70,8|0
384,344,89464,2,0,B|340:280|240:272,1,140,4|8
196,140,90291,1,0
112,268,90705,5,8
112,268,90912,1,0
80,200,91119,2,0,B|44:128,1,70,2|0
120,108,91533,2,0,B|152:32,1,70,8|0
256,156,92153,5,0
256,156,92360,2,0,B|304:100,1,70,8|0
348,40,92774,2,0,B|424:56|472:132,1,140,4|8
352,228,93602,2,0,B|409:279|408:368,1,140,0|8
256,340,94429,5,2
104,348,94843,1,8
104,348,95050,2,0,B|107:277|165:226,1,140,0|0
192,152,95671,2,0,B|192:76,2,70,8|0|4
300,44,96498,5,8
256,192,96912,2,0,B|316:236,1,70
360,296,97326,1,8
360,296,97533,2,0,B|436:280|480:208,1,140,0|0
420,164,98153,2,0,B|352:120|344:40,1,140,8|0
268,56,98774,1,0
192,76,98981,6,0,B|108:112,2,70,8|0|4
256,216,99809,1,8
148,328,100222,1,0
128,252,100429,1,0
108,180,100636,1,8
256,216,101050,6,0,B|312:168,1,70,2|0
308,92,101464,2,0,B|380:56,1,70,8|0
472,176,102085,1,0
472,176,102291,2,0,B|412:240,1,70,8|0
392,300,102705,6,0,B|336:360|256:360,1,140,4|8
132,288,103533,2,0,B|112:208|32:176,1,140,0|8
84,116,104153,1,0
160,100,104360,2,0,B|188:176,1,70,2|0
256,192,104774,2,0,B|256:116,1,70,8|0
384,36,105395,1,0
384,36,105602,2,0,B|448:92,1,70,8|0
460,156,106016,6,0,B|456:240|368:280,1,140,4|8
256,192,106843,2,0,B|224:116|132:104,1,140,0|8
80,132,107464,1,0
44,276,107878,1,2
112,312,108085,1,8
184,336,108291,2,0,B|264:336,1,70,0|0
388,260,108912,1,8
388,260,109119,1,0
416,188,109326,6,0,B|388:112|300:80,1,140,4|8
248,68,109947,1,0
176,44,110153,2,0,B|152:112|68:132,1,140,0|8
36,196,110774,2,0,B|60:268|140:296,1,140,2|0
204,272,111395,2,0,B|280:256|316:180,1,140,8|0
392,56,112222,1,8
392,56,112636,6,0,B|464:80|492:152,1,140,4|8
464,220,113257,2,0,B|384:232|344:312,1,140
280,320,113878,1,8
204,332,114085,2,0,B|164:268|80:264,1,140,2|0
36,204,114705,1,8
116,72,115119,2,0,B|172:28,2,70,0|0|8
184,112,115740,1,0
256,132,115947,6,0,B|308:192|400:180,1,140,4|8
408,256,116567,2,0,B|360:320|276:328,1,140
220,300,117188,1,8
168,244,117395,2,0,B|132:180|48:160,1,140,0|0
64,88,118016,2,0,B|136:32,2,70,8|0|0
220,80,118843,5,8
220,156,119050,1,0
280,208,119257,2,0,B|360:196|396:112,1,140,4|8
464,148,119878,1,0
464,224,120085,2,0,B|464:368,1,140,0|8
388,356,120705,6,0,B|308:364|248:292,1,140,2|0
188,284,121326,1,8
128,236,121533,1,0
36,108,121947,2,0,B|108:60,1,70,0|8
144,128,122360,1,0
188,192,122567,6,0,B|244:244|328:240,1,140,4|8
352,172,123188,2,0,B|380:100|464:64,1,140
476,144,123809,2,0,B|496:220,1,70,8|0
460,280,124222,1,2
316,300,124636,2,0,B|240:340,1,70,8|0
184,292,125050,6,0,B|112:256|96:176,1,140,0|8
40,136,125671,2,0,B|16:56,2,70,0|4|0
112,112,126291,1,8
232,212,126705,5,0
344,104,127119,1,8
344,104,127326,2,0,B|416:140|432:220,1,140,4|0
488,256,127947,2,0,B|464:332|388:364,1,140,8|0
256,296,128774,5,8
256,296,128981,2,0,B|208:236|116:224,1,140,2|0
68,196,129602,2,0,B|24:128,2,70,8|0|0
128,148,130222,1,0
136,72,130429,1,8
256,168,130843,6,0,B|328:112,1,70,2|0
340,56,131257,2,0,B|424:28,1,70,8|0
460,92,131671,2,0,B|416:152|432:240,1,140,0|8
372,276,132291,2,0,B|320:344|224:340,1,140,4|0
180,312,132912,1,8
180,312,133119,1,0
120,264,133326,6,0,B|88:196|20:168,1,140,0|8
72,108,133947,2,0,B|116:48|204:40,1,140,4|0
212,116,134567,1,8
268,168,134774,1,0
324,220,134981,1,0
368,72,135395,5,8
368,72,135602,2,0,B|448:116|464:188,1,140,2|0
440,248,136222,2,0,B|400:324|308:328,1,140,8|0
176,312,137050,1,8
116,264,137257,1,0
64,208,137464,6,0,B|60:132|132:72,1,140,2|8
256,152,138291,1,0
393,84,138705,1,8
393,84,138912,2,0,B|452:132|448:208,1,140,4|0
372,216,139533,2,0,B|344:280,1,70,8|0
268,276,139947,6,0,B|196:300|160:364,1,140,0|8
108,304,140567,1,0
68,236,140774,1,4
112,88,141188,1,8
152,152,141395,2,0,B|208:196|296:188,1,140
356,152,142016,2,0,B|400:72,1,70,8|0
456,48,142429,1,2
488,200,142843,1,8
392,320,143257,5,0
256,244,143671,1,8
188,284,143878,1,0
120,320,144085,2,0,B|48:272|44:180,1,140,4|8
84,136,144705,2,0,B|104:64|180:32,1,140
204,108,145326,2,0,B|256:60,1,70,8|0
338,34,145740,6,0,B|408:64|428:136,1,140,2|8
465,205,146360,2,0,B|464:272|392:320,1,140
316,312,146981,2,0,B|264:360,1,70,8|0
188,344,147395,5,4
88,228,147809,1,8
88,228,148016,1,0
156,92,148429,1,0
156,92,148636,1,4
256,192,148740,12,8,151533
256,192,151947,5,0
148,84,152360,2,0,B|128:54|86:30|31:62|30:127|72:151|108:153,1,210,2|0
68,220,153188,2,0,B|38:240|14:282|46:337|111:338|135:296|137:260,1,210,4|0
172,196,154016,6,0,B|192:226|234:250|289:218|290:153|248:129|212:127,1,210,2|0
220,52,154843,2,0,B|300:56|336:132,1,140,4|8
256,192,155671,12,0,158153
256,192,158567,5,2
256,192,158981,12,4,162291
256,192,174705,5,0
256,192,175119,1,0
192,52,175533,6,0,B|108:64|68:164|68:164|40:144,1,210,4|0
40,296,176567,1,0
192,320,176981,2,0,B|232:312|256:240|256:240|280:312|320:320,1,210,2|0
472,296,178016,1,0
452,144,178429,6,0,B|416:64,2,70,0|0|4
304,192,179257,1,0
304,192,179464,1,0
176,104,179878,1,0
32,156,180291,2,0,B|48:240|140:256,1,140,2|0
200,264,180912,2,0,B|280:276|316:348,1,140
376,296,181533,1,0
416,228,181740,6,0,B|452:160,1,70
432,92,182153,2,0,B|384:32|288:32,1,140,4|0
244,76,182774,1,0
188,128,182981,2,0,B|203:179|160:232|92:243|46:195,1,210,0|0
168,296,184016,6,0,B|248:272|276:180,1,140
264,128,184636,2,0,B|308:64|392:56,1,140,0|0
256,192,185464,12,2,189602
268,44,190016,5,0
268,44,190222,2,0,B|348:56|392:120,1,140,4|0
256,192,191050,1,0
256,192,191257,2,0,B|176:196|128:104,1,140
92,136,191878,2,0,B|28:192|36:276,1,140,0|0
116,316,192705,5,0
116,316,192912,2,0,B|180:264|264:268,1,140
284,300,193533,2,0,B|327:345|395:334|438:281|423:230,1,210,4|0
424,184,194360,1,0
316,84,194981,5,0
228,40,195395,2,0,B|188:108|96:120,1,140,0|0
80,208,196222,1,0
80,208,196636,5,0
80,208,196843,2,0,B|112:288|192:312,1,140,4|0
220,292,197464,2,0,B|268:232|356:224,1,140
424,176,198291,2,0,B|472:96,2,70,0|0|0
344,120,199119,1,0
256,76,199533,1,0
256,76,199947,5,0
256,76,200153,2,0,B|192:24|96:76|96:76|64:52,1,210,4|0
36,92,200981,2,0,B|76:168|36:256|36:256|72:288,1,210,0|0
160,252,202016,5,0
236,192,202429,1,8
336,192,202843,1,8
392,112,203257,5,8
392,112,203464,1,0
392,112,203671,2,0,B|476:140|492:232,1,140,4|8
436,268,204291,2,0,B|388:336,1,70
256,260,204912,5,8
192,304,205119,1,0
124,336,205326,2,0,B|52:312|24:224,1,140,4|8
76,176,205947,2,0,B|72:100|136:48,1,140
192,100,206567,2,0,B|260:152,1,70,8|0
276,216,206981,6,0,B|356:192|388:104,1,140,2|8
452,152,207602,2,0,B|504:216|500:288,1,140
432,316,208222,2,0,B|344:356,1,70,8|0
292,328,208636,5,4
140,296,209050,1,8
140,296,209257,1,0
72,160,209671,1,0
72,160,209878,1,8
256,192,209981,12,4,211947
256,112,212360,6,0,B|188:72,1,70,8|0
96,192,212981,2,0,B|156:227,1,70,0|8
172,304,213395,2,0,B|216:376|216:372,1,70,0|4
356,320,214016,2,0,B|416:260,1,70,8|0
440,196,214429,5,0
392,136,214636,1,0
336,80,214843,2,0,B|264:40,1,70,8|0
200,36,215257,2,0,B|149:28|97:67|99:149|169:191|229:166|248:119,2,280,4|0|4
256,136,223533,6,0,B|416:136,1,140,2|8
432,204,224153,1,0
460,276,224360,1,0
312,320,224774,1,8
236,328,224981,1,0
160,312,225188,2,0,B|88:292|56:200,1,140,4|8
100,152,225809,2,0,B|100:76|176:36,1,140
248,44,226429,6,0,B|312:112,1,70,8|0
372,104,226843,1,4
452,236,227257,1,8
392,288,227464,1,0
332,336,227671,1,0
332,336,228084,6,0,B|244:316,1,70,8|0
192,292,228498,2,0,B|164:224|72:208,1,140,4|8
36,152,229119,2,0,B|48:80|144:32,1,140
196,40,229740,2,0,B|224:112|316:124,1,140,8|4
456,100,230567,1,8
488,252,230981,6,0,B|448:324|448:328,1,70
376,324,231395,2,0,B|312:368,1,70,8|0
268,304,231809,2,0,B|232:240|148:216,1,140,2|8
92,184,232429,1,0
184,60,232843,5,0
184,60,233050,2,0,B|232:128|328:128,1,140,8|4
452,88,233878,1,8
448,244,234291,2,0,B|412:324|412:320,2,70,0|0|8
256,192,235119,12,4,236774
256,192,237188,5,8
164,68,237602,2,0,B|88:100|76:184,1,140,0|8
84,248,238222,1,0
96,324,238429,6,0,B|172:324|224:256,1,140,2|8
294,264,239050,2,0,B|340:324|416:324,1,140
428,248,239671,1,8
440,172,239878,1,0
420,96,240084,5,4
268,76,240498,1,8
128,136,240912,1,0
128,136,241119,1,0
128,136,241326,1,8
20,248,241740,6,0,B|68:308|156:308,1,140,2|8
208,264,242360,2,0,B|252:200|344:192,1,140
368,132,242981,2,0,B|424:60,2,70,8|0|4
412,280,243809,5,8
264,320,244222,1,0
200,276,244429,1,0
140,228,244636,1,8
140,228,244843,1,0
68,204,245050,6,0,B|80:128|152:100,1,140,4|0
212,148,245671,2,0,B|336:144|380:20,1,210,0|4
256,192,246498,12,0,251671
