osu file format v9

[General]
AudioFilename: loveless op.mp3
AudioLeadIn: 1500
PreviewTime: 58843
Countdown: 0
SampleSet: Soft
StackLeniency: 0.7
Mode: 0
LetterboxInBreaks: 0

[Editor]
Bookmarks: 19530,33185,45599,58841,86151,99392,112634,125875,149047,162289,174703,189599,203668
DistanceSpacing: 1
BeatDivisor: 4
GridSize: 4

[Metadata]
Title:Tsuki no Curse
Artist:Okina Reika
Creator:tutuhaha
Version:Collab
Source:Loveless
Tags:Megurine Luka meiguodage Yaoi BL Beren sherrie__fay

[Difficulty]
HPDrainRate:6
CircleSize:4
OverallDifficulty:7
ApproachRate:8
SliderMultiplier:1.8
SliderTickRate:1

[Events]
//Background and Video events
0,0,"11716371055495740.jpg"
//Break Periods
2,13526,18783
2,162491,173955
2,217112,223610
//Storyboard Layer 0 (Background)
//Storyboard Layer 1 (Fail)
//Storyboard Layer 2 (Pass)
//Storyboard Layer 3 (Foreground)
//Storyboard Sound Samples
//Background Colour Transformations
3,100,163,162,255

[TimingPoints]
85,413.793103448276,4,2,1,60,1,0
1326,-200,4,2,1,60,0,0
7843,-200,4,2,2,10,0,0
8050,-200,4,2,1,60,0,0
8464,-200,4,2,1,10,0,0
13326,-100,4,2,0,60,0,0
19533,-100,4,2,1,80,0,0
37326,-133.333333333333,4,2,1,80,0,0
37947,-100,4,2,1,80,0,0
57602,-100,4,2,0,60,0,0
58016,-100,4,2,1,80,0,0
59671,-100,4,2,1,90,0,1
79222,-100,4,2,1,10,0,1
80774,-100,4,2,1,90,0,1
81188,-200,4,2,1,90,0,1
82016,-100,4,2,1,90,0,1
82636,-100,4,2,1,10,0,1
84498,-100,4,2,1,90,0,1
86153,-100,4,2,1,80,0,0
125878,-100,4,2,1,90,0,1
149050,-100,4,2,1,90,0,0
149153,-100,4,2,1,10,0,0
151533,-100,4,2,2,60,0,0
155774,-100,4,2,2,10,0,0
158153,-100,4,2,2,60,0,0
158981,-100,4,2,2,10,0,0
162291,-100,4,2,0,70,0,0
174705,-200,4,2,1,50,0,0
175533,-133.333333333333,4,2,1,50,0,0
186705,-133.333333333333,4,2,1,10,0,0
187740,-133.333333333333,4,2,1,20,0,0
189602,-200,4,2,1,50,0,0
197464,-200,4,2,1,60,0,0
199119,-200,4,2,1,70,0,0
201602,-200,4,2,1,80,0,0
203671,-100,4,2,1,90,0,1
209981,-100,4,2,1,10,0,1
211533,-100,4,2,1,90,0,1
213395,-100,4,2,1,10,0,1
215671,-100,4,2,1,90,0,1
216912,-100,4,2,1,90,0,0
224360,-100,4,2,1,90,0,1
246291,-100,4,2,1,10,0,0

[Colours]
Combo1 : 151,214,244
Combo2 : 128,128,255
Combo3 : 181,253,176
Combo4 : 255,255,130

[HitObjects]
144,72,912,1,0
104,152,1326,2,0,B|76:208,1,45
60,280,1740,2,0,B|100:320|104:376,1,90,4|0
188,336,2360,1,0
256,276,2567,6,0,B|308:284|352:236,1,90
396,180,3188,2,0,B|368:136|308:128,1,90,4|0
260,68,3809,2,0,B|220:108,1,45
140,116,4222,38,0,B|148:180,1,45
88,228,4636,1,0
88,228,4843,2,0,B|140:240|160:288,1,90,4|0
212,352,5464,2,0,B|264:328,1,45
344,340,5878,2,0,B|364:288,1,45
432,244,6291,1,0
256,204,6705,5,4
92,272,7119,1,0
92,272,7326,1,0
92,272,7533,2,0,B|152:236|160:152,1,135
232,108,8360,1,4
256,192,8464,12,4,13326
256,152,19533,37,0
196,220,19740,1,0
124,272,19947,2,0,B|44:264|8:176,1,135,4|0
32,156,20360,2,0,B|88:116|104:32,1,135,8|0
144,60,20774,2,0,B|236:112,1,90
156,168,21188,5,8
280,40,21395,1,0
336,212,21602,2,0,B|352:256|408:284,1,90,2|0
238,350,22016,2,0,B|283:358|323:332,1,90,8|0
196,272,22429,1,0
108,268,22636,2,0,B|60:244,2,45,0|0|8
136,184,23050,37,0
156,144,23153,1,0
176,104,23257,2,0,B|248:96|296:32,1,135,4|0
328,32,23671,2,0,B|404:56|440:128,1,135,8|0
440,156,24084,2,0,B|488:240,1,90
322,309,24498,2,0,B|408:280,1,90,8|0
256,248,24912,5,2
92,176,25119,1,0
168,340,25326,1,8
200,164,25533,1,0
68,284,25740,1,0
200,164,25947,37,0
200,164,26050,1,0
200,164,26153,1,8
320,32,26360,1,0
280,112,26567,2,0,B|320:184|400:200,1,135,4|0
408,232,26981,2,0,B|392:308|332:340,1,135,8|0
292,324,27395,2,0,B|208:280,1,90
148,348,27809,5,8
268,216,28016,1,0
92,176,28222,2,0,B|40:120|36:36,1,135,2|0
72,28,28636,2,0,B|172:28,1,90,8|0
220,96,29050,37,0
184,180,29257,1,0
268,216,29464,1,8
304,132,29671,1,0
356,56,29878,6,0,B|428:72|476:144,3,135,4|0|0|0
416,256,31119,2,0,B|364:336,1,90,8|0
276,332,31533,2,0,B|224:284|136:292,2,135,0|2|0
288,244,32360,2,0,B|288:184,2,45
180,119,32774,2,0,B|215:147,2,45,8|0|0
300,112,33188,6,0,B|380:160|476:120,1,180,4|8
472,121,33809,1,0
412,52,34016,2,0,B|436:100|408:144,1,90
336,188,34429,2,0,B|292:280|356:368,1,180,8|2
432,320,35050,1,0
416,232,35257,1,8
336,188,35464,1,0
244,188,35671,2,0,B|200:188|168:144,2,90,0|0|8
244,188,36291,1,0
256,100,36498,6,0,B|300:72|296:8,1,90,4|0
356,144,36912,2,0,B|407:150|445:99,1,90,8|0
352,248,37326,2,0,B|414:284|487:262,1,135,0|8
482,263,37947,37,0
328,352,38153,1,2
348,172,38360,1,0
420,336,38567,1,8
240,316,38774,1,0
172,260,38981,5,0
136,236,39085,1,0
108,152,39291,1,0
152,144,39395,1,8
216,80,39602,1,0
252,56,39705,1,0
288,28,39809,38,0,B|368:92|464:60,1,180,4|8
456,62,40429,1,0
476,228,40636,2,0,B|444:196|452:140,1,90
456,62,41050,1,8
380,108,41257,6,0,B|324:152|244:132,1,135,2|0
208,116,41671,2,0,B|128:104|64:164,1,135
96,192,42085,2,0,B|92:244|52:268,1,90,2|0
53,267,42498,1,0
92,348,42705,1,8
184,348,42912,1,0
184,348,43119,38,0,B|188:288|240:268|292:288|296:352,1,180,4|8
384,308,43740,1,0
492,184,43947,2,0,B|420:248|312:228,1,180,0|8
240,196,44567,1,0
240,196,44774,2,0,B|176:280,2,90,2|8|8
292,120,45395,2,0,B|356:44,1,90,0|0
76,112,46016,21,8
148,56,46222,1,0
160,144,46429,2,0,B|116:216|28:232,1,135,4|0
56,272,46843,2,0,B|68:320|116:344,1,90,8|0
264,253,47257,2,0,B|216:260|191:300,1,90
340,304,47671,1,8
340,304,47878,2,0,B|452:296|484:184,1,180,2|0
428,128,48498,5,8
272,36,48705,1,0
268,216,48912,1,0
88,220,49119,37,0
244,128,49326,1,8
248,308,49533,1,0
152,156,49740,6,0,B|136:84|76:48,1,135,4|0
48,84,50153,2,0,B|16:176,1,90,8|0
16,260,50567,2,0,B|60:348,1,90
144,356,50981,1,8
172,272,51188,38,0,B|216:200|296:184,1,135,2|0
312,216,51602,2,0,B|404:256,1,90,0|8
341,82,52016,2,0,B|388:160,1,90
472,22,52429,2,0,B|464:112,1,90,0|8
468,204,52843,5,0
468,204,52947,1,0
468,204,53050,2,0,B|480:256|456:296,1,90,4|0
276,288,53464,2,0,B|220:292|188:348,1,90,8|0
72,200,53878,2,0,B|32:164|36:104,1,90
48,76,54188,1,0
68,36,54291,2,0,B|156:24,1,90,8|0
157,192,54705,38,0,B|188:108,1,90,2|0
264,64,55119,2,0,B|360:108,1,90,8|0
388,120,55429,1,0
428,136,55533,2,0,B|428:216|364:268,1,135
332,264,55947,2,0,B|252:272|216:344,1,135,8|0
180,348,56360,5,4
112,292,56567,1,0
60,220,56774,2,0,B|88:116,1,90,8|0
104,92,57085,1,0
136,60,57188,2,0,B|236:56,1,90
356,92,57602,1,4
452,188,57809,1,0
160,224,58016,38,0,B|56:224,1,90,2|0
176,80,58429,2,0,B|268:80,1,90,8|0
432,152,58843,5,0
416,196,58947,1,0
396,236,59050,1,0
364,268,59153,1,0
328,292,59257,2,0,B|232:292,1,90,2|0
88,192,59671,5,4
88,192,59878,1,0
88,192,60085,2,0,B|120:104|232:72,1,180,8|0
284,140,60705,1,0
492,68,60912,2,0,B|460:156|348:188,1,180,8|4
284,224,61533,1,0
204,180,61740,1,8
84,344,62153,6,0,B|32:232,1,90
178,266,62567,2,0,B|210:162,1,90,8|0
224,96,62981,1,2
308,60,63188,1,0
384,108,63395,2,0,B|428:128|476:100,1,90,8|0
470,103,63809,37,0
508,184,64016,1,0
436,240,64222,1,8
360,192,64429,1,0
328,276,64636,5,2
168,356,64843,1,0
184,176,65050,1,8
256,340,65257,1,0
76,316,65464,37,0
44,284,65567,1,0
12,252,65671,1,0
64,128,65878,1,8
108,144,65981,1,0
152,156,66085,1,0
252,244,66291,1,4
288,268,66395,1,0
332,280,66498,1,0
376,280,66602,1,0
420,276,66705,1,8
412,96,67119,5,0
328,60,67326,1,0
244,88,67533,2,0,B|168:92|116:44,1,135,8|0
100,88,67947,2,0,B|44:100|24:152,1,90,4|0
4,224,68360,1,8
164,308,68774,38,0,B|256:284|300:184,1,180,0|8
244,120,69395,1,0
196,196,69602,2,0,B|256:292|348:304,1,180,2|8
408,248,70222,1,0
326,209,70429,2,0,B|240:256|208:340,1,180,0|8
436,68,71257,6,0,B|388:-12,1,90,2|0
288,80,71671,2,0,B|188:68,1,90,8|0
176,192,72085,2,0,B|88:220,2,90,0|0|8
264,168,72705,1,0
328,232,72912,1,4
328,232,73326,1,8
200,360,73740,38,0,B|112:312|120:192,1,180,0|8
112,120,74360,1,0
328,232,74567,2,0,B|405:168|374:51,1,180,2|8
304,120,75188,2,0,B|392:176|492:144,1,180
476,148,75809,5,8
428,224,76016,1,0
372,292,76222,2,0,B|316:368,1,90,4|0
216,296,76636,2,0,B|116:308,1,90,8|0
132,176,77050,38,0,B|52:120|60:16,1,180,0|8
148,35,77671,1,0
247,44,77878,2,0,B|223:136|116:181,1,180,2|8
152,360,78498,2,0,B|176:267|283:222,1,180
308,148,79119,1,8
256,192,79222,12,8,80774
256,192,80981,5,0
256,192,81188,2,0,B|256:92,1,90,4|8
256,102,81809,1,0
256,12,82222,38,0,B|256:100,1,90,0|8
256,192,82636,12,2,84498
336,108,84912,5,0
204,76,85119,2,0,B|152:40,1,45,0|0
68,144,85429,2,0,B|8:148,1,45,0|2
136,252,85740,21,8
224,236,85947,1,0
312,224,86153,2,0,B|388:208|416:124,1,135,4|0
376,108,86567,2,0,B|296:48,1,90,8|0
130,44,86981,38,0,B|216:72,1,90
176,152,87395,1,8
176,152,87602,1,0
96,196,87809,6,0,B|72:276|132:332,1,135,2|0
168,324,88222,2,0,B|256:296,1,90,8|0
340,272,88636,1,0
340,272,88740,1,0
340,272,88843,1,0
420,232,89050,37,8
332,72,89257,1,0
364,156,89464,2,0,B|308:204|216:188,1,135,4|0
200,164,89878,2,0,B|148:120|64:116,1,135,8|0
40,144,90291,5,0
40,240,90498,1,0
96,308,90705,2,0,B|192:328|192:332,1,90,8|0
284,180,91119,38,0,B|224:248,1,90,2|0
368,216,91533,2,0,B|368:306,1,90,8|0
444,168,91947,1,0
444,168,92050,1,0
444,168,92153,1,0
364,124,92360,5,8
204,40,92567,1,0
280,92,92774,2,0,B|236:148|152:160,1,135,4|0
120,160,93188,2,0,B|44:216,1,90,8|0
142,348,93602,38,0,B|64:304,1,90
276,226,94016,2,0,B|204:280,1,90,8|0
160,268,94326,1,0
160,224,94429,2,0,B|208:168|200:80,1,135,2|0
196,52,94843,1,8
343,127,95050,6,0,B|284:60,1,90
469,205,95464,2,0,B|432:124,2,90,0|8|0
332,296,96085,38,0,B|256:292|204:240,2,135,4|0|0
102,81,97119,2,0,B|180:128,1,90,0|8
268,108,97533,1,0
340,272,97740,6,0,B|416:288|456:348,2,135,0|2|0
408,126,98567,2,0,B|336:180,1,90
268,18,98981,2,0,B|268:108,1,90,8|0
144,240,99395,6,0,B|184:264|252:252,1,90,4|0
408,220,99809,2,0,B|368:196|300:208,1,90,8|0
124,252,100222,2,0,B|164:276|232:264,1,90,2|0
436,208,100636,2,0,B|396:184|328:196,1,90,8|0
200,88,101050,5,0
68,208,101257,1,0
240,264,101464,1,8
200,88,101671,1,0
284,52,101878,1,2
324,68,101981,1,0
368,64,102085,1,0
420,136,102291,37,8
448,168,102395,1,0
464,212,102498,1,0
456,256,102602,1,0
432,296,102705,2,0,B|396:336|404:392,1,90,4|0
304,228,103119,2,0,B|340:188|332:132,1,90,8|0
188,40,103533,2,0,B|152:80|160:136,1,90,2|0
160,304,103947,2,0,B|196:264|188:208,1,90,8|0
248,152,104360,5,0
360,112,104567,1,0
468,196,104774,1,8
496,344,104981,1,0
496,344,105188,38,0,B|424:340,2,45
360,260,105602,2,0,B|412:264,2,45,8|0|0
220,300,106016,6,0,B|164:352|88:356,1,135,4|0
56,360,106429,2,0,B|100:272|68:184,1,180,8|2
12,116,107050,1,0
80,56,107257,1,8
164,92,107464,38,0,B|272:96|348:20,2,180,4|0|0
144,180,108498,1,2
220,228,108705,1,0
304,192,108912,1,8
380,148,109119,1,0
460,104,109326,6,0,B|500:160|476:244,1,135,4|0
480,280,109740,2,0,B|396:276|344:356,1,135,8|0
340,292,110153,2,0,B|260:284|204:332,1,135
192,284,110567,2,0,B|140:284|92:316,1,90,8|0
20,284,110981,1,2
64,144,111188,37,0
108,156,111291,1,2
252,108,111498,1,0
240,152,111602,1,2
328,240,111809,1,2
364,268,111912,1,0
400,292,112016,1,0
444,296,112119,1,0
488,296,112222,1,8
460,116,112429,21,0
460,116,112636,2,0,B|424:156|360:160,1,90,4|0
248,112,113050,2,0,B|184:112|152:152,1,90,8|0
28,256,113464,2,0,B|80:264|136:240,1,90
204,224,113878,1,8
260,296,114085,6,0,B|304:276|328:224,1,90,0|2
380,78,114498,2,0,B|340:100|320:144,1,90,0|8
228,136,114912,2,0,B|188:108,2,45
52,168,115326,2,0,B|84:200,2,45,0|0|8
148,320,115740,37,0
148,320,115843,1,0
148,320,115947,2,0,B|200:308|232:252,1,90,4|0
400,268,116360,2,0,B|432:220|416:176,1,90,8|0
292,52,116774,2,0,B|248:32|192:40,1,90
164,60,117085,1,0
120,76,117188,2,0,B|96:112|32:120,1,90,8|0
133,273,117602,6,0,B|96:192,1,90,2|0
28,252,118016,1,8
184,160,118222,1,0
192,340,118429,1,0
328,344,118636,38,0,B|284:348,2,45,0|0|8
396,284,119050,2,0,B|440:256|452:208,1,90,0|4
323,89,119464,2,0,B|332:132|380:156,1,90,0|8
244,44,119878,2,0,B|200:36|136:64,1,90
96,124,120291,1,0
96,124,120395,1,0
96,124,120498,1,8
210,245,120705,6,0,B|136:256|84:212,1,135,0|0
48,240,121119,2,0,B|8:276|16:332,1,90,2|8
184,332,121533,2,0,B|228:336|272:308,1,90
256,128,121947,1,0
256,128,122050,1,0
256,128,122153,2,0,B|272:184|340:204,1,90,8|0
240,28,122567,38,0,B|168:32|120:84,1,135,4|0
128,132,122981,2,0,B|112:180|56:212,1,90,8|0
28,112,123395,5,0
132,280,123602,1,0
256,128,123809,1,8
380,280,124016,1,0
484,112,124222,2,0,B|432:52|352:40,1,135,2|0
320,44,124636,2,0,B|232:44,1,90,8|0
132,56,125050,37,0
100,96,125153,1,0
68,136,125257,1,0
76,324,125464,1,8
92,276,125567,1,0
108,228,125671,1,0
260,128,125878,6,0,B|340:128|400:60,1,135,4|0
428,80,126291,2,0,B|476:112|484:168,1,90,8|0
324,240,126705,1,0
360,216,126809,1,0
396,192,126912,1,0
268,316,127119,2,0,B|240:280|176:288,1,90,8|0
48,172,127533,38,0,B|64:100|132:56,1,135,4|0
148,100,127947,2,0,B|212:64|284:72,1,135,8|0
284,116,128360,2,0,B|356:128|392:192,1,135
368,228,128774,1,8
137,336,128981,6,0,B|180:256|280:236,1,180,2|0
300,276,129498,1,0
324,316,129602,1,8
412,304,129809,1,0
456,228,130016,1,0
456,136,130222,1,0
396,68,130429,2,0,B|380:112|328:140,1,90,8|0
276,200,130843,38,0,B|204:140,1,90,2|0
184,104,131153,1,0
152,72,131257,2,0,B|52:80,1,90,8|0
48,120,131567,1,0
68,160,131671,2,0,B|64:216|12:260,1,90
132,300,132085,2,0,B|100:328|48:328,1,90,8|0
172,196,132498,6,0,B|224:144|308:148,1,135,4|0
320,112,132912,2,0,B|392:108|452:160,1,135,8|0
420,192,133326,2,0,B|468:244|476:320,1,135
432,320,133740,2,0,B|352:364,1,90,8|0
288,252,134153,38,0,B|268:340,1,90,4|0
232,164,134567,2,0,B|251:76,1,90,8|0
212,60,134878,1,0
172,44,134981,2,0,B|140:80|84:92,1,90
56,172,135395,1,8
56,172,135602,2,0,B|148:208|184:304,1,180,2|0
92,308,136222,5,8
196,160,136429,1,0
324,32,136636,2,0,B|312:124,1,90
436,143,137050,2,0,B|364:196,1,90,8|0
320,212,137360,1,0
276,224,137464,38,0,B|200:232|148:304,1,135,2|0
116,292,137878,2,0,B|36:256|24:168,1,135,8|0
60,164,138291,2,0,B|68:76|152:36,1,135
168,40,138705,5,8
256,196,138912,1,0
344,40,139119,1,4
256,196,139326,1,0
320,364,139533,2,0,B|384:276,1,90,8|0
192,364,139947,38,0,B|128:276,1,90
96,272,140257,1,0
56,252,140360,2,0,B|92:148,1,90,8|0
64,80,140774,5,2
144,40,140981,1,0
200,108,141188,1,8
256,36,141395,1,0
312,108,141602,1,0
368,40,141809,1,0
448,80,142016,37,8
464,120,142119,1,0
472,164,142222,1,0
476,208,142326,1,0
468,252,142429,2,0,B|388:264|348:328,1,135,4|0
324,352,142843,2,0,B|256:336|220:260,1,135,8|0
192,236,143257,6,0,B|120:228|48:292,1,135
40,240,143671,2,0,B|12:148,1,90,8|0
92,108,144085,2,0,B|164:48,1,90,2|0
420,108,144498,2,0,B|348:48,1,90,8|0
314,228,144912,2,0,B|332:140,1,90
197,228,145326,2,0,B|180:140,1,90,8|0
140,116,145636,1,0
100,96,145740,38,0,B|28:148|20:220,1,135,4|0
52,236,146153,2,0,B|60:312|132:360,1,135,8|0
160,332,146567,2,0,B|220:288|304:296,1,135
320,324,146981,1,8
444,192,147188,1,0
316,68,147395,6,0,B|232:140,1,90,2|0
104,201,147809,2,0,B|156:128,1,90,8|0
132,308,148222,1,0
256,180,148429,1,0
380,308,148636,1,8
380,308,148740,1,0
380,308,148843,1,0
380,308,148947,1,0
380,308,149050,1,4
256,192,149153,12,8,151533
256,72,151947,37,0
256,72,152153,1,0
168,60,152360,2,0,B|136:136|60:164,1,135,2|0
52,192,152774,2,0,B|20:232|20:304,1,90
180,192,153188,2,0,B|248:200|316:156,1,135,4|0
344,136,153602,1,0
468,192,153809,1,0
392,240,154016,6,0,B|328:324,1,90,2|0
252,284,154429,2,0,B|184:356,1,90
144,344,154740,1,0
100,332,154843,2,0,B|112:240|28:168,1,180,4|0
72,92,155464,1,0
156,60,155671,1,2
256,192,155774,12,0,158153
256,192,158567,37,2
256,192,158774,1,0
256,192,158981,12,4,162291
256,56,174705,22,0,B|256:144,1,90
364,232,175533,2,0,B|404:272|440:276,2,67.4999979883433,4|0|0
288,240,176153,1,0
172,332,176567,1,0
64,228,176981,1,0
180,132,177395,2,0,B|212:112|220:52,1,67.4999979883433,0|0
360,44,178016,2,0,B|400:56|424:100,1,67.4999979883433
480,200,178429,2,0,B|440:188|416:144,1,67.4999979883433
356,136,178843,6,0,B|296:180|224:160,1,134.999995976687,4|0
156,148,179464,1,0
32,64,179878,1,0
4,208,180291,1,0
116,304,180705,2,0,B|148:332|200:336,1,67.4999979883433
324,316,181326,1,0
396,188,181740,38,0,B|432:104,1,67.4999979883433
356,92,182153,2,0,B|328:32,1,67.4999979883433,4|0
296,176,182774,1,0
296,176,182981,2,0,B|228:200|164:164,1,134.999995976687
96,196,183602,2,0,B|112:148|104:92|80:56,1,134.999995976687
85,64,184222,1,0
160,60,184429,1,0
192,128,184636,2,0,B|240:104|296:152|340:120,1,134.999995976687
424,304,185464,6,0,B|456:284|508:248|488:208|428:220,1,134.999995976687,4|0
424,304,186084,2,0,B|389:289|332:261|345:219|416:224,1,134.999995976687
256,192,186705,12,0,187740
172,320,189602,38,0,B|228:316|260:276,1,90
172,320,190222,1,0
96,320,190429,1,4
380,192,191257,6,0,B|324:188|292:148,1,90
380,192,191878,1,0
456,192,192084,1,4
392,52,192498,1,0
240,44,192912,38,0,B|216:88|152:100,1,90,0|0
240,128,193533,2,0,B|260:172|240:216,1,90,4|0
168,172,194153,1,0
100,212,194360,2,0,B|76:168|104:124,1,90
152,64,194981,2,0,B|200:32,1,45
256,84,195395,6,0,B|300:80|332:32,1,90,4|0
280,168,196222,2,0,B|232:176|204:220,1,90
206,215,196843,1,0
206,215,197050,1,4
456,264,197464,37,0
396,312,197671,1,0
324,336,197878,2,0,B|284:376|236:372,1,90,0|0
324,336,198498,1,0
336,260,198705,1,4
52,124,199119,5,0
112,76,199326,1,0
184,52,199533,2,0,B|224:12|272:16,1,90,0|0
184,52,200153,1,0
172,128,200360,1,4
256,328,200774,1,0
256,192,200981,1,0
432,324,201602,37,0
428,316,202016,1,8
420,308,202429,1,0
276,260,202843,5,8
276,260,203050,1,0
380,148,203257,1,8
380,148,203464,1,0
236,112,203671,1,4
36,348,204084,38,0,B|84:336|120:292,1,90,0|0
188,348,204498,2,0,B|228:260|340:244,1,180,0|8
456,40,205326,2,0,B|416:128|304:144,1,180,4|8
340,56,205947,2,0,B|428:88|472:208,1,180
312,279,206567,2,0,B|376:216,1,90,8|0
240,220,206981,2,0,B|144:256|120:364,1,180,0|8
132,84,207809,6,0,B|112:200,1,90,0|0
264,100,208222,2,0,B|360:128,1,90,8|0
232,224,208636,2,0,B|236:328|152:384,1,180,4|8
244,352,209257,2,0,B|332:320|444:368,1,180
472,284,209878,1,8
256,192,209981,12,8,211533
168,112,211740,37,0
140,196,211947,2,0,B|104:300,1,90,4|0
200,272,212360,1,8
268,332,212567,2,0,B|304:228,1,90
320,160,212981,1,0
320,160,213188,1,8
256,192,213395,12,8,215671
152,236,216084,6,0,B|100:232|60:256,1,90
148,152,216498,2,0,B|200:156|240:132,1,90,8|0
276,116,216809,1,0
316,96,216912,1,4
360,64,224360,6,0,B|288:136,1,90
165,172,224774,2,0,B|212:96,1,90,8|0
96,232,225188,2,0,B|112:312|196:352,1,135,4|0
212,320,225602,2,0,B|264:288|328:296,1,90,8|0
384,320,226016,1,0
440,248,226222,1,0
440,156,226429,1,8
440,156,226533,1,0
440,156,226636,1,0
384,84,226843,6,0,B|316:64|248:104,1,135,2|0
224,68,227257,2,0,B|152:104|128:184,1,135,8|0
88,164,227671,2,0,B|68:240|104:304,1,135
128,328,228084,1,8
128,328,228291,1,0
188,260,228498,38,0,B|228:208|276:196,1,90,4|0
380,200,228912,2,0,B|368:240|320:264,1,90,8|0
216,120,229326,2,0,B|184:84,2,45
52,196,229740,1,8
68,240,229843,1,0
88,280,229947,1,0
116,312,230050,1,0
156,336,230153,6,0,B|220:284|288:296,1,135,2|0
324,308,230567,2,0,B|372:248|452:232,1,135,8|0
464,200,230981,2,0,B|424:136|448:68,1,135
408,48,231395,1,8
228,40,231602,37,0
228,40,231809,2,0,B|200:132|88:168,1,180,4|8
268,338,232429,2,0,B|171:326|120:248,1,180
9,125,233050,2,0,B|36:212,1,90,8|0
120,248,233464,5,2
192,196,233671,1,0
220,112,233878,1,8
288,56,234084,2,0,B|360:72,2,45
408,188,234498,2,0,B|376:136,2,45,0|0|8
288,56,234912,37,0
256,232,235119,1,4
180,280,235326,1,0
92,284,235533,1,8
60,200,235740,6,0,B|44:144,2,45
164,52,236153,2,0,B|152:100,2,45,0|0|8
60,200,236567,37,0
236,156,236774,2,0,B|276:100|352:84,1,135,2|0
384,112,237188,2,0,B|480:140|500:204,1,135,8|0
464,220,237602,2,0,B|416:296,1,90
380,320,237912,1,0
336,324,238016,2,0,B|244:324,1,90,8|0
88,236,238429,6,0,B|120:172|204:160,1,135,2|0
192,116,238843,2,0,B|232:48|308:32,1,135,8|0
340,48,239257,2,0,B|428:96,1,90
452,124,239567,1,0
452,168,239671,2,0,B|452:268,1,90,8|0
284,328,240084,38,0,B|184:328,1,90,4|0
160,152,240498,2,0,B|56:152,1,90,8|0
232,228,240912,2,0,B|340:228,1,90
244,64,241326,2,0,B|144:64,1,90,8|0
324,128,241740,6,0,B|368:92,2,45,2|0|0
444,264,242153,2,0,B|480:308,2,45,8|0|0
272,316,242567,2,0,B|228:352,2,45
152,180,242981,1,8
152,180,243084,1,0
152,180,243188,1,0
152,180,243291,1,0
152,180,243395,38,0,B|88:152|64:72,1,135,4|0
104,52,243809,2,0,B|192:8,1,90,8|0
256,176,244222,1,0
388,52,244429,1,0
388,52,244533,1,0
388,52,244636,2,0,B|440:64|480:120,1,90,8|0
400,268,245050,6,0,B|320:272|272:356,1,135,4|0
244,344,245464,2,0,B|192:352|144:320,1,90,8|0
116,60,246084,1,0
256,192,246291,12,0,251671
