osu file format v7

[General]
AudioFilename: Sora no Mukouni.mp3
AudioLeadIn: 1996
PreviewTime: 59223
Countdown: 0
SampleSet: Soft
StackLeniency: 0.7
Mode: 0
LetterboxInBreaks: 1

[Editor]
DistanceSpacing: 1
BeatDivisor: 4
GridSize: 8

[Metadata]
Title:Sora no Mukouni
Artist:Okazaki Ritsuko
Creator:NatsumeRin
Version:Tortinita
Source:Symphonic Rain
Tags:kogado samipale ritz

[Difficulty]
HPDrainRate:4
CircleSize:4
OverallDifficulty:5
SliderMultiplier:1.1
SliderTickRate:2

[Events]
//Background and Video events
0,0,"dpcwp04.jpg"
Video,0,"SROP.flv"
//Break Periods
2,25138,30595
2,86637,92309
2,127995,136880
2,154994,159166
//Storyboard Layer 0 (Background)
//Storyboard Layer 1 (Fail)
//Storyboard Layer 2 (Pass)
//Storyboard Layer 3 (Foreground)
//Storyboard Sound Samples
//Background Colour Transformations
3,100,163,162,255

[TimingPoints]
938,428.571428571429,4,2,1,80,1,0
1045,-100,4,2,1,55,0,0
2116,-100,4,2,1,80,0,0
3188,-100,4,2,1,55,0,0
4259,-100,4,2,1,70,0,0
4473,-100,4,2,1,10,0,0
8652,-100,4,2,1,30,0,0
10366,-100,4,2,1,40,0,0
31581,-100,4,2,1,40,0,0
39402,-100,4,2,2,35,0,0
39616,-100,4,2,1,40,0,0
46259,-100,4,2,2,35,0,0
46474,-100,4,2,1,40,0,0
54831,-100,4,2,2,35,0,0
55045,-100,4,2,1,40,0,0
57295,-100,4,1,1,45,0,0
58474,-100,4,1,1,40,0,0
58902,-100,4,1,1,30,0,0
59116,-100,4,2,1,60,0,0
59224,-100,4,2,1,60,0,1
64259,-100,4,2,1,40,0,1
64474,-100,4,2,1,60,0,1
64688,-100,4,2,1,40,0,1
64902,-100,4,2,1,60,0,1
71974,-100,4,2,2,55,0,1
72188,-100,4,2,1,60,0,1
78830,-100,4,2,2,55,0,1
79045,-100,4,2,1,60,0,1
80545,-100,4,2,2,55,0,1
80759,-100,4,2,1,60,0,1
86652,-100,4,2,1,50,0,0
95437,-100,4,2,1,40,0,0
96723,-100,4,2,1,50,0,0
98866,-100,4,2,1,45,0,0
100152,-100,4,2,1,50,0,0
103580,-100,4,2,1,40,0,0
105295,-100,4,2,1,45,0,0
106152,-100,4,2,1,50,0,0
108830,-100,4,2,1,40,0,0
109688,-100,4,2,1,50,0,0
109902,-100,4,2,1,40,0,0
110438,-100,4,2,1,50,0,0
112152,-100,4,2,1,40,0,0
113009,-100,4,2,1,50,0,0
114830,-100,4,2,2,40,0,0
115045,-100,4,2,1,50,0,0
116545,-100,4,2,2,40,0,0
116759,-100,4,2,1,50,0,0
118259,-100,4,2,2,40,0,0
118473,-100,4,2,1,50,0,0
119545,-100,4,2,1,40,0,0
119973,-100,4,2,1,50,0,0
121688,-100,4,2,2,45,0,0
121902,-100,4,2,1,55,0,0
123402,-100,4,2,2,45,0,0
123616,-100,4,2,1,55,0,0
124473,-100,4,2,1,35,0,0
125116,-100,4,2,1,45,0,0
125545,-100,4,2,1,55,0,0
125866,-100,4,2,1,65,0,0
126188,-100,4,2,1,40,0,0
137652,-100,4,2,1,40,0,0
139795,-100,4,2,1,60,0,0
141509,-100,4,2,1,60,0,1
147402,-100,4,2,2,50,0,1
147616,-100,4,2,1,60,0,1
149116,-100,4,2,2,50,0,1
149330,-100,4,2,1,60,0,1
150830,-100,4,2,2,50,0,1
151045,-100,4,2,1,60,0,1
154795,-100,4,2,1,50,0,0
177723,-100,4,2,1,40,0,0
179009,-100,4,2,1,50,0,0
179652,-100,4,2,1,40,0,0
180509,-100,4,2,1,35,0,0
182438,-100,4,1,1,30,0,0

[Colours]
Combo1 : 147,0,147
Combo2 : 181,0,0
Combo3 : 0,0,145

[HitObjects]
176,112,509,1,2
176,112,723,1,0
176,112,937,2,0,B|256:64|352:120,2,165,0|0|0
336,272,3080,2,0,B|256:320|160:264,2,165,0|2|0
256,192,4580,12,0,7795
256,192,9509,5,0
176,72,11223,6,0,B|96:72|96:72,3,55,0|2|2|2
120,184,12295,2,0,C|184:184|184:184,2,55,0|0|2
64,184,12937,1,0
64,296,13366,1,0
120,296,13580,1,0
224,336,14009,2,0,C|248:352|272:336,1,55
312,304,14437,1,0
352,336,14652,6,0,B|416:368|472:336|496:272|448:200,1,220,2|0
376,144,15937,1,0
376,144,16152,1,0
376,144,16366,2,0,B|288:112|192:152,2,165,2|0|0
384,32,18080,6,0,B|344:24|304:24,1,55
272,24,18509,1,2
216,40,18723,1,2
88,144,19366,2,0,B|56:144|32:120,2,55,0|0|2
192,176,20223,1,2
192,176,20438,1,0
112,248,20866,1,0
112,248,21080,1,0
216,288,21509,6,0,B|280:320|344:304,1,110
304,360,22152,2,0,B|280:272|312:192,1,165,2|0
256,192,23223,12,2,24938
104,80,31795,5,0
136,296,32652,1,8
288,352,33295,2,0,B|288:288|288:288,1,55
400,296,33938,2,0,B|456:296|456:296,2,55,2|2|8
400,184,34795,1,0
400,184,35009,1,0
400,184,35223,6,0,B|456:168|496:104|456:40|392:24,1,220,0|8
256,112,36723,1,2
256,112,36938,1,0
112,32,37580,1,2
88,72,37795,1,8
64,112,38009,1,0
96,216,38438,1,0
96,216,38652,6,0,B|120:272|96:328,1,110
48,296,39295,2,0,B|128:280|216:312,1,165,0|2
256,336,40152,1,0
312,352,40366,2,0,B|384:352|384:352,3,55,0|0|0|2
424,352,41223,1,8
424,352,41438,1,2
448,248,41866,1,0
448,248,42080,6,0,B|400:168|448:88,1,165
445,91,42938,1,8
328,200,43580,2,0,B|264:200|264:200,1,55,2|0
200,56,44437,2,0,B|136:56|136:56,2,55,0|8|0
256,56,45080,2,0,B|312:56|312:56,1,55,0|0
368,56,45509,6,0,B|400:112|368:168,1,110
320,160,46152,2,0,B|288:216|320:272,1,110,2|0
392,344,47009,2,0,B|328:344,1,55
280,344,47437,2,0,B|208:344,1,55,2|2
168,344,47866,1,0
112,344,48080,1,8
72,184,48723,1,0
40,136,48937,6,0,B|16:112|16:64,2,55
72,184,49580,1,2
120,208,49795,1,8
176,208,50009,2,0,B|240:208|248:128,1,110,2|0
246,138,50652,1,0
120,32,51295,1,0
168,56,51509,1,8
216,32,51723,1,0
328,32,52152,1,0
368,72,52366,6,0,B|368:144|368:144,1,55
472,160,53009,2,0,B|472:224,3,55,0|8|0|0
472,272,53866,1,2
472,328,54080,2,0,B|424:352|352:328,1,110,0|0
312,320,54723,2,0,B|264:296|192:320,1,110
152,328,55366,1,2
256,192,55795,12,0,57509
104,72,57937,6,0,B|168:72|168:72,1,55,8|0
272,72,58580,2,0,B|344:72|344:72,2,55,0|8|0
240,112,59223,5,0
168,192,59652,1,2
136,240,59866,1,2
168,288,60080,1,8
272,320,60509,2,0,B|296:344|336:312,1,55,2|0
432,320,61152,2,0,B|504:320|504:320,2,55,0|2|0
432,264,61795,2,0,B|504:264,1,55,8|0
488,208,62223,2,0,B|424:208,1,55,0|2
376,208,62652,6,0,B|320:200|280:128|320:64|392:48,1,220,2|8
432,152,63937,1,0
464,200,64152,2,0,B|496:264,6,55,2|0|2|0|2|8|0
360,72,66080,6,0,B|320:88|296:64,1,55,0|0
256,48,66509,2,0,B|216:32|192:56,1,55,2|2
152,72,66937,2,0,B|112:88|88:64,1,55,8|2
40,160,67580,1,2
40,160,67795,1,0
88,192,68009,2,0,B|120:224|96:256,1,55,2|0
72,288,68437,1,0
80,344,68652,2,0,B|104:376|144:376,1,55,8|2
168,344,69080,2,0,B|264:232|392:456|488:320,1,330,0|8
488,288,70580,5,0
496,232,70795,1,0
472,184,71009,1,2
432,144,71223,2,0,B|384:96|320:80|272:88,2,165,2|2|0
400,248,72938,5,0
352,272,73152,1,2
296,280,73366,2,0,B|256:288|256:232,1,55,0|2
256,200,73795,1,8
256,144,74009,2,0,B|240:104|200:96,2,55,2|0|2
256,256,74866,1,0
256,256,75080,2,0,B|232:288|192:296,1,55,2|0
168,328,75509,2,0,B|136:320|112:280,1,55,8|0
40,232,76152,1,0
40,232,76366,6,0,B|40:176,1,55,0|2
40,120,76795,2,0,B|40:48,2,55,2|0|8
96,120,77438,1,0
176,192,77866,1,0
224,224,78080,1,2
280,224,78295,2,0,B|352:224|352:152,2,110,0|0|2
248,264,79366,1,0
208,304,79580,1,0
152,304,79795,6,0,B|112:296|88:264,1,55,0|2
80,232,80223,1,0
80,176,80438,2,0,B|128:104|224:96,1,165,2|2
272,80,81295,1,0
328,80,81509,2,0,B|368:80|400:104,1,55,0|2
424,120,81938,1,2
456,168,82152,2,0,B|480:192|488:232,1,55,0|8
480,272,82580,1,0
480,272,82795,1,0
256,192,83009,12,0,84938
200,128,85366,5,2
312,128,85795,1,2
284,234,86223,2,0,B|228:234,1,55,0|2
176,272,93509,6,0,B|120:304|64:264,2,110,2|0|8
256,192,94795,1,2
256,192,95009,1,0
408,136,95652,2,0,B|440:192|400:264,2,110,0|8|0
320,64,96937,5,0
216,32,97366,1,2
112,72,97795,1,8
64,168,98223,2,0,B|24:224|24:272|80:320|160:296,1,220,2|2
248,240,99509,1,8
248,352,99937,1,0
344,296,100366,6,0,B|456:296,1,110,2|0
454,296,101223,1,0
424,192,101652,2,0,B|424:128,1,55,2|0
272,64,102509,2,0,B|152:64,1,110,0|8
64,264,103795,5,0
112,168,104223,1,2
160,264,104652,1,8
216,360,105080,1,2
272,264,105509,2,0,B|320:232|384:264,1,110,2|0
432,360,106366,2,0,B|472:304,3,55,8|0|2|2
480,264,107223,6,0,B|488:216|464:152,1,110,0|0
448,104,107866,1,0
424,56,108080,2,0,B|368:80|288:64,1,110,8|2
264,56,108723,1,0
208,48,108938,2,0,B|168:48|144:72,1,55
112,88,109366,2,0,B|80:112|80:136,1,55,2|0
80,184,109795,1,8
80,184,110009,1,0
200,296,110652,6,0,B|256:320|328:288,3,110,0|2|8|2
256,192,112366,2,0,B|256:80,1,110
256,192,113223,1,8
256,192,113652,1,0
152,240,114080,6,0,B|176:312|256:344|336:320|360:232,1,275,2|0
376,200,115366,1,2
376,160,115580,1,2
360,120,115795,1,0
312,240,116438,2,0,B|200:240,1,110,2|2
152,120,117509,6,0,B|176:48|256:16|336:40|360:128,1,275,2|0
368,160,118795,1,2
376,200,119009,2,0,B|384:256,3,55,0|2|0|0
384,296,119866,1,0
360,336,120080,2,0,B|328:360|288:360,1,55,8|2
264,360,120509,2,0,B|216:368|184:352,1,55
168,352,120938,6,0,B|96:328|64:248|88:168|176:144,1,275,2|0
208,128,122223,1,2
248,112,122438,1,0
288,96,122652,2,0,B|384:72|472:72,2,165,2|0|2
256,16,124366,6,0,B|256:80,6,55,2|0|0|0|8|0|8
256,16,126080,5,2
256,192,126295,12,0,127795
80,104,138080,5,6
256,192,138723,1,4
432,104,139366,1,6
200,56,140223,2,0,B|256:32|328:64,1,110,2|8
307,55,140866,1,0
456,120,141509,6,0,B|456:176,3,55,0|0|2|2
424,216,142366,2,0,B|424:280,1,55,8|2
328,320,143009,2,0,B|288:360|224:360,1,110,0|2
176,360,143652,1,0
120,360,143866,2,0,B|56:360,2,55,0|8|0
176,264,144723,1,0
120,264,144938,6,0,B|80:264|88:224,1,55,0|2
88,176,145366,1,2
88,120,145580,2,0,B|88:80|48:88,2,55,0|8|0
136,104,146223,1,0
192,88,146438,1,2
248,72,146652,2,0,B|304:48|376:48,1,110,2|0
320,8,147295,2,0,B|304:72|328:144,1,110
336,168,147938,1,2
360,216,148152,1,2
400,248,148366,6,0,B|440:272|432:304,1,55,0|2
408,336,148795,1,0
360,360,149009,2,0,B|312:320|240:400|184:344,1,165,2|2
144,352,149866,2,0,B|88:360|56:336|48:296|56:248,1,165
80,200,150723,2,0,B|104:144|168:128,2,110,2|0|0
256,192,151795,12,0,153509
184,112,154152,6,0,B|224:64|288:64|328:112,1,165,0|2
184,272,160366,6,0,B|224:320|288:320|328:272,2,165,0|0|2
256,192,162080,12,0,163795
256,192,165509,5,0
72,240,166580,1,0
104,288,166795,1,0
152,320,167009,1,0
208,336,167223,2,0,B|272:368|384:360,2,165,2|0|0
280,256,168938,5,0
328,160,169366,2,0,B|368:208,1,55,2|0
456,144,170009,2,0,B|416:96,1,55,0|2
320,56,170652,1,0
264,56,170866,2,0,B|200:56,2,55,0|2|0
376,56,171723,1,0
416,96,171938,1,2
472,192,172366,6,0,B|528:264|488:376|392:400|296:336,1,330
256,312,173866,1,0
208,280,174080,1,2
160,312,174295,2,0,B|120:336|48:336,2,110,0|0|2
208,280,175366,1,0
248,240,175580,1,0
256,192,175795,12,0,177509
160,240,177938,6,0,B|208:288,1,55,2|0
312,280,178580,2,0,B|360:232,1,55,0|2
256,192,179223,5,2
256,192,180080,1,8
204,64,180938,6,0,B|260:32|324:72,3,110,0|2|2|0
256,160,182652,1,4
