osu file format v7

[General]
AudioFilename: Sora no Mukouni.mp3
AudioLeadIn: 1996
PreviewTime: 59222
Countdown: 0
SampleSet: Soft
StackLeniency: 0.7
Mode: 0
LetterboxInBreaks: 1

[Editor]
Bookmarks: 127795,158652
DistanceSpacing: 1.60000002384186
BeatDivisor: 8
GridSize: 8

[Metadata]
Title:Sora no Mukouni
Artist:Okazaki Ritsuko
Creator:NatsumeRin
Version:Phorni
Source:Symphonic Rain
Tags:kogado samipale ritz

[Difficulty]
HPDrainRate:7
CircleSize:5
OverallDifficulty:7
SliderMultiplier:2
SliderTickRate:2

[Events]
//Background and Video events
0,0,"dpcwp04.jpg"
Video,0,"SROP.flv"
//Break Periods
2,25137,30680
2,87708,92608
2,127993,140608
//Storyboard Layer 0 (Background)
//Storyboard Layer 1 (Fail)
//Storyboard Layer 2 (Pass)
//Storyboard Layer 3 (Foreground)
//Storyboard Sound Samples
//Background Colour Transformations
3,100,163,162,255

[TimingPoints]
938,428.571428571429,4,2,1,90,1,0
1045,-100,4,2,1,70,0,0
2116,-100,4,2,1,85,0,0
3188,-100,4,2,1,70,0,0
4259,-100,4,2,1,80,0,0
4473,-100,4,2,1,0,0,0
6723,-200,4,2,1,35,0,0
10795,-200,4,2,1,40,0,0
21723,-200,4,2,1,30,0,0
23009,-200,4,2,1,40,0,0
24509,1714.28571428571,4,2,1,40,1,0
31794,428.571428571429,4,2,1,40,1,0
57401,-100,4,1,1,35,0,0
57615,-100,4,1,1,40,0,0
58258,-100,4,1,1,45,0,0
58579,-100,4,1,1,50,0,0
58794,-100,4,1,1,55,0,0
59169,-100,4,2,1,60,0,0
59222,-100,4,2,1,50,0,1
59329,-100,4,2,1,60,0,1
73686,-100,4,2,2,60,0,1
73901,-100,4,2,1,60,0,1
80544,-100,4,2,2,60,0,1
80758,-100,4,2,1,60,0,1
86651,-100,4,2,1,55,0,0
141508,-100,4,2,1,60,0,1
154794,-100,4,2,1,60,0,0
182865,-100,4,2,1,0,0,0

[Colours]
Combo1 : 147,0,147
Combo2 : 181,0,0
Combo3 : 0,0,145

[HitObjects]
237,76,509,1,2
157,85,723,1,0
119,156,938,2,0,B|91:341|283:365,2,300
442,255,3080,2,0,B|470:70|278:46,2,300,0|2|0
256,192,4580,12,0,6509
416,280,6937,6,0,B|384:296|352:264|312:280,1,100,0|0
257,277,7580,1,2
257,277,7795,1,0
230,286,8652,1,0
202,292,9509,1,0
144,72,11223,5,0
96,136,11438,1,2
152,192,11652,1,0
96,248,11866,2,0,B|80:304|136:344,1,100,2|0
200,304,12509,1,2
272,336,12723,2,0,B|328:320|328:248,1,100
256,232,13366,1,2
216,160,13580,2,0,B|200:104|272:64,1,100
328,104,14223,1,2
328,104,14438,1,0
328,104,14652,2,0,B|472:168,1,150
424,232,15509,1,2
296,320,15938,5,0
296,320,16152,1,0
296,320,16366,2,0,B|248:224,1,100,2|0
176,264,17009,2,0,B|128:216|168:168,1,100,2|0
104,120,17652,2,0,B|136:96|168:104,1,50
224,120,18080,5,2
232,200,18295,1,0
296,248,18509,1,2
368,272,18723,2,0,B|424:288|472:240,1,100,2|0
488,176,19366,1,0
456,104,19580,2,0,B|416:62|360:57,1,100,2|0
304,104,20223,1,2
256,168,20438,6,0,B|232:221|281:265,1,100,0|2
348,290,21080,2,0,B|316:337|264:336,1,100
126,252,21938,1,0
126,252,22152,1,2
92,95,22580,1,0
164,61,22795,1,2
328,88,23223,6,0,B|384:112|416:168,1,100
328,168,23866,2,0,B|344:216|408:248,1,100
464,272,24509,2,0,B|456:312|392:328,1,50,2|0
344,56,31580,5,2
392,120,31794,2,0,B|432:208|436:321,2,200,0|2|8
312,128,32865,1,0
240,88,33079,2,0,B|134:87|33:112,2,200,0|0|2
200,160,34151,1,0
279,153,34365,1,8
340,101,34579,1,0
414,130,34793,2,0,B|430:178|414:234,1,100,2|0
337,211,35222,6,0,B|321:259|337:315,2,100
280,153,35865,1,2
206,120,36079,2,0,B|126:48|22:24,2,200,8|2|0
249,187,37151,1,0
282,114,37365,2,0,B|322:90|386:98,1,100,0|2
434,154,37793,1,10
407,229,38008,1,0
375,254,38115,1,0
335,258,38222,1,2
257,235,38436,1,0
233,311,38651,6,0,B|131:333|32:316,2,200,0|0|8
257,234,39722,1,2
334,213,39936,2,0,B|388:309|496:336,2,200,0|0|2
339,133,41008,1,0
279,80,41222,2,0,B|219:81|168:120,1,100,8|0
251,151,41651,2,0,B|200:187|128:178,1,100,2|0
87,219,42079,6,0,B|144:263|284:260,1,200
287,340,42722,1,2
367,334,42936,2,0,B|447:262|431:142,1,200,8|0
360,104,43579,1,2
272,104,43793,2,0,B|222:90|184:48,2,100,2|0|2
303,177,44436,1,0
231,212,44651,1,10
151,220,44865,1,2
112,210,44972,1,0
82,183,45079,1,2
71,103,45293,1,0
141,64,45508,6,0,B|269:56|349:96,2,200,0|0|10
172,137,46579,1,0
226,195,46793,1,2
305,186,47008,1,0
381,210,47222,2,0,B|356:319|245:354,2,200,0|2|10
405,133,48293,1,2
330,105,48508,2,0,B|233:59|122:81,1,200
80,137,49151,5,0
127,201,49365,2,0,B|100:247|31:265,2,100,2|2|10
168,128,50008,1,0
240,80,50222,2,0,B|336:122|400:216,1,200,2|0
328,253,50865,1,0
353,328,51079,2,0,B|303:357|245:346,1,100,2|2
190,304,51508,1,8
112,323,51722,1,0
78,301,51829,1,0
63,263,51936,1,2
32,189,52151,1,0
73,120,52365,6,0,B|174:90|281:104,2,200,2|0|10
134,172,53436,1,0
66,214,53651,1,0
124,268,53865,2,0,B|228:284|340:244,1,200,2|0
280,184,54508,1,0
200,168,54722,2,0,B|277:96|392:104,1,200,2|0
450,60,55365,2,0,B|488:168|421:262,1,200,2|0
357,291,56008,5,0
379,214,56222,2,0,B|320:211|267:254,1,100,0|2
238,306,56651,1,8
162,332,56865,1,2
94,289,57079,2,0,B|78:169|158:97,1,200
202,43,57722,1,0
241,36,57829,1,0
280,41,57936,1,8
339,94,58151,1,0
301,164,58365,5,0
299,203,58472,1,0
288,241,58579,1,0
273,278,58686,1,0
249,310,58793,1,8
216,336,58901,1,0
177,344,59008,1,0
137,337,59115,1,0
99,324,59222,6,0,B|51:236|83:124,1,200,4|2
129,65,59865,1,0
208,61,60079,2,0,B|233:164|187:267,1,200,8|0
123,299,60722,1,2
191,340,60936,2,0,B|292:358|389:312,1,200,0|2
441,255,61579,1,0
492,193,61793,2,0,B|385:162|284:209,1,200,8|0
233,253,62436,1,2
155,233,62651,6,0,B|77:169|51:57,2,200,0|0|10
209,174,63722,1,0
157,112,63936,2,0,B|252:77|357:88,1,200,2|0
380,162,64579,1,2
451,197,64793,2,0,B|436:309|315:349,1,200,0|8
250,339,65436,2,0,B|146:323,2,100,0|2|0
213,267,66079,6,0,B|314:292|421:283,1,200
374,212,66722,1,2
452,229,66936,2,0,B|511:140|484:13,1,200,8|2
423,84,67579,1,0
346,59,67793,2,0,B|239:53|143:107,2,200,0|0|8
304,127,68865,1,2
241,176,69079,2,0,B|321:230|433:232,1,200,0|2
375,290,69722,6,0,B|481:313,2,100
299,317,70365,1,10
220,300,70579,1,0
150,260,70793,1,0
98,198,71008,1,2
79,120,71222,2,0,B|172:71|287:88,1,200,2|0
229,153,71865,2,0,B|331:175|437:129,1,200,2|0
439,55,72508,2,0,B|485:87|495:151,1,100
438,194,72936,6,0,B|443:250|502:282,2,100,0|2|0
395,261,73579,2,0,B|315:197|331:69,1,200,2|2
250,93,74222,1,0
188,41,74436,2,0,B|156:137|220:249,1,200
132,228,75079,1,2
74,284,75294,1,0
149,309,75508,2,0,B|232:357|349:349,1,200,8|0
304,278,76151,1,0
382,294,76365,6,0,B|454:214|446:94,1,200,2|0
373,142,77008,1,0
296,120,77222,2,0,B|248:24,2,100,8|0|2
216,128,77865,1,0
151,81,78079,2,0,B|99:116|127:177,1,100,2|0
57,215,78508,2,0,B|68:275|137:271,1,100,0|2
166,342,78936,2,0,B|366:310,1,200,8|2
433,272,79579,1,0
381,210,79794,6,0,B|469:146,2,100,0|2|2
300,205,80436,2,0,B|260:109|156:53,1,200,2|2
88,68,81079,1,0
55,141,81294,2,0,B|88:241|191:293,1,200
192,209,81936,1,2
242,270,82151,2,0,B|275:308|346:326,2,100,0|8|2
312,232,82794,2,0,B|367:243|408:280,1,100
450,338,83222,6,0,B|506:258|458:138,1,200,2|0
412,82,83865,1,0
342,41,84079,2,0,B|286:137|350:257,1,200,10|0
293,299,84722,1,0
218,328,84936,5,0
178,323,85044,1,0
143,302,85151,1,0
93,239,85365,1,0
37,181,85579,1,2
77,111,85794,1,10
155,126,86008,1,0
166,205,86222,1,2
232,159,86436,1,2
221,79,86651,2,0,B|467:125|422:378,1,400,0|8
104,80,93508,6,0,B|39:163|56:280,1,200,2|0
66,347,94151,1,0
144,352,94365,2,0,B|201:272|176:152,1,200,8|0
132,98,95008,1,2
211,95,95222,2,0,B|315:71,2,100
177,168,95865,1,2
220,235,96079,2,0,B|292:331|402:286,1,200,8|2
439,221,96722,1,0
435,140,96936,6,0,B|403:100|339:100,1,100
266,101,97365,2,0,B|281:54|341:36,2,100,0|2|8
187,118,98008,1,2
124,167,98222,2,0,B|212:231|324:199,1,200
323,281,98865,1,0
375,220,99079,2,0,B|431:204|471:244,1,100,2|0
402,287,99508,2,0,B|500:339,2,100,8|2|0
339,236,100151,1,2
349,156,100365,6,0,B|242:184|189:276,1,200,2|0
270,285,101008,1,0
218,346,101222,2,0,B|102:346|66:230,1,200,8|0
106,166,101865,1,2
125,88,102079,2,0,B|37:27,2,100,0|0|2
180,145,102722,1,0
220,214,102936,2,0,B|316:268|412:203,1,200,8|2
468,151,103579,1,0
432,79,103794,6,0,B|372:90|336:143,1,100
270,101,104222,2,0,B|231:142|238:205,1,100,2|2
157,203,104651,2,0,B|108:228|101:283,1,100,8|0
157,338,105079,2,0,B|256:348|357:322,1,200,2|0
415,268,105722,1,0
397,189,105936,2,0,B|413:85,2,100,2|0|8
334,239,106579,1,2
293,238,106686,1,0
259,216,106794,1,2
219,146,107008,1,0
154,98,107222,5,2
119,170,107436,2,0,B|47:242,2,100,0|2|0
195,191,108079,2,0,B|132:236|178:335|267:306,1,200,8|2
333,347,108722,1,0
388,289,108936,2,0,B|492:289,2,100,0|2|2
320,248,109579,1,0
395,218,109794,2,0,B|451:125|385:17,1,200,10|0
348,95,110436,1,0
280,51,110651,6,0,B|220:72|207:126,1,100,0|2
280,157,111079,2,0,B|246:201|183:200,1,100,0|2
132,147,111508,2,0,B|72:245|156:339,1,200,8|2
227,312,112151,1,0
294,355,112365,2,0,B|398:355,2,100,0|0|2
292,274,113008,1,2
363,237,113222,1,2
371,197,113329,1,0
379,157,113436,1,8
369,77,113651,2,0,B|258:89|164:137,1,200,0|2
78,276,114508,5,0
153,302,114722,1,0
229,325,114936,2,0,B|357:317,1,100,8|0
386,103,115579,1,0
309,79,115794,1,2
229,85,116008,1,0
158,48,116222,2,0,B|63:111|60:216,1,200,2|8
248,320,117079,6,0,B|338:268|360:140,1,200,0|2
304,8,117936,1,0
144,40,118365,2,0,B|53:91|30:218,1,200,8|0
80,264,119008,1,0
158,246,119222,2,0,B|206:142,2,100,2|0|2
192,318,119865,1,0
270,332,120079,2,0,B|464:241,1,200,8|2
418,173,120722,1,0
409,93,120936,6,0,B|281:141,1,100
278,57,121365,2,0,B|192:137,1,100,0|2
154,187,121794,2,0,B|66:140,2,100,8|0|2
132,264,122436,1,2
193,315,122651,2,0,B|289:267,1,100,0|2
348,315,123079,1,10
407,261,123294,2,0,B|460:173,1,100,2|0
391,131,123722,2,0,B|479:67,2,100,2|2|2
313,110,124365,6,0,B|212:70,2,100,2|0|0
251,161,125008,1,2
171,170,125222,2,0,B|99:242,2,100,8|2|10
188,248,125865,1,0
213,279,125972,1,0
250,291,126079,1,2
327,310,126294,1,0
400,279,126508,5,2
422,246,126615,1,2
432,207,126722,1,2
432,167,126829,1,0
413,131,126936,1,2
384,102,127044,1,2
348,83,127151,1,2
308,74,127258,1,2
268,66,127365,2,0,B|166:42|70:92,1,200
103,149,141508,6,0,B|79:37,2,100,0|2|0
166,198,142151,1,2
112,257,142365,2,0,B|200:309|318:288,1,200,8|2
279,214,143008,1,0
354,239,143222,2,0,B|426:151|370:15,1,200,0|0
303,65,143865,1,0
225,44,144079,2,0,B|105:44,2,100,10|0|0
185,113,144722,1,2
125,166,144936,6,0,B|221:198|357:198,1,200
273,260,145579,1,2
335,310,145794,2,0,B|431:254,1,100,8|0
348,226,146222,2,0,B|444:154,1,100
445,87,146651,2,0,B|337:64|237:103,1,200,2|0
170,119,147294,1,0
122,182,147508,2,0,B|82:302,2,100,8|0|2
174,243,148151,1,2
243,283,148365,6,0,B|256:344|316:359,1,100
384,349,148794,2,0,B|440:264|427:136,1,200,2|8
400,80,149436,1,0
335,32,149651,2,0,B|272:29|241:72,1,100,0|2
306,109,150079,2,0,B|274:154|209:144,1,100
141,121,150508,2,0,B|101:217|141:329,1,200,2|8
216,311,151151,1,0
288,345,151365,2,0,B|400:353,2,100,2|0|0
289,267,152008,5,0
367,284,152222,2,0,B|407:148,1,100,2|2
318,211,152651,2,0,B|366:107,1,100,10|0
286,152,153079,2,0,B|230:48,1,100,2|0
159,50,153508,1,0
97,101,153722,1,0
80,136,153829,1,0
84,180,153936,1,2
102,256,154151,1,2
173,292,154365,1,8
251,307,154579,1,0
323,273,154794,1,2
432,96,155222,6,0,B|334:24|146:24|51:98,1,400,0|8
184,192,156508,1,0
63,301,156936,2,0,B|161:373|349:373|444:299,1,400,0|8
328,192,158222,1,0
441,88,158651,2,0,B|343:16|155:16|62:88,1,400,0|8
184,192,159936,1,0
62,296,160365,2,0,B|134:376|248:350,2,200,0|2|8
184,192,161651,1,2
59,93,162079,6,0,B|151:20|339:20|437:92,1,400,0|8
312,192,163365,1,0
437,289,163794,2,0,B|339:361|151:361|56:287,1,400,0|8
184,192,165079,1,0
58,96,165508,2,0,B|150:23|338:23|436:95,1,400,0|8
312,192,166794,1,0
380,334,167222,6,0,B|463:263,2,100,2|0|0
300,320,167865,2,0,B|198:287,1,100,2|8
137,333,168294,1,0
98,322,168401,1,0
74,289,168508,1,2
107,216,168722,1,0
45,164,168936,6,0,B|149:100|277:108,1,200
314,113,169579,1,0
393,124,169794,2,0,B|369:228|241:260,1,200,8|0
201,197,170436,1,0
164,268,170651,2,0,B|228:356,2,100,0|2|0
85,252,171294,1,2
83,172,171508,2,0,B|157:83|283:84,1,200,8|0
328,104,172151,1,0
406,91,172365,6,0,B|462:187|440:291,1,200
374,239,173008,1,0
442,282,173222,2,0,B|357:344|242:334,1,200,8|0
223,260,173865,1,0
149,291,174079,2,0,B|49:368,2,100,2|0|2
160,211,174722,1,2
236,187,174936,1,8
175,134,175151,1,0
135,135,175258,1,2
100,155,175365,1,2
32,198,175579,1,0
30,117,175794,6,0,B|134:53|262:61,1,200
293,90,176436,1,0
361,131,176651,2,0,B|289:199|171:209,1,200,8|0
116,256,177293,1,0
189,287,177508,2,0,B|122:367,2,100,0|2|2
268,277,178151,1,2
329,328,178365,2,0,B|439:320|477:205,1,200,8|0
478,130,179008,1,0
432,64,179222,6,0,B|331:21|219:51,1,200,0|2
189,111,179865,1,0
268,120,180079,2,0,B|224:217|92:224,1,200,8|0
62,289,180722,1,0
140,301,180936,2,0,B|234:349,2,100,0|2|2
77,250,181579,1,0
33,183,181793,2,0,B|90:99|223:74,1,200,8|0
358,93,182651,1,4
256,192,183079,12,0,187793
