osu file format v14

[General]
AudioFilename: Yasuyuki Okamura-Viva Namida (TV size).mp3
AudioLeadIn: 1500
PreviewTime: 52949
Countdown: 0
SampleSet: Normal
StackLeniency: 0.2
Mode: 0
LetterboxInBreaks: 1
WidescreenStoryboard: 1

[Editor]
Bookmarks: 7041,21819,23226,38238,53249,83156
DistanceSpacing: 1
BeatDivisor: 4
GridSize: 4
TimelineZoom: 1

[Metadata]
Title:Viva Namida
TitleUnicode:ビバナミダ
Artist:Okamura Yasuyuki
ArtistUnicode:岡村靖幸
Creator:Don
Version:Normal
Source:スペース☆ダンディ
Tags:Opening Anime Japanese Space☆Dandy Space Dandy
BeatmapID:498449
BeatmapSetID:211977

[Difficulty]
HPDrainRate:4
CircleSize:3.5
OverallDifficulty:4
ApproachRate:6
SliderMultiplier:1.6
SliderTickRate:2

[Events]
//Background and Video events
Video,0,"Space Dandy OP.avi"
0,0,"dgdg875_anime_wallpaper_Space_Dandy_20306.jpg",0,0
//Break Periods
//Storyboard Layer 0 (Background)
//Storyboard Layer 1 (Fail)
//Storyboard Layer 2 (Pass)
//Storyboard Layer 3 (Foreground)
//Storyboard Sound Samples

[TimingPoints]
684,468.75,4,1,0,65,1,0
53184,-100,4,1,0,65,0,1
64434,-100,4,1,0,65,0,0
68184,-100,4,1,0,65,0,1
79434,-100,4,1,0,65,0,0
83184,-100,4,1,0,65,0,1
83301,-100,4,1,0,65,0,0

[HitObjects]
64,80,684,6,0,B|140:48|140:104|228:72,1,160,4|8,0:0|0:0,0:0:0:0:
284,124,1387,1,0,0:0:0:0:
308,200,1621,2,0,P|360:145|342:71,1,160,0|8,0:0|0:0,0:0:0:0:
180,76,2559,6,0,L|152:236,1,160,2|8,0:0|0:0,0:0:0:0:
216,296,3262,2,0,L|244:132,1,160,2|0,0:0|0:0,0:0:0:0:
286,70,3965,1,8,0:0:0:0:
326,140,4199,1,0,0:0:0:0:
366,70,4434,6,0,P|404:125|370:207,1,160,2|8,0:0|0:0,0:0:0:0:
312,256,5137,2,0,P|234:235|148:270,1,160,2|0,0:0|0:0,0:0:0:0:
115,325,5840,1,8,0:0:0:0:
84,252,6074,1,0,0:0:0:0:
36,316,6309,6,8,P|20:208|127:185,2,240,2|2|4,0:0|0:0|0:0,0:0:0:0:
192,322,8184,5,4,0:0:0:0:
268,344,8418,1,0,0:0:0:0:
251,266,8652,2,0,L|252:187,1,80,8|0,0:0|0:0,0:0:0:0:
178,153,9121,2,0,P|213:114|262:106,1,80
252,186,9590,2,0,P|302:199|333:238,1,80,8|0,0:0|0:0,0:0:0:0:
394,184,10059,2,0,P|393:262|321:300,1,160,0|8,0:0|0:0,0:0:0:0:
191,258,10996,6,0,P|165:220|165:168,1,80
240,194,11465,2,0,P|265:155|266:104,1,80,8|0,0:0|0:0,0:0:0:0:
195,88,11934,2,0,P|260:40|329:67,1,160,0|8,0:0|0:0,0:0:0:0:
353,225,12871,6,0,L|264:273,1,80
229,202,13340,2,0,L|140:250,1,80,8|0,0:0|0:0,0:0:0:0:
147,319,13809,2,0,P|91:284|108:180,1,160,0|8,0:0|0:0,0:0:0:0:
46,131,14512,2,0,B|123:93|123:153|200:117,1,160,2|2,0:0|0:0,0:0:0:0:
156,49,15215,1,10,0:0:0:0:
309,82,15684,6,0,P|313:144|277:173,1,80
368,203,16152,2,0,P|340:231|302:235,1,80,8|0,0:0|0:0,0:0:0:0:
252,300,16621,2,0,P|223:272|219:234,1,80,0|0,0:0|0:0,0:0:0:0:
160,180,17090,1,8,0:0:0:0:
80,167,17324,2,0,P|115:111|228:135,1,160,2|2,0:0|0:0,0:0:0:0:
348,176,18262,5,0,0:0:0:0:
401,234,18496,2,0,P|349:258|313:246,1,80
250,237,18965,2,0,P|210:235|177:257,1,80,8|0,0:0|0:0,0:0:0:0:
137,325,19434,6,0,P|102:281|137:190,1,160,0|8,0:0|0:0,0:0:0:0:
177,257,20137,1,0,0:0:0:0:
226,193,20371,2,0,P|248:152|305:136,2,80,0|0|8,0:0|0:0|0:0,2:0:0:0:
302,210,21074,2,0,P|252:268|177:256,1,160,2|2,0:0|0:0,0:0:0:0:
57,146,22012,6,0,P|21:163|1:198,1,80
77,224,22480,2,0,P|66:261|79:299,1,80,8|8,0:0|0:0,0:0:0:0:
236,276,23184,6,0,L|325:300,1,80
358,230,23652,2,0,L|280:209,1,80,8|0,0:0|0:0,0:0:0:0:
199,201,24121,2,0,P|152:271|178:337,1,160,0|8,0:0|0:0,0:0:0:0:
236,276,24824,2,0,P|281:204|255:141,1,160,0|0,0:0|0:0,0:0:0:0:
175,121,25527,1,8,0:0:0:0:
231,65,25762,2,0,P|118:66|114:171,1,240,0|8,0:0|0:0,0:0:0:0:
267,209,26934,6,0,P|302:227|341:223,1,80,0|0,0:0|0:0,0:0:0:0:
396,162,27402,2,0,P|360:144|321:149,1,80,8|0,0:0|0:0,0:0:0:0:
284,75,27871,2,0,P|239:137|267:209,1,160,0|8,0:0|0:0,0:0:0:0:
301,283,28574,2,0,P|347:221|321:149,2,160,0|2|4,0:0|0:0|0:0,0:0:0:0:
170,189,29980,5,0,0:0:0:0:
132,118,30215,2,0,P|99:147|87:184,2,80,8|0|4,0:0|0:0|0:0,0:0:0:0:
271,39,31152,2,0,P|308:51|332:83,1,80,8|0,0:0|0:0,0:0:0:0:
261,117,31621,2,0,P|271:155|258:192,2,80,0|0|8,0:0|0:0|0:0,0:0:0:0:
190,152,32324,6,0,P|184:227|215:260,2,120,0|0|8,0:0|0:0|0:0,0:0:0:0:
258,192,33262,2,0,P|285:297|177:333,1,240,0|8,0:0|0:0,0:0:0:0:
212,256,34199,6,0,L|354:332,1,160
426,300,34902,1,8,0:0:0:0:
371,241,35137,1,0,0:0:0:0:
417,176,35371,2,0,P|408:119|425:87,2,80,0|0|8,0:0|0:0|0:0,0:0:0:0:
474,232,36074,1,0,0:0:0:0:
256,192,36309,12,4,38184,0:0:0:0:
172,224,38887,5,0,0:0:0:0:
96,204,39121,2,0,P|132:156|239:182,1,160,0|8,0:0|0:0,0:0:0:0:
291,207,39824,2,0,P|365:222|418:167,1,160,0|0,0:0|0:0,0:0:0:0:
341,143,40527,1,8,0:0:0:0:
237,26,40996,6,0,P|199:15|161:25,1,80
196,96,41465,2,0,P|167:121|156:159,1,80,8|0,0:0|0:0,0:0:0:0:
231,163,41934,6,0,P|200:222|106:216,1,160,0|8,0:0|0:0,0:0:0:0:
157,160,42637,2,0,P|44:193|94:297,2,240,0|8|2,0:0|0:0|0:0,0:0:0:0:
238,335,44512,5,2,0:0:0:0:
314,197,44980,1,2,0:0:0:0:
157,162,45449,5,2,0:0:0:0:
82,131,45684,2,0,P|89:207|158:243,1,160,4|8,0:0|0:0,0:0:0:0:
226,279,46387,1,0,0:0:0:0:
271,211,46621,2,0,P|308:278|266:351,1,160,0|8,0:0|0:0,0:0:0:0:
226,279,47324,6,0,P|194:235|238:137,1,160
299,108,48027,1,8,0:0:0:0:
370,143,48262,2,0,L|442:101,2,80,0|0|0,0:0|0:0|0:0,0:0:0:0:
338,216,48965,1,8,0:0:0:0:
406,256,49199,6,0,P|339:296|271:257,1,160
214,205,49902,1,8,0:0:0:0:
151,255,50137,1,0,0:0:0:0:
140,175,50371,2,0,P|182:130|223:125,2,80,0|0|8,0:0|0:0|0:0,0:0:0:0:
256,192,51074,12,0,52715,0:0:0:0:
196,236,53184,6,0,L|139:162,1,80,4|0,0:0|0:0,0:0:0:0:
76,135,53652,1,8,0:0:0:0:
145,94,53887,1,0,0:0:0:0:
75,55,54121,2,0,P|140:14|217:59,1,160,0|8,0:0|0:0,0:0:0:0:
258,109,54824,1,0,0:0:0:0:
312,50,55059,6,0,P|377:9|455:54,2,160,0|8|0,0:0|0:0|0:0,0:0:0:0:
382,87,56230,1,0,0:0:0:0:
430,150,56465,2,0,P|396:168|357:162,1,80,8|0,0:0|0:0,0:0:0:0:
344,241,56934,6,0,P|289:208|297:112,2,160,0|8|0,0:0|0:0|0:0,0:0:0:0:
419,213,58105,1,0,0:0:0:0:
422,293,58340,1,8,0:0:0:0:
490,251,58574,6,0,P|465:145|357:162,1,240,0|8,0:0|0:0,0:0:0:0:
316,312,59746,2,0,L|226:345,1,80
188,278,60215,2,0,L|112:305,1,80,8|0,0:0|0:0,0:0:0:0:
49,254,60684,6,0,P|30:320|107:385,2,160,4|8|0,0:0|0:0|0:0,0:0:0:0:
85,182,61855,1,0,0:0:0:0:
130,248,62090,1,8,0:0:0:0:
188,193,62324,6,0,P|206:270|154:324,2,160,2|0|2,0:0|0:0|0:0,0:0:0:0:
202,114,63496,1,0,0:0:0:0:
127,141,63730,1,0,0:0:0:0:
94,67,63965,2,8,P|61:89|48:126,1,80
168,234,64668,6,0,P|148:277|96:308,2,80,2|0|2,0:0|0:0|0:0,0:0:0:0:
328,232,65605,2,0,P|348:275|400:306,2,80,2|0|2,0:0|0:0|0:0,0:0:0:0:
286,77,66543,6,0,L|195:22,1,80,2|0,0:0|0:0,0:0:0:0:
205,114,67012,2,0,L|136:72,1,80,2|0,0:0|0:0,0:0:0:0:
78,17,67480,2,2,P|56:86|111:148,1,160,6|2,0:0|0:0,0:0:0:0:
57,209,68184,5,4,0:0:0:0:
135,228,68418,1,0,0:0:0:0:
138,307,68652,2,0,P|176:300|204:272,1,80,8|0,0:0|0:0,0:0:0:0:
135,228,69121,2,0,P|200:188|271:227,1,160,0|8,0:0|0:0,0:0:0:0:
282,301,69824,1,0,0:0:0:0:
215,347,70059,6,0,P|281:385|348:348,2,160,0|8|0,0:0|0:0|0:0,0:0:0:0:
205,267,71230,1,0,0:0:0:0:
142,317,71465,1,8,0:0:0:0:
128,238,71699,1,0,0:0:0:0:
62,285,71934,6,0,P|73:180|189:186,1,240,2|2,0:0|0:0,0:0:0:0:
213,256,72871,2,0,P|246:234|263:198,1,80
323,145,73340,1,8,0:0:0:0:
248,114,73574,6,0,P|291:70|385:92,1,160
457,121,74277,1,8,0:0:0:0:
398,176,74512,2,0,P|354:219|261:198,1,160
225,133,75215,1,8,0:0:0:0:
185,205,75449,1,0,0:0:0:0:
137,141,75684,6,0,P|104:209|153:281,1,160,0|8,0:0|0:0,0:0:0:0:
212,317,76387,1,0,0:0:0:0:
257,250,76621,2,0,P|268:213|263:173,1,80
323,120,77090,1,8,0:0:0:0:
370,184,77324,6,0,P|402:111|358:48,2,160,2|0|2,0:0|0:0|0:0,0:0:0:0:
343,261,78496,1,0,0:0:0:0:
291,199,78730,1,0,0:0:0:0:
261,272,78965,2,0,P|306:334|382:330,1,160,8|0,0:0|0:0,0:0:0:0:
343,261,79668,5,0,0:0:0:0:
390,196,79902,1,0,0:0:0:0:
311,182,80137,1,0,0:0:0:0:
179,261,80605,5,0,0:0:0:0:
132,196,80839,1,0,0:0:0:0:
211,182,81074,1,0,0:0:0:0:
265,248,82480,6,0,P|235:278|228:313,2,80,8|8|8,0:0|0:0|0:0,0:0:0:0:
308,316,83184,6,0,P|344:266|295:174,1,160,4|8,0:0|0:0,0:0:0:0:
356,116,83887,2,0,P|281:106|230:172,1,160,0|0,0:0|0:0,0:0:0:0:
309,181,84590,1,8,0:0:0:0:
176,272,85059,6,0,L|345:324,1,160,2|0,0:0|0:0,0:0:0:0:
377,255,85762,2,0,L|224:208,1,160,2|0,0:0|0:0,0:0:0:0:
198,131,86465,1,8,0:0:0:0:
144,190,86699,1,0,0:0:0:0:
117,114,86934,6,0,P|140:70|247:63,1,160,2|0,0:0|0:0,0:0:0:0:
284,125,87637,2,0,P|279:208|353:251,1,160,2|0,0:0|0:0,0:0:0:0:
353,171,88340,1,0,0:0:0:0:
223,265,88809,6,0,P|167:290|128:277,2,80,4|4|4,0:0|0:0|0:0,0:0:0:0:
166,208,89512,1,4,0:0:0:0:
