osu file format v14

[General]
AudioFilename: Yasuyuki Okamura-Viva Namida (TV size).mp3
AudioLeadIn: 1500
PreviewTime: 52949
Countdown: 0
SampleSet: Normal
StackLeniency: 0.7
Mode: 0
LetterboxInBreaks: 1
WidescreenStoryboard: 1

[Editor]
Bookmarks: 7041,21819,23226,38238,53249,83156
DistanceSpacing: 1.6
BeatDivisor: 4
GridSize: 4
TimelineZoom: 1

[Metadata]
Title:Viva Namida
TitleUnicode:ビバナミダ
Artist:Okamura Yasuyuki
ArtistUnicode:岡村靖幸
Creator:Don
Version:Hard
Source:スペース☆ダンディ
Tags:Opening Anime Japanese Space☆Dandy Space Dandy
BeatmapID:498447
BeatmapSetID:211977

[Difficulty]
HPDrainRate:4
CircleSize:4
OverallDifficulty:5
ApproachRate:7
SliderMultiplier:2
SliderTickRate:2

[Events]
//Background and Video events
Video,0,"Space Dandy OP.avi"
0,0,"dgdg875_anime_wallpaper_Space_Dandy_20306.jpg",0,0
//Break Periods
//Storyboard Layer 0 (Background)
//Storyboard Layer 1 (Fail)
//Storyboard Layer 2 (Pass)
//Storyboard Layer 3 (Foreground)
//Storyboard Sound Samples

[TimingPoints]
684,468.75,4,1,0,65,1,0
53184,-100,4,1,0,65,0,1
64434,-100,4,1,0,65,0,0
68184,-100,4,1,0,65,0,1
79434,-100,4,1,0,65,0,0
83184,-100,4,1,0,65,0,1
83301,-100,4,1,0,65,0,0

[HitObjects]
217,207,684,5,0,0:0:0:0:
217,207,801,1,0,0:0:0:0:
217,207,918,1,0,0:0:0:0:
161,289,1152,1,0,0:0:0:0:
260,294,1387,2,0,P|315:244|275:131,1,200,2|0,0:0|0:0,0:0:0:0:
255,38,2090,1,8,0:0:0:0:
255,38,2207,1,0,0:0:0:0:
255,38,2324,1,0,0:0:0:0:
168,88,2559,6,0,L|108:63,2,50,2|0|0,0:0|0:0|0:0,0:0:0:0:
203,181,3027,1,10,0:0:0:0:
103,159,3262,2,0,P|126:251|218:279,1,200,2|0,0:0|0:0,0:0:0:0:
297,219,3965,1,8,0:0:0:0:
297,219,4082,1,0,0:0:0:0:
297,219,4199,1,0,0:0:0:0:
381,273,4434,6,0,P|394:208|284:121,1,200,2|8,0:0|0:0,0:0:0:0:
301,21,5137,2,0,P|241:42|225:178,1,200,2|0,0:0|0:0,0:0:0:0:
177,257,5840,1,10,0:0:0:0:
177,257,5957,1,0,0:0:0:0:
177,257,6074,1,0,0:0:0:0:
271,291,6309,6,0,P|358:344|286:247,1,300,2|4,0:0|0:0,0:0:0:0:
178,83,7715,6,0,L|240:162,1,100,0|4,0:0|0:0,0:0:0:0:
241,162,8066,1,0,0:0:0:0:
241,162,8184,1,4,0:0:0:0:
325,108,8418,5,0,0:0:0:0:
332,208,8652,2,0,P|287:255|223:254,1,100,8|0,0:0|0:0,0:0:0:0:
162,225,9121,1,0,0:0:0:0:
180,323,9355,1,0,0:0:0:0:
85,292,9590,1,8,0:0:0:0:
76,192,9824,6,0,P|118:141|202:138,1,150
198,136,10293,1,0,0:0:0:0:
251,221,10527,1,8,0:0:0:0:
300,133,10762,2,0,L|362:87,2,50,0|0|0,0:0|0:0|0:0,0:0:0:0:
199,136,11230,1,0,0:0:0:0:
152,222,11465,1,8,0:0:0:0:
251,221,11699,1,0,0:0:0:0:
209,304,11934,6,0,P|255:319|299:298,1,100
396,280,12402,2,0,P|375:219|335:203,1,100,8|0,0:0|0:0,0:0:0:0:
308,112,12871,1,0,0:0:0:0:
248,192,13105,1,0,0:0:0:0:
347,204,13340,1,8,0:0:0:0:
288,284,13574,5,2,0:0:0:0:
288,284,13691,1,0,0:0:0:0:
288,284,13809,1,0,0:0:0:0:
116,168,14043,1,2,0:0:0:0:
116,168,14160,1,0,0:0:0:0:
116,168,14277,1,2,0:0:0:0:
202,239,14512,2,2,B|255:134|309:242|377:131,1,200
289,101,15215,1,8,0:0:0:0:
288,284,15449,1,0,0:0:0:0:
444,212,15684,5,0,0:0:0:0:
366,147,15918,1,0,0:0:0:0:
436,80,16152,1,8,0:0:0:0:
340,52,16386,1,0,0:0:0:0:
254,106,16621,2,0,P|212:132|199:179,2,100,0|0|8,0:0|0:0|0:0,0:0:0:0:
291,197,17324,6,0,P|246:268|159:260,1,150,2|0,0:0|0:0,0:0:0:0:
187,273,17793,1,0,0:0:0:0:
108,212,18027,1,8,0:0:0:0:
124,112,18262,2,0,L|80:80,2,50,0|0|0,0:0|0:0|0:0,0:0:0:0:
212,68,18730,1,0,0:0:0:0:
212,168,18965,1,8,0:0:0:0:
300,120,19199,6,0,P|304:200|208:268,1,200,0|0,0:0|0:0,3:0:0:0:
124,224,19902,1,8,0:0:0:0:
128,324,20137,1,0,0:0:0:0:
216,267,20371,2,0,P|262:252|296:217,1,100
367,144,20840,1,0,0:0:0:0:
291,80,21074,6,0,L|232:45,1,50,2|0,0:0|0:0,0:0:0:0:
107,156,21426,2,0,L|166:121,1,50,2|0,0:0|0:0,0:0:0:0:
158,30,21777,1,8,0:0:0:0:
256,179,22012,1,0,0:0:0:0:
256,179,22129,1,0,0:0:0:0:
256,179,22246,1,0,0:0:0:0:
282,326,22480,1,8,0:0:0:0:
136,290,22715,1,8,0:0:0:0:
100,144,22949,5,0,0:0:0:0:
100,144,23066,1,0,0:0:0:0:
100,144,23184,2,0,P|168:96|200:108,1,100,4|0,0:0|0:0,0:0:0:0:
184,196,23652,2,0,P|233:188|262:149,1,100,8|0,0:0|0:0,0:0:0:0:
368,92,24121,1,0,0:0:0:0:
268,28,24355,1,0,0:0:0:0:
262,149,24590,1,8,0:0:0:0:
352,228,24824,6,0,P|284:270|163:211,2,200,2|0|2,0:0|0:0|0:0,0:0:0:0:
352,228,25879,1,0,0:0:0:0:
352,228,25996,1,0,0:0:0:0:
368,90,26230,1,8,0:0:0:0:
481,173,26465,1,8,0:0:0:0:
282,154,26934,6,0,L|186:209,1,100
106,158,27402,2,0,L|193:108,1,100,8|0,0:0|0:0,0:0:0:0:
206,8,27871,2,0,P|254:22|284:61,2,100,0|0|8,0:0|0:0|0:0,0:0:0:0:
192,108,28574,2,0,L|188:240,1,100
189,207,28926,1,0,0:0:0:0:
189,207,29043,1,0,0:0:0:0:
253,273,29277,5,8,0:0:0:0:
314,192,29512,1,0,0:0:0:0:
314,192,29629,1,0,0:0:0:0:
314,192,29746,1,0,0:0:0:0:
423,141,29980,1,0,0:0:0:0:
324,73,30215,1,8,0:0:0:0:
314,192,30449,1,0,0:0:0:0:
211,130,30684,6,0,P|194:203|266:306,1,200,0|8,0:0|0:0,0:0:0:0:
356,329,31387,1,0,0:0:0:0:
413,246,31621,1,0,0:0:0:0:
453,337,31855,1,0,0:0:0:0:
507,252,32089,1,8,0:0:0:0:
440,104,32324,6,0,P|394:144|305:132,1,150
310,136,32793,1,0,0:0:0:0:
239,66,33027,1,8,0:0:0:0:
216,163,33262,2,0,P|156:126|157:6,1,200
239,66,33965,1,8,0:0:0:0:
304,199,34199,5,0,0:0:0:0:
304,199,34316,1,0,0:0:0:0:
304,199,34434,2,0,P|279:240|231:260,1,100
120,204,34902,2,0,P|144:162|192:142,1,100
308,312,35371,5,2,0:2:0:0:
452,240,35605,1,0,0:0:0:0:
320,152,35840,1,2,0:2:0:0:
464,80,36074,1,2,0:2:0:0:
256,192,36309,12,0,37715,0:0:0:0:
45,154,38184,5,4,0:0:0:0:
45,154,38418,2,0,P|124:102|203:154,1,200
123,195,39121,2,0,P|202:247|282:196,1,200,8|0,0:0|0:0,0:0:0:0:
313,111,39824,2,0,L|319:325,1,200,2|0,0:0|0:0,0:0:0:0:
396,264,40527,5,8,0:0:0:0:
236,168,40762,1,0,0:0:0:0:
404,216,40996,1,0,0:0:0:0:
244,216,41231,1,0,0:0:0:0:
412,172,41465,1,8,0:0:0:0:
252,264,41699,1,0,0:0:0:0:
327,123,41934,6,0,P|248:68|157:105,1,200,2|8,0:0|0:0,0:0:0:0:
68,144,42637,1,0,0:0:0:0:
68,144,42871,2,0,P|147:199|238:162,1,200,2|8,0:0|0:0,0:0:0:0:
324,228,43574,1,4,0:0:0:0:
336,128,43809,5,0,0:0:0:0:
416,188,44043,1,0,0:0:0:0:
416,188,44160,1,0,0:0:0:0:
416,188,44277,1,8,0:0:0:0:
408,288,44512,1,0,0:0:0:0:
316,324,44746,2,0,P|248:288|240:236,1,100
151,311,45215,2,0,P|141:263|156:216,1,100,8|0,0:0|0:0,0:0:0:0:
76,156,45684,5,0,0:0:0:0:
168,112,45918,2,0,P|247:166|248:267,1,200,2|0,0:0|0:0,0:0:0:0:
157,216,46621,2,0,L|337:113,1,200,2|0,0:0|0:0,0:0:0:0:
425,149,47324,2,0,L|251:248,1,200,2|0,0:0|0:0,0:0:0:0:
194,331,48027,1,8,0:0:0:0:
137,246,48262,2,0,P|100:279|91:327,2,100,0|0|0,0:0|0:0|0:0,0:0:0:0:
91,151,48965,1,8,0:0:0:0:
190,159,49199,5,0,0:0:0:0:
190,159,49316,1,0,0:0:0:0:
190,159,49434,2,0,P|242:209|193:334,1,200,0|8,0:0|0:0,0:0:0:0:
90,252,50137,1,0,0:0:0:0:
190,159,50371,1,0,0:0:0:0:
214,321,50605,1,0,0:0:0:0:
312,235,50840,1,8,0:0:0:0:
256,192,51074,12,0,53184,0:0:0:0:
192,235,53652,6,0,P|229:167|205:111,1,100,8|0,0:0|0:0,0:0:0:0:
170,64,54121,2,0,P|265:53|328:137,1,200,0|8,0:0|0:0,0:0:0:0:
416,167,54824,1,0,0:0:0:0:
333,223,55059,6,0,L|271:317,1,100
178,317,55527,2,0,L|233:233,1,100,8|0,0:0|0:0,0:0:0:0:
182,147,55996,1,0,0:0:0:0:
296,147,56230,1,0,0:0:0:0:
121,249,56465,1,8,0:0:0:0:
235,249,56699,1,0,0:0:0:0:
80,148,56934,6,0,P|97:91|240:69,1,200,0|8,0:0|0:0,0:0:0:0:
182,147,57637,1,0,0:0:0:0:
278,151,57871,2,0,P|270:200|234:234,2,100,0|0|8,0:0|0:0|0:0,0:0:0:0:
182,146,58574,2,0,P|146:286|271:330,1,300,0|8,0:0|0:0,0:0:0:0:
335,257,59512,1,0,0:0:0:0:
335,257,59629,1,0,0:0:0:0:
335,257,59746,1,0,0:0:0:0:
261,188,59980,1,0,0:0:0:0:
261,188,60098,1,0,0:0:0:0:
261,188,60215,1,8,0:0:0:0:
355,156,60449,1,0,0:0:0:0:
277,93,60684,6,0,P|228:93|188:122,1,100
101,74,61152,2,0,P|81:133|112:186,1,100,8|0,0:0|0:0,0:0:0:0:
176,221,61621,2,0,P|130:262|62:253,2,100,0|0|8,0:0|0:0|0:0,0:0:0:0:
189,123,62324,2,0,P|269:182|261:276,2,200,2|0|0,0:0|0:0|0:0,0:0:0:0:
176,221,63496,1,0,0:0:0:0:
336,116,63730,1,0,0:0:0:0:
262,273,63965,1,8,0:0:0:0:
248,64,64199,1,0,0:0:0:0:
168,263,64668,6,0,P|152:316|110:344,2,100,2|0|2,0:0|0:0|0:0,0:0:0:0:
344,121,65605,6,0,P|360:68|402:40,2,100,2|0|2,0:0|0:0|0:0,0:0:0:0:
256,192,66543,12,4,68184,0:0:0:0:
305,221,68653,5,8,0:0:0:0:
205,219,68887,1,0,0:0:0:0:
325,120,69121,2,0,P|255:61|186:121,1,200,0|8,0:0|0:0,0:0:0:0:
104,180,69824,1,0,0:0:0:0:
115,279,70059,6,0,L|228:327,1,100
271,241,70527,2,0,L|384:289,1,100,8|0,0:0|0:0,0:0:0:0:
422,360,70996,1,0,0:0:0:0:
462,268,71230,1,0,0:0:0:0:
405,102,71465,1,8,0:0:0:0:
365,194,71699,1,0,0:0:0:0:
259,136,71934,6,0,L|146:158,1,100
113,243,72402,2,0,L|211:223,1,100,8|0,0:0|0:0,0:0:0:0:
323,264,72871,1,0,0:0:0:0:
304,145,73105,1,0,0:0:0:0:
210,223,73340,1,8,0:0:0:0:
193,104,73574,1,0,0:0:0:0:
304,145,73809,5,0,0:0:0:0:
211,223,74043,2,0,L|137:238,2,50,0|0|8,0:0|0:0|0:0,0:0:0:0:
303,146,74511,2,0,L|377:131,2,50,0|0|0,0:0|0:0|0:0,0:0:0:0:
193,104,74980,1,0,0:0:0:0:
193,104,75098,1,0,0:0:0:0:
193,104,75215,1,8,0:0:0:0:
76,188,75449,1,0,0:0:0:0:
118,56,75684,6,0,P|198:13|280:115,1,200,4|8,0:0|0:0,0:0:0:0:
368,112,76387,1,0,0:0:0:0:
287,171,76621,2,0,L|223:258,1,100
256,347,77090,2,0,L|315:266,1,100,8|0,0:0|0:0,0:0:0:0:
412,292,77559,5,0,0:0:0:0:
391,194,77793,1,0,0:0:0:0:
263,117,78027,1,8,0:0:0:0:
240,265,78262,1,0,0:0:0:0:
138,185,78496,1,0,0:0:0:0:
352,214,78730,1,0,0:0:0:0:
352,214,78848,1,0,0:0:0:0:
352,214,78965,1,8,0:0:0:0:
263,117,79199,1,8,0:0:0:0:
49,86,79668,5,2,0:0:0:0:
58,204,79902,1,0,0:0:0:0:
160,139,80137,1,2,0:0:0:0:
464,86,80605,5,2,0:0:0:0:
455,204,80840,1,0,0:0:0:0:
353,139,81074,1,2,0:0:0:0:
120,295,82480,5,2,0:0:0:0:
120,295,82598,1,2,0:0:0:0:
120,295,82715,1,2,0:0:0:0:
230,213,82949,1,2,0:0:0:0:
154,147,83184,5,6,0:0:0:0:
154,147,83301,1,0,0:0:0:0:
154,147,83418,1,0,0:0:0:0:
248,114,83652,1,0,0:0:0:0:
230,213,83887,2,0,P|155:250|57:167,1,200,2|0,0:0|0:0,0:0:0:0:
65,87,84590,1,8,0:0:0:0:
65,87,84707,1,0,0:0:0:0:
65,87,84824,1,0,0:0:0:0:
153,147,85059,6,0,P|217:110|287:129,1,150,2|0,0:0|0:0,0:0:0:0:
287,129,85527,1,8,0:0:0:0:
344,46,85762,2,0,L|292:259,1,200,2|0,0:0|0:0,0:0:0:0:
198,260,86465,1,8,0:0:0:0:
198,260,86582,1,0,0:0:0:0:
198,260,86699,1,0,0:0:0:0:
115,200,86934,6,0,P|177:160|248:174,1,150,2|0,0:0|0:0,0:0:0:0:
248,174,87402,1,8,0:0:0:0:
198,260,87637,2,0,P|295:260|340:137,1,200,2|0,0:0|0:0,0:0:0:0:
307,83,88340,1,8,0:0:0:0:
307,83,88457,1,0,0:0:0:0:
307,83,88574,1,0,0:0:0:0:
162,123,88809,5,4,0:0:0:0:
272,223,89043,1,4,0:0:0:0:
127,261,89277,1,4,0:0:0:0:
237,362,89512,1,4,0:0:0:0:
