osu file format v14

[General]
AudioFilename: Yasuyuki Okamura-Viva Namida (TV size).mp3
AudioLeadIn: 1500
PreviewTime: 52949
Countdown: 0
SampleSet: Normal
StackLeniency: 0.7
Mode: 0
LetterboxInBreaks: 1
WidescreenStoryboard: 1

[Editor]
DistanceSpacing: 0.8
BeatDivisor: 4
GridSize: 4
TimelineZoom: 1

[Metadata]
Title:Viva Namida
TitleUnicode:ビバナミダ
Artist:Okamura Yasuyuki
ArtistUnicode:岡村靖幸
Creator:Don
Version:Easy
Source:スペース☆ダンディ
Tags:Opening Anime Japanese Space☆Dandy Space Dandy
BeatmapID:498446
BeatmapSetID:211977

[Difficulty]
HPDrainRate:2
CircleSize:3
OverallDifficulty:3
ApproachRate:3
SliderMultiplier:1.2
SliderTickRate:2

[Events]
//Background and Video events
Video,0,"Space Dandy OP.avi"
0,0,"dgdg875_anime_wallpaper_Space_Dandy_20306.jpg",0,0
//Break Periods
//Storyboard Layer 0 (Background)
//Storyboard Layer 1 (Fail)
//Storyboard Layer 2 (Pass)
//Storyboard Layer 3 (Foreground)
//Storyboard Sound Samples

[TimingPoints]
684,468.75,4,1,0,65,1,0
53184,-100,4,1,0,65,0,1
64434,-100,4,1,0,30,0,0
64668,-100,4,1,0,65,0,0
68184,-100,4,1,0,65,0,1
79434,-100,4,1,0,65,0,0
83184,-100,4,1,0,65,0,1
83301,-100,4,1,0,65,0,0

[HitObjects]
142,153,684,6,0,P|194:89|298:97,2,180,2|0|0,0:0|0:0|0:0,0:0:0:0:
236,172,2559,2,0,P|184:236|80:228,2,180,2|0|0,0:0|0:0|0:0,0:0:0:0:
188,88,4434,6,0,B|276:48|276:120|376:72,2,180,2|0|0,0:0|0:0|0:0,0:0:0:0:
100,48,6309,2,0,P|29:20|33:96,1,180,2|4,0:0|0:0,0:0:0:0:
124,317,8184,6,0,B|184:317|184:317|241:260,1,120,0|8,0:0|0:0,0:0:0:0:
143,226,9121,2,0,B|185:183|185:183|245:183,1,120,0|8,0:0|0:0,0:0:0:0:
336,153,10059,1,0,0:0:0:0:
263,90,10527,1,8,0:0:0:0:
84,156,11465,5,8,0:0:0:0:
24,80,11934,2,0,P|84:64|144:80,1,120,0|8,0:0|0:0,0:0:0:0:
216,136,12871,2,0,P|273:149|331:133,1,120,0|8,0:0|0:0,0:0:0:0:
412,84,13809,5,0,0:0:0:0:
424,180,14277,1,8,0:0:0:0:
336,224,14746,2,0,B|278:238|278:238|212:224,1,120,2|8,0:0|0:0,0:0:0:0:
123,239,15684,5,0,0:0:0:0:
159,151,16152,1,8,0:0:0:0:
95,79,16621,2,0,P|159:56|220:78,1,120,0|8,0:0|0:0,0:0:0:0:
302,69,17559,6,0,P|360:57|415:79,1,120,0|8,0:0|0:0,0:0:0:0:
353,151,18496,5,8,0:0:0:0:
389,239,18964,1,0,0:0:0:0:
293,225,19434,6,0,P|259:184|276:102,1,120,0|8,0:0|0:0,0:0:0:0:
353,151,20371,2,0,L|160:205,1,180,2|2,0:0|0:0,0:0:0:0:
117,129,21543,1,2,0:0:0:0:
39,190,22012,2,0,P|4:253|86:250,1,180,0|4,0:0|0:0,0:0:0:0:
174,284,23184,6,0,P|177:218|135:170,1,120,0|8,0:0|0:0,0:0:0:0:
61,134,24121,2,0,P|109:88|171:89,1,120,0|8,0:0|0:0,0:0:0:0:
223,158,25059,2,0,B|279:190|299:138|363:170,2,120,0|8|8,0:0|0:0|0:0,0:0:0:0:
108,312,26934,6,0,P|188:368|216:368,1,120,0|8,0:0|0:0,0:0:0:0:
305,368,27871,2,0,P|363:354|404:312,1,120,0|8,0:0|0:0,0:0:0:0:
403,215,28809,2,0,P|362:173|305:158,1,120,0|8,0:0|0:0,0:0:0:0:
216,188,29746,1,0,0:0:0:0:
236,96,30215,1,8,0:0:0:0:
305,159,30684,6,0,P|296:240|208:284,1,180,2|2,0:0|0:0,0:0:0:0:
132,236,31855,1,2,0:0:0:0:
216,188,32324,1,0,0:0:0:0:
155,116,32793,2,0,P|240:100|305:159,1,180,2|2,0:0|0:0,0:0:0:0:
312,256,33964,5,4,0:0:0:0:
401,289,34434,2,0,P|310:355|221:288,1,240,0|0,0:0|0:0,0:0:0:0:
148,224,35840,1,0,0:0:0:0:
256,192,36309,12,4,38184,0:0:0:0:
270,253,39121,6,0,P|299:204|287:135,1,120,0|8,0:0|0:0,0:0:0:0:
326,53,40059,2,0,P|268:48|219:80,1,120,0|8,0:0|0:0,0:0:0:0:
128,48,40996,1,0,0:0:0:0:
147,142,41465,1,8,0:0:0:0:
57,177,41934,6,0,P|134:239|240:166,1,240,2|0,0:0|0:0,0:0:0:0:
315,113,43340,1,8,0:0:0:0:
233,61,43809,6,0,P|179:38|124:59,1,120,0|8,0:0|0:0,0:0:0:0:
177,139,44746,2,0,L|176:270,1,120,0|8,0:0|0:0,0:0:0:0:
255,313,45684,6,0,P|314:296|353:246,1,120,0|8,0:0|0:0,0:0:0:0:
260,216,46621,2,0,P|298:171|356:157,1,120,0|8,0:0|0:0,0:0:0:0:
438,205,47559,6,0,P|448:120|376:64,1,180,2|2,0:0|0:0,0:0:0:0:
290,98,48730,1,2,0:0:0:0:
212,154,49199,2,0,P|303:194|375:137,1,180,2|8,0:0|0:0,0:0:0:0:
407,69,50371,6,0,P|445:99|429:221,1,180,2|2,0:0|0:0,0:0:0:0:
408,312,51543,1,2,0:0:0:0:
339,243,52012,2,0,B|256:203|256:279|152:219,1,180,4|8,0:0|0:0,0:0:0:0:
228,152,53184,5,4,0:0:0:0:
259,59,53652,1,8,0:0:0:0:
329,127,54121,6,0,P|357:71|334:0,2,120,0|8|0,0:0|0:0|0:0,2:0:0:0:
360,220,55527,1,8,0:0:0:0:
264,200,55996,2,0,L|132:240,1,120,0|8,0:0|0:0,0:0:0:0:
84,164,56934,6,0,L|198:129,1,120,0|8,0:0|0:0,0:0:0:0:
264,60,57871,1,0,0:0:0:0:
292,152,58340,1,8,0:0:0:0:
364,88,58809,6,0,P|376:200|258:243,1,240,2|2,0:0|0:0,0:0:0:0:
203,312,60215,1,2,0:0:0:0:
167,222,60684,6,0,P|118:259|106:321,2,120,0|8|0,0:0|0:0|0:0,0:0:0:0:
248,170,62090,1,8,0:0:0:0:
306,246,62559,6,0,P|334:214|331:128,1,120,0|8,0:0|0:0,0:0:0:0:
278,62,63496,2,0,P|244:110|248:169,1,120,0|8,0:0|0:0,0:0:0:0:
212,258,64434,1,0,0:0:0:0:
256,192,64668,12,4,68184,0:0:0:0:
84,296,69121,6,0,P|100:328|196:344,1,120,0|8,0:0|0:0,0:0:0:0:
172,256,70059,2,0,L|176:136,1,120,0|8,0:0|0:0,0:0:0:0:
264,96,70996,1,0,0:0:0:0:
340,152,71465,1,8,0:0:0:0:
344,56,71934,6,0,P|428:112|392:232,1,240,2|0,0:0|0:0,0:0:0:0:
344,312,73340,1,8,0:0:0:0:
268,252,73809,6,0,L|140:232,1,120,0|8,0:0|0:0,0:0:0:0:
120,144,74746,2,0,L|238:162,1,120,0|8,0:0|0:0,0:0:0:0:
268,72,75684,5,0,0:0:0:0:
332,144,76152,1,8,0:0:0:0:
360,52,76621,2,0,P|413:88|426:151,1,120,0|8,0:0|0:0,0:0:0:0:
332,144,77559,6,0,P|326:202|284:244,1,120,0|8,0:0|0:0,0:0:0:0:
236,161,78496,1,0,0:0:0:0:
185,242,78965,1,8,0:0:0:0:
256,192,79434,12,4,81309,0:0:0:0:
206,121,82246,5,0,0:0:0:0:
307,121,82715,1,0,0:0:0:0:
254,201,83184,6,0,P|320:216|397:122,2,180,2|0|0,0:0|0:0|0:0,0:0:0:0:
212,115,85059,2,0,P|156:181|182:264,2,180,2|0|0,0:0|0:0|0:0,0:0:0:0:
254,200,86934,2,0,L|73:164,2,180,2|0|0,0:0|0:0|0:0,0:0:0:0:
345,171,88809,5,4,0:0:0:0:
325,264,89277,1,4,0:0:0:0:
