osu file format v12

[General]
AudioFilename: kancolleboss.mp3
AudioLeadIn: 0
PreviewTime: 61029
Countdown: 0
SampleSet: None
StackLeniency: 0.7
Mode: 3
LetterboxInBreaks: 0
SpecialStyle: 0
WidescreenStoryboard: 1

[Editor]
DistanceSpacing: 0.8
BeatDivisor: 4
GridSize: 8
TimelineZoom: 1

[Metadata]
Title:Boss Theme
TitleUnicode:Boss Theme
Artist:Okamiya Michio
ArtistUnicode:Okamiya Michio
Creator:Limit Removal
Version:4K Elite
Source:Kantai Collection
Tags:
BeatmapID:392408
BeatmapSetID:160640

[Difficulty]
HPDrainRate:8
CircleSize:4
OverallDifficulty:7
ApproachRate:5
SliderMultiplier:1.4
SliderTickRate:1

[Events]
//Background and Video events
0,0,"bga.jpg",0,0
//Break Periods
2,69936,71445
//Storyboard Layer 0 (Background)
//Storyboard Layer 1 (Fail)
//Storyboard Layer 2 (Pass)
//Storyboard Layer 3 (Foreground)
//Storyboard Sound Samples
//Background Colour Transformations
3,100,163,162,255

[TimingPoints]
100,363.636363636364,4,1,0,5,1,0
61211,-100,4,1,0,10,0,0
72871,-100,4,1,0,20,0,0
78690,-100,4,1,0,30,0,0

[HitObjects]
64,192,100,5,0,0:0:0:0:
448,192,281,1,0,0:0:0:0:
64,192,463,1,0,0:0:0:0:
192,192,554,1,0,0:0:0:0:
320,192,645,1,0,0:0:0:0:
448,192,827,1,0,0:0:0:0:
320,192,1009,1,0,0:0:0:0:
192,192,1190,1,0,0:0:0:0:
64,192,1372,1,0,0:0:0:0:
192,192,1554,1,0,0:0:0:0:
448,192,1736,1,0,0:0:0:0:
192,192,1918,1,0,0:0:0:0:
320,192,2009,1,0,0:0:0:0:
448,192,2100,1,0,0:0:0:0:
320,192,2281,1,0,0:0:0:0:
64,192,2463,1,0,0:0:0:0:
192,192,2645,1,0,0:0:0:0:
64,192,2827,1,0,0:0:0:0:
192,192,3009,128,0,5190:0:0:0:0:
448,192,3009,128,0,5190:0:0:0:0:
320,192,3009,128,0,5190:0:0:0:0:
64,192,5190,128,0,5918:0:0:0:0:
320,192,5918,1,0,0:0:0:0:
448,192,5918,1,0,0:0:0:0:
192,192,6100,1,0,0:0:0:0:
448,192,6281,1,0,0:0:0:0:
320,192,6463,1,0,0:0:0:0:
192,192,6645,1,0,0:0:0:0:
64,192,6827,1,0,0:0:0:0:
64,192,7372,1,0,0:0:0:0:
320,192,7372,1,0,0:0:0:0:
192,192,7554,1,0,0:0:0:0:
320,192,7736,1,0,0:0:0:0:
448,192,7918,1,0,0:0:0:0:
64,192,8100,1,0,0:0:0:0:
192,192,8281,1,0,0:0:0:0:
320,192,8827,1,0,0:0:0:0:
192,192,8827,1,0,0:0:0:0:
448,192,9009,1,0,0:0:0:0:
64,192,9190,1,0,0:0:0:0:
192,192,9372,1,0,0:0:0:0:
448,192,9554,1,0,0:0:0:0:
320,192,9736,1,0,0:0:0:0:
64,192,10281,1,0,0:0:0:0:
320,192,10281,1,0,0:0:0:0:
448,192,10463,1,0,0:0:0:0:
64,192,10645,1,0,0:0:0:0:
320,192,10827,1,0,0:0:0:0:
192,192,11009,1,0,0:0:0:0:
320,192,11190,1,0,0:0:0:0:
64,192,11736,1,0,0:0:0:0:
448,192,11736,1,0,0:0:0:0:
192,192,11918,1,0,0:0:0:0:
448,192,12100,1,0,0:0:0:0:
320,192,12281,1,0,0:0:0:0:
64,192,12463,1,0,0:0:0:0:
192,192,12645,1,0,0:0:0:0:
192,192,13190,1,0,0:0:0:0:
64,192,13190,1,0,0:0:0:0:
320,192,13372,1,0,0:0:0:0:
448,192,13554,1,0,0:0:0:0:
320,192,13736,1,0,0:0:0:0:
192,192,13918,1,0,0:0:0:0:
64,192,14100,1,0,0:0:0:0:
192,192,14645,1,0,0:0:0:0:
320,192,14645,1,0,0:0:0:0:
448,192,14827,1,0,0:0:0:0:
192,192,15009,1,0,0:0:0:0:
448,192,15372,1,0,0:0:0:0:
64,192,15554,1,0,0:0:0:0:
192,192,15736,1,0,0:0:0:0:
320,192,16100,1,0,0:0:0:0:
192,192,16100,1,0,0:0:0:0:
64,192,16281,1,0,0:0:0:0:
448,192,16463,5,0,0:0:0:0:
64,192,16645,1,0,0:0:0:0:
448,192,16827,1,0,0:0:0:0:
64,192,17009,1,0,0:0:0:0:
320,192,17554,128,0,17918:0:0:0:0:
64,192,17554,1,0,0:0:0:0:
448,192,17554,1,0,0:0:0:0:
192,192,17918,128,0,18281:0:0:0:0:
448,192,17918,1,0,0:0:0:0:
320,192,18281,128,0,18645:0:0:0:0:
64,192,18281,1,0,0:0:0:0:
448,192,18645,128,0,19009:0:0:0:0:
192,192,18645,1,0,0:0:0:0:
320,192,19009,128,0,19736:0:0:0:0:
192,192,19009,1,0,0:0:0:0:
64,192,19372,1,0,0:0:0:0:
192,192,19736,128,0,20100:0:0:0:0:
448,192,19736,1,0,0:0:0:0:
64,192,20100,128,0,20463:0:0:0:0:
320,192,20100,1,0,0:0:0:0:
192,192,20463,128,0,20827:0:0:0:0:
448,192,20463,1,0,0:0:0:0:
64,192,20827,128,0,21190:0:0:0:0:
320,192,20827,1,0,0:0:0:0:
448,192,21100,1,0,0:0:0:0:
192,192,21190,128,0,21554:0:0:0:0:
448,192,21554,128,0,21918:0:0:0:0:
64,192,21554,1,0,0:0:0:0:
192,192,21918,128,0,23009:0:0:0:0:
320,192,21918,1,0,0:0:0:0:
64,192,22100,1,0,0:0:0:0:
320,192,22281,1,0,0:0:0:0:
64,192,22463,1,0,0:0:0:0:
320,192,22645,1,0,0:0:0:0:
64,192,22827,1,0,0:0:0:0:
320,192,23009,1,0,0:0:0:0:
64,192,23190,1,0,0:0:0:0:
320,192,23372,128,0,23736:0:0:0:0:
192,192,23372,1,0,0:0:0:0:
192,192,23736,128,0,24100:0:0:0:0:
64,192,23736,1,0,0:0:0:0:
320,192,24100,128,0,24463:0:0:0:0:
448,192,24100,1,0,0:0:0:0:
448,192,24463,128,0,24827:0:0:0:0:
64,192,24463,1,0,0:0:0:0:
320,192,24827,128,0,25554:0:0:0:0:
192,192,24827,1,0,0:0:0:0:
192,192,25190,1,0,0:0:0:0:
192,192,25554,128,0,25918:0:0:0:0:
448,192,25554,1,0,0:0:0:0:
64,192,25918,128,0,26281:0:0:0:0:
320,192,25918,1,0,0:0:0:0:
192,192,26281,128,0,26645:0:0:0:0:
448,192,26281,1,0,0:0:0:0:
320,192,26645,128,0,27009:0:0:0:0:
64,192,26645,1,0,0:0:0:0:
448,192,27009,128,0,27372:0:0:0:0:
192,192,27009,1,0,0:0:0:0:
320,192,27372,128,0,27736:0:0:0:0:
64,192,27372,1,0,0:0:0:0:
448,192,27736,128,0,29190:0:0:0:0:
64,192,27736,1,0,0:0:0:0:
192,192,28100,1,0,0:0:0:0:
320,192,28463,1,0,0:0:0:0:
192,192,28827,1,0,0:0:0:0:
320,192,29190,128,0,29554:0:0:0:0:
64,192,29190,1,0,0:0:0:0:
192,192,29554,128,0,29918:0:0:0:0:
448,192,29554,1,0,0:0:0:0:
320,192,29918,128,0,30281:0:0:0:0:
64,192,29918,1,0,0:0:0:0:
448,192,30281,128,0,30645:0:0:0:0:
192,192,30281,1,0,0:0:0:0:
320,192,30645,128,0,31372:0:0:0:0:
64,192,30645,1,0,0:0:0:0:
448,192,31009,1,0,0:0:0:0:
192,192,31372,128,0,31736:0:0:0:0:
64,192,31372,1,0,0:0:0:0:
64,192,31736,128,0,32100:0:0:0:0:
448,192,31736,1,0,0:0:0:0:
192,192,32100,128,0,32463:0:0:0:0:
320,192,32100,1,0,0:0:0:0:
64,192,32463,128,0,32827:0:0:0:0:
448,192,32463,1,0,0:0:0:0:
192,192,32827,128,0,33190:0:0:0:0:
320,192,32827,1,0,0:0:0:0:
320,192,33190,128,0,33554:0:0:0:0:
64,192,33190,1,0,0:0:0:0:
192,192,33554,128,0,34281:0:0:0:0:
448,192,33554,1,0,0:0:0:0:
448,192,33918,1,0,0:0:0:0:
64,192,34281,128,0,35009:0:0:0:0:
448,192,34281,1,0,0:0:0:0:
320,192,34645,1,0,0:0:0:0:
448,192,35009,128,0,36100:0:0:0:0:
320,192,35009,1,0,0:0:0:0:
192,192,35190,1,0,0:0:0:0:
320,192,35372,1,0,0:0:0:0:
192,192,35554,1,0,0:0:0:0:
320,192,35736,1,0,0:0:0:0:
192,192,35918,1,0,0:0:0:0:
320,192,36100,128,0,36463:0:0:0:0:
64,192,36100,1,0,0:0:0:0:
448,192,36463,128,0,39009:0:0:0:0:
192,192,36463,1,0,0:0:0:0:
320,192,36827,1,0,0:0:0:0:
64,192,37190,1,0,0:0:0:0:
64,192,37736,1,0,0:0:0:0:
320,192,37736,1,0,0:0:0:0:
192,192,37918,1,0,0:0:0:0:
320,192,38281,1,0,0:0:0:0:
64,192,38463,1,0,0:0:0:0:
192,192,38554,1,0,0:0:0:0:
320,192,38645,1,0,0:0:0:0:
64,192,39190,1,0,0:0:0:0:
192,192,39281,1,0,0:0:0:0:
320,192,39372,1,0,0:0:0:0:
192,192,39918,1,0,0:0:0:0:
320,192,40009,1,0,0:0:0:0:
448,192,40100,1,0,0:0:0:0:
320,192,40281,1,0,0:0:0:0:
192,192,40372,1,0,0:0:0:0:
64,192,40463,1,0,0:0:0:0:
448,192,40645,1,0,0:0:0:0:
320,192,40736,1,0,0:0:0:0:
192,192,40827,128,0,41554:0:0:0:0:
64,192,40827,1,0,0:0:0:0:
320,192,41190,1,0,0:0:0:0:
320,192,41554,128,0,41918:0:0:0:0:
448,192,41554,1,0,0:0:0:0:
192,192,41918,128,0,42281:0:0:0:0:
64,192,41918,1,0,0:0:0:0:
320,192,42281,128,0,42827:0:0:0:0:
448,192,42281,1,0,0:0:0:0:
448,192,42645,1,0,0:0:0:0:
192,192,42827,128,0,43009:0:0:0:0:
64,192,42827,1,0,0:0:0:0:
64,192,43009,128,0,43190:0:0:0:0:
448,192,43009,1,0,0:0:0:0:
320,192,43190,1,0,0:0:0:0:
64,192,43372,128,0,43554:0:0:0:0:
192,192,43372,1,0,0:0:0:0:
192,192,43554,128,0,43736:0:0:0:0:
320,192,43554,1,0,0:0:0:0:
320,192,43736,128,0,44100:0:0:0:0:
448,192,43736,1,0,0:0:0:0:
448,192,44100,128,0,44463:0:0:0:0:
192,192,44100,1,0,0:0:0:0:
320,192,44463,128,0,44827:0:0:0:0:
64,192,44463,1,0,0:0:0:0:
64,192,44827,128,0,45190:0:0:0:0:
448,192,44827,1,0,0:0:0:0:
192,192,45190,128,0,46281:0:0:0:0:
320,192,45190,1,0,0:0:0:0:
448,192,45372,1,0,0:0:0:0:
64,192,45554,1,0,0:0:0:0:
448,192,45918,1,0,0:0:0:0:
320,192,46281,1,0,0:0:0:0:
64,192,46463,1,0,0:0:0:0:
192,192,46645,128,0,47372:0:0:0:0:
320,192,46645,1,0,0:0:0:0:
64,192,47009,1,0,0:0:0:0:
320,192,47372,128,0,47736:0:0:0:0:
448,192,47372,1,0,0:0:0:0:
192,192,47736,128,0,48100:0:0:0:0:
64,192,47736,1,0,0:0:0:0:
320,192,48100,128,0,48645:0:0:0:0:
448,192,48100,1,0,0:0:0:0:
64,192,48463,1,0,0:0:0:0:
192,192,48645,128,0,48827:0:0:0:0:
448,192,48645,1,0,0:0:0:0:
64,192,48827,128,0,49009:0:0:0:0:
320,192,48827,1,0,0:0:0:0:
64,192,49190,128,0,49554:0:0:0:0:
192,192,49190,1,0,0:0:0:0:
320,192,49554,128,0,49918:0:0:0:0:
192,192,49554,1,0,0:0:0:0:
448,192,49918,128,0,50281:0:0:0:0:
64,192,49918,1,0,0:0:0:0:
320,192,50281,128,0,50827:0:0:0:0:
192,192,50281,1,0,0:0:0:0:
192,192,50827,128,0,51009:0:0:0:0:
448,192,50827,1,0,0:0:0:0:
320,192,51009,128,0,51372:0:0:0:0:
64,192,51009,1,0,0:0:0:0:
448,192,51372,128,0,51736:0:0:0:0:
64,192,51372,1,0,0:0:0:0:
320,192,51736,128,0,52463:0:0:0:0:
192,192,51736,1,0,0:0:0:0:
64,192,51918,1,0,0:0:0:0:
448,192,52100,1,0,0:0:0:0:
64,192,52281,1,0,0:0:0:0:
192,192,52463,128,0,53190:0:0:0:0:
448,192,52463,1,0,0:0:0:0:
64,192,52827,1,0,0:0:0:0:
320,192,53190,128,0,53554:0:0:0:0:
64,192,53190,1,0,0:0:0:0:
192,192,53554,128,0,53918:0:0:0:0:
448,192,53554,1,0,0:0:0:0:
320,192,53918,128,0,54463:0:0:0:0:
64,192,53918,1,0,0:0:0:0:
448,192,54281,1,0,0:0:0:0:
192,192,54463,128,0,54645:0:0:0:0:
64,192,54645,128,0,55190:0:0:0:0:
320,192,54645,1,0,0:0:0:0:
192,192,55009,1,0,0:0:0:0:
192,192,55372,128,0,55736:0:0:0:0:
320,192,55372,1,0,0:0:0:0:
64,192,55736,128,0,56100:0:0:0:0:
448,192,55736,1,0,0:0:0:0:
192,192,56100,128,0,56463:0:0:0:0:
320,192,56100,1,0,0:0:0:0:
320,192,56463,128,0,56827:0:0:0:0:
64,192,56463,1,0,0:0:0:0:
448,192,56827,128,0,57372:0:0:0:0:
64,192,56827,1,0,0:0:0:0:
192,192,57009,1,0,0:0:0:0:
64,192,57190,1,0,0:0:0:0:
320,192,57372,128,0,57554:0:0:0:0:
448,192,57554,128,0,57918:0:0:0:0:
192,192,57554,1,0,0:0:0:0:
192,192,57918,128,0,58281:0:0:0:0:
320,192,57918,1,0,0:0:0:0:
64,192,58281,128,0,58645:0:0:0:0:
448,192,58281,1,0,0:0:0:0:
448,192,58645,128,0,59009:0:0:0:0:
320,192,58645,1,0,0:0:0:0:
320,192,59009,128,0,60827:0:0:0:0:
192,192,59009,1,0,0:0:0:0:
64,192,59190,1,0,0:0:0:0:
192,192,59372,1,0,0:0:0:0:
448,192,59554,1,0,0:0:0:0:
192,192,59736,1,0,0:0:0:0:
448,192,59918,1,0,0:0:0:0:
192,192,60100,1,0,0:0:0:0:
64,192,60281,1,0,0:0:0:0:
192,192,60463,1,0,0:0:0:0:
448,192,60645,1,0,0:0:0:0:
192,192,60827,1,0,0:0:0:0:
64,192,61190,1,0,0:0:0:0:
320,192,61190,1,0,0:0:0:0:
448,192,61190,1,0,0:0:0:0:
192,192,61190,1,0,0:0:0:0:
192,192,61372,1,0,0:0:0:0:
192,192,61554,1,0,0:0:0:0:
320,192,61645,1,0,0:0:0:0:
448,192,61736,1,0,0:0:0:0:
320,192,61918,1,0,0:0:0:0:
64,192,62100,1,0,0:0:0:0:
448,192,62281,1,0,0:0:0:0:
192,192,62463,1,0,0:0:0:0:
320,192,62645,1,0,0:0:0:0:
448,192,62827,1,0,0:0:0:0:
64,192,63009,1,0,0:0:0:0:
192,192,63100,1,0,0:0:0:0:
320,192,63190,1,0,0:0:0:0:
448,192,63372,1,0,0:0:0:0:
320,192,63554,1,0,0:0:0:0:
192,192,63736,1,0,0:0:0:0:
64,192,63918,1,0,0:0:0:0:
448,192,64100,1,0,0:0:0:0:
192,192,64281,1,0,0:0:0:0:
448,192,64463,1,0,0:0:0:0:
320,192,64554,1,0,0:0:0:0:
192,192,64645,1,0,0:0:0:0:
64,192,64827,1,0,0:0:0:0:
192,192,65009,1,0,0:0:0:0:
320,192,65190,1,0,0:0:0:0:
448,192,65372,1,0,0:0:0:0:
64,192,65554,1,0,0:0:0:0:
192,192,65736,1,0,0:0:0:0:
448,192,65918,1,0,0:0:0:0:
320,192,66009,1,0,0:0:0:0:
192,192,66100,1,0,0:0:0:0:
448,192,66281,1,0,0:0:0:0:
320,192,66463,1,0,0:0:0:0:
448,192,66645,1,0,0:0:0:0:
64,192,66827,1,0,0:0:0:0:
192,192,67009,1,0,0:0:0:0:
320,192,67190,1,0,0:0:0:0:
64,192,67372,1,0,0:0:0:0:
192,192,67463,1,0,0:0:0:0:
320,192,67554,1,0,0:0:0:0:
448,192,67736,1,0,0:0:0:0:
320,192,67918,1,0,0:0:0:0:
192,192,68100,1,0,0:0:0:0:
64,192,68281,1,0,0:0:0:0:
192,192,68463,1,0,0:0:0:0:
320,192,68645,1,0,0:0:0:0:
448,192,68827,1,0,0:0:0:0:
320,192,68918,1,0,0:0:0:0:
192,192,69009,1,0,0:0:0:0:
448,192,69190,1,0,0:0:0:0:
64,192,69372,1,0,0:0:0:0:
448,192,69554,1,0,0:0:0:0:
64,192,69736,1,0,0:0:0:0:
320,192,72645,5,0,0:0:0:0:
192,192,72736,1,0,0:0:0:0:
320,192,72827,128,0,73554:0:0:0:0:
64,192,72827,1,0,0:0:0:0:
448,192,73554,1,0,0:0:0:0:
192,192,73918,128,0,74281:0:0:0:0:
320,192,74100,1,0,0:0:0:0:
448,192,74190,1,0,0:0:0:0:
320,192,74281,128,0,74827:0:0:0:0:
64,192,74281,1,0,0:0:0:0:
192,192,74827,128,0,75372:0:0:0:0:
448,192,75009,1,0,0:0:0:0:
64,192,75372,128,0,75736:0:0:0:0:
448,192,75554,1,0,0:0:0:0:
320,192,75645,1,0,0:0:0:0:
448,192,75736,1,0,0:0:0:0:
192,192,75736,128,0,76100:0:0:0:0:
448,192,76100,128,0,76463:0:0:0:0:
320,192,76463,1,0,0:0:0:0:
192,192,76463,128,0,76827:0:0:0:0:
448,192,77009,1,0,0:0:0:0:
320,192,77100,1,0,0:0:0:0:
192,192,77190,1,0,0:0:0:0:
64,192,77190,128,0,78645:0:0:0:0:
448,192,77918,1,0,0:0:0:0:
192,192,78463,1,0,0:0:0:0:
320,192,78554,1,0,0:0:0:0:
448,192,78645,1,0,0:0:0:0:
192,192,78645,128,0,79372:0:0:0:0:
448,192,79372,128,0,79736:0:0:0:0:
64,192,79372,1,0,0:0:0:0:
320,192,79736,128,0,80100:0:0:0:0:
64,192,79918,1,0,0:0:0:0:
192,192,80009,1,0,0:0:0:0:
448,192,80100,1,0,0:0:0:0:
64,192,80100,128,0,81190:0:0:0:0:
448,192,80827,1,0,0:0:0:0:
448,192,81190,128,0,81554:0:0:0:0:
320,192,81372,1,0,0:0:0:0:
192,192,81463,1,0,0:0:0:0:
64,192,81554,1,0,0:0:0:0:
320,192,81554,128,0,83009:0:0:0:0:
448,192,82281,1,0,0:0:0:0:
192,192,82827,1,0,0:0:0:0:
64,192,82918,1,0,0:0:0:0:
448,192,83009,1,0,0:0:0:0:
192,192,83009,128,0,83736:0:0:0:0:
448,192,83736,1,0,0:0:0:0:
64,192,83736,128,0,84463:0:0:0:0:
192,192,84281,1,0,0:0:0:0:
320,192,84372,1,0,0:0:0:0:
192,192,84463,1,0,0:0:0:0:
448,192,84463,128,0,87009:0:0:0:0:
64,192,85554,1,0,0:0:0:0:
320,192,85675,1,0,0:0:0:0:
64,192,85796,1,0,0:0:0:0:
320,192,85918,1,0,0:0:0:0:
320,192,86281,1,0,0:0:0:0:
192,192,86645,1,0,0:0:0:0:
64,192,87009,1,0,0:0:0:0:
192,192,87372,1,0,0:0:0:0:
320,192,87372,1,0,0:0:0:0:
64,192,87675,1,4,0:0:0:0:
192,192,87675,1,4,0:0:0:0:
320,192,87675,1,4,0:0:0:0:
448,192,87675,1,4,0:0:0:0:
320,192,88100,128,0,88827:0:0:0:0:
64,192,88100,128,0,88827:0:0:0:0:
64,192,89190,1,0,0:0:0:0:
192,192,89312,1,0,0:0:0:0:
320,192,89433,1,0,0:0:0:0:
448,192,89554,1,0,0:0:0:0:
64,192,89918,1,0,0:0:0:0:
192,192,89918,1,0,0:0:0:0:
448,192,90281,1,0,0:0:0:0:
320,192,90281,1,0,0:0:0:0:
64,192,90645,1,0,0:0:0:0:
192,192,90645,1,0,0:0:0:0:
64,192,91009,1,4,0:0:0:0:
448,192,91009,1,4,0:0:0:0:
192,192,91009,1,4,0:0:0:0:
320,192,91009,1,4,0:0:0:0:
