osu file format v13

[General]
AudioFilename: EdelWeiss.mp3
AudioLeadIn: 2000
PreviewTime: 89449
Countdown: 0
SampleSet: Soft
StackLeniency: 0.7
Mode: 0
LetterboxInBreaks: 0
UseSkinSprites: 1
EpilepsyWarning: 1
WidescreenStoryboard: 0

[Editor]
Bookmarks: 166662
DistanceSpacing: 1
BeatDivisor: 4
GridSize: 4
TimelineZoom: 1

[Metadata]
Title:EdelWeiss
TitleUnicode:EdelWeiss
Artist:OkameP
ArtistUnicode:オカメP
Creator:[Mahua]
Version:Normal
Source:
Tags:Evil_Twilight Awaken Melt sm21893513 vocaloid hatsune miku
BeatmapID:337338
BeatmapSetID:119911

[Difficulty]
HPDrainRate:3
CircleSize:3.5
OverallDifficulty:3
ApproachRate:5
SliderMultiplier:1.2
SliderTickRate:1

[Events]
//Background and Video events
0,0,"EdelWeiss.jpg",0,0
//Break Periods
2,116749,127249
//Storyboard Layer 0 (Background)
//Storyboard Layer 1 (Fail)
//Storyboard Layer 2 (Pass)
//Storyboard Layer 3 (Foreground)
//Storyboard Sound Samples
//Background Colour Transformations
3,100,163,162,255

[TimingPoints]
849,400,4,2,2,20,1,0
849,-133.333333333333,4,2,2,20,0,0
13649,-133.333333333333,4,2,2,40,0,0
14049,-133.333333333333,4,2,1,40,0,0
15249,-133.333333333333,4,2,2,40,0,0
25649,-100,4,2,1,40,0,0
26849,-100,4,2,4,60,0,0
28249,-100,4,2,3,60,0,0
28449,-100,4,2,4,60,0,0
31449,-100,4,2,3,60,0,0
31649,-100,4,2,4,60,0,0
34649,-100,4,2,3,60,0,0
34849,-100,4,2,4,60,0,0
36049,-100,4,2,3,60,0,0
36449,-100,4,2,4,60,0,0
37049,-100,4,2,3,60,0,0
37249,-100,4,2,4,60,0,0
39249,-100,4,2,1,45,0,0
39849,-133.333333333333,4,2,3,45,0,0
40049,-133.333333333333,4,2,4,45,0,0
40649,-133.333333333333,4,2,3,45,0,0
41649,-133.333333333333,4,2,4,45,0,0
42049,-133.333333333333,4,2,3,45,0,0
43249,-133.333333333333,4,2,4,45,0,0
45249,-133.333333333333,4,2,3,45,0,0
46449,-133.333333333333,4,2,4,45,0,0
46849,-133.333333333333,4,2,3,45,0,0
48049,-133.333333333333,4,2,4,45,0,0
48449,-133.333333333333,4,2,3,45,0,0
49649,-133.333333333333,4,2,7,45,0,0
50049,-133.333333333333,4,2,3,45,0,0
50249,-133.333333333333,4,2,4,45,0,0
51049,-133.333333333333,4,2,3,45,0,0
51249,-133.333333333333,4,2,4,45,0,0
52049,-133.333333333333,4,2,3,45,0,0
52849,-133.333333333333,4,2,4,45,0,0
53449,-133.333333333333,4,2,3,45,0,0
54449,-133.333333333333,4,2,4,45,0,0
54849,-133.333333333333,4,2,3,45,0,0
56049,-133.333333333333,4,2,4,45,0,0
56649,-133.333333333333,4,2,3,45,0,0
57649,-133.333333333333,4,2,4,45,0,0
58449,-133.333333333333,4,2,3,45,0,0
64049,-133.333333333333,4,2,5,45,0,0
64849,-133.333333333333,4,2,7,60,0,0
69949,-133.333333333333,4,2,5,60,0,0
70149,-133.333333333333,4,2,7,60,0,0
85649,-133.333333333333,4,2,7,45,0,0
85749,-133.333333333333,4,2,7,60,0,0
89649,-100,4,2,1,60,0,0
90449,-100,4,2,4,60,0,0
92049,-100,4,2,3,60,0,0
92849,-100,4,2,4,60,0,0
95249,-100,4,2,3,60,0,0
96049,-100,4,2,4,60,0,0
98449,-100,4,2,3,60,0,0
99249,-100,4,2,4,60,0,0
104849,-100,4,2,3,60,0,0
105649,-100,4,2,4,60,0,0
108049,-100,4,2,3,60,0,0
108849,-100,4,2,4,60,0,0
111249,-100,4,2,3,60,0,0
112049,-100,4,2,4,60,0,0
112849,-100,4,2,3,60,0,0
113249,-100,4,2,4,60,0,0
116049,-100,4,2,1,60,0,0
128849,-133.333333333333,4,2,7,40,0,0
138449,-133.333333333333,4,2,2,20,0,0
140849,-100,4,2,1,60,0,0
141649,-100,4,2,3,60,0,0
154449,-100,4,2,1,40,0,0
154549,-133.333333333333,4,2,3,40,0,0
166849,-133.333333333333,4,2,6,60,0,0
167249,-100,4,2,3,60,0,0
170449,-100,4,2,1,60,0,0
171249,-100,4,2,3,60,0,0
173649,-100,4,2,1,60,0,0
174849,-100,4,2,3,60,0,0
178449,-100,4,2,1,60,0,0
183649,-100,4,2,3,60,0,0
185049,-100,4,2,1,60,0,0
188449,-100,4,2,3,60,0,0
192849,-100,4,2,6,50,0,0

[Colours]
Combo1 : 165,160,126
Combo2 : 0,128,255
Combo3 : 83,206,253
Combo4 : 237,237,237
Combo5 : 122,228,237
Combo6 : 183,167,119

[HitObjects]
76,132,849,70,0,P|120:120|180:128,1,90.0000034332277,8|0,0:0|0:0,0:0:0:0:
232,184,1649,1,0,0:0:0:0:
220,272,2049,1,0,0:0:0:0:
304,236,2449,2,0,L|440:256,2,135.000005149841,8|0|0,0:0|0:0|0:0,0:0:0:0:
304,236,4049,6,0,P|304:308|264:356,1,135.000005149841,8|0,0:0|0:0,0:0:0:0:
180,328,5049,2,0,P|148:320|128:320,1,45.0000017166138
48,340,5649,2,0,P|56:288|40:240,1,90.0000034332277,8|0,0:0|0:0,0:0:0:0:
24,164,6449,1,0,0:0:0:0:
24,164,7249,70,0,L|132:144,1,90.0000034332277,8|0,0:0|0:0,0:0:0:0:
204,156,8049,1,0,0:0:0:0:
204,156,8849,6,0,P|216:92|324:64,1,180.000006866455,8|0,0:0|0:0,0:0:0:0:
396,100,10049,1,0,0:0:0:0:
436,180,10449,70,0,L|400:316,1,135.000005149841,8|0,0:0|0:0,0:0:0:0:
316,340,11449,2,0,P|284:332|264:312,1,45.0000017166138
196,284,12049,6,0,L|24:340,1,180.000006866455,8|0,0:0|0:0,0:0:0:0:
60,164,13649,70,2,L|88:60,1,90.0000034332277,8|0,0:0|0:0,0:0:0:0:
168,44,14449,1,0,0:0:0:0:
240,100,14849,1,0,0:0:0:0:
268,184,15249,2,0,L|280:280,2,90.0000034332277,8|0|2,0:0|0:0|0:0,0:0:0:0:
324,112,16449,1,0,0:0:0:0:
412,128,16849,6,0,B|456:104|496:124|496:124|500:152|472:184,1,135.000005149841,8|0,0:0|0:0,0:0:0:0:
428,240,17849,2,0,P|416:276|416:300,1,45.0000017166138,0|2,0:0|0:0,0:0:0:0:
472,352,18449,69,10,0:0:0:0:
384,364,18849,1,0,0:0:0:0:
296,352,19249,1,0,0:0:0:0:
208,360,19649,1,0,0:0:0:0:
120,364,20049,6,0,P|144:296|160:284,1,90.0000034332277,8|0,0:0|0:0,0:0:0:0:
240,252,20849,1,0,0:0:0:0:
328,228,21249,1,0,0:0:0:0:
328,228,21449,2,0,P|312:192|260:164,1,90.0000034332277,10|0,0:0|0:0,0:0:0:0:
220,164,22049,2,0,P|268:148|312:76,1,135.000005149841,2|0,0:0|0:0,0:0:0:0:
300,36,22849,1,0,0:0:0:0:
220,76,23249,70,0,L|128:96,1,90.0000034332277,8|0,0:0|0:0,0:0:0:0:
52,56,24049,1,0,0:0:0:0:
76,144,24449,1,0,0:0:0:0:
44,228,24849,1,8,0:0:0:0:
68,316,25249,1,0,0:0:0:0:
68,316,25649,6,0,L|148:308,1,60,8|0,1:2|0:0,0:0:0:0:
180,340,26049,2,0,L|256:332,1,60,8|8,1:2|0:0,0:0:0:0:
276,288,26449,6,0,L|416:276,1,120,4|2,0:0|0:0,0:0:0:0:
500,336,27249,1,8,1:2:0:0:
468,220,27649,1,2,0:0:0:0:
440,104,28049,2,0,L|464:32,2,60,0|8|2,0:0|0:0|0:0,0:0:0:0:
348,180,28849,1,8,1:2:0:0:
320,64,29249,1,2,0:0:0:0:
232,148,29649,6,0,L|104:164,1,120,0|2,0:0|0:0,0:0:0:0:
56,268,30449,2,0,L|196:248,1,120,8|2,1:2|0:0,0:0:0:0:
288,292,31249,2,0,P|300:336|296:372,2,60,0|8|2,0:0|0:0|0:0,0:0:0:0:
372,204,32049,2,0,P|376:148|424:84,1,120,8|10,1:2|1:2,0:0:0:0:
308,32,32849,6,0,L|168:48,1,120,0|2,0:0|0:0,0:0:0:0:
72,28,33649,1,8,1:2:0:0:
32,140,34049,1,2,0:0:0:0:
80,252,34449,1,0,0:0:0:0:
80,252,34649,1,8,0:0:0:0:
80,252,34849,1,2,0:0:0:0:
24,356,35249,1,8,1:2:0:0:
144,336,35649,6,0,L|224:320,1,60,2|0,0:0|0:0,0:0:0:0:
260,348,36049,2,0,L|384:320,1,120,8|2,0:0|0:0,0:0:0:0:
492,288,36849,2,0,L|476:352,1,60,8|8,1:2|0:0,0:0:0:0:
424,376,37249,1,2,0:0:0:0:
416,256,37649,2,0,L|408:192,1,60,8|0,3:3|3:0,0:0:0:0:
364,156,38049,2,0,L|356:88,1,60,10|8,3:3|3:3,0:0:0:0:
396,52,38449,2,0,B|392:16|392:16|472:52,1,120,8|2,3:3|0:0,0:0:0:0:
484,168,39249,37,4,0:1:0:0:
352,200,39849,2,0,L|300:192,1,45.0000017166138,8|8,0:0|1:2,0:0:0:0:
176,156,40649,1,8,0:0:0:0:
200,244,41049,1,8,0:0:0:0:
112,224,41449,2,0,L|128:276,1,45.0000017166138,8|8,0:0|1:2,0:0:0:0:
72,340,42049,1,8,0:0:0:0:
32,260,42449,2,0,P|28:200|48:160,1,90.0000034332277,8|0,0:0|0:0,0:0:0:0:
120,140,43249,1,8,1:2:0:0:
32,36,43849,2,0,L|136:24,2,90.0000034332277,8|8|8,0:0|0:0|0:0,0:0:0:0:
8,72,44849,1,8,1:2:0:0:
72,136,45249,5,2,0:0:0:0:
160,124,45649,2,0,L|256:144,1,90.0000034332277,2|8,0:0|0:0,0:0:0:0:
332,116,46449,1,8,1:2:0:0:
416,148,46849,1,10,0:0:0:0:
464,224,47249,2,0,P|480:268|476:316,1,90.0000034332277,0|2,0:0|0:0,0:0:0:0:
404,364,48049,1,8,1:2:0:0:
320,336,48449,1,8,0:0:0:0:
300,248,48849,6,0,L|316:148,1,90.0000034332277,2|0,0:0|0:0,0:0:0:0:
296,120,49449,2,0,L|304:56,1,45.0000017166138,2|8,0:0|1:2,0:0:0:0:
220,44,50049,1,8,0:0:0:0:
220,44,50249,1,8,1:2:0:0:
148,96,50649,2,0,L|56:80,1,90.0000034332277,8|8,1:2|0:0,0:0:0:0:
24,108,51249,2,0,P|8:152|20:204,1,90.0000034332277,8|0,1:2|0:0,0:0:0:0:
92,244,52049,5,2,0:0:0:0:
32,364,52649,2,0,L|92:340,1,45.0000017166138,8|8,0:0|1:2,0:0:0:0:
208,348,53449,1,8,0:0:0:0:
296,360,53849,1,8,0:0:0:0:
264,276,54249,2,0,L|308:256,1,45.0000017166138,8|8,0:0|1:2,0:0:0:0:
388,288,54849,1,8,0:0:0:0:
460,236,55249,38,0,L|440:144,1,90.0000034332277,2|0,0:0|0:0,0:0:0:0:
368,92,56049,1,8,1:2:0:0:
236,64,56649,1,8,0:0:0:0:
196,144,57049,1,8,0:0:0:0:
152,68,57449,2,0,L|96:60,1,45.0000017166138,8|8,0:0|1:2,0:0:0:0:
20,44,58049,1,8,1:2:0:0:
20,44,58449,6,0,L|36:144,1,90.0000034332277,2|0,0:0|0:0,0:0:0:0:
20,220,59249,1,8,1:2:0:0:
80,284,59649,1,8,0:0:0:0:
168,268,60049,2,0,P|216:272|260:304,1,90.0000034332277,2|0,0:0|0:0,0:0:0:0:
312,360,60849,1,8,1:2:0:0:
368,288,61249,1,0,0:0:0:0:
368,200,61649,6,0,L|344:104,1,90.0000034332277,2|0,0:0|0:0,0:0:0:0:
384,32,62449,1,8,1:2:0:0:
460,80,62849,2,0,L|448:144,1,45.0000017166138,8|8,0:0|0:0,0:0:0:0:
480,208,63449,2,0,L|472:264,1,45.0000017166138,8|8,0:0|0:0,0:0:0:0:
484,344,64049,6,0,L|388:320,1,90.0000034332277,10|8,1:2|1:2,0:0:0:0:
308,344,64849,2,0,L|176:316,1,135.000005149841,4|0,0:0|0:0,0:0:0:0:
132,308,65649,1,8,1:2:0:0:
68,244,66049,2,0,L|28:272,2,45.0000017166138,2|8|8,0:0|0:3|0:0,0:0:0:0:
32,160,66849,1,2,0:0:0:0:
56,72,67249,38,0,B|100:32|156:52|156:52|148:84,1,135.000005149841,8|0,1:2|0:0,0:0:0:0:
140,124,68049,1,0,0:0:0:0:
204,188,68449,1,2,0:0:0:0:
248,176,68649,2,0,L|308:160,1,45.0000017166138,0|8,0:0|1:2,0:0:0:0:
376,192,69249,1,2,0:0:0:0:
432,264,69649,2,0,P|432:312|356:364,1,135.000005149841
324,352,70449,1,8,1:2:0:0:
288,268,70849,1,2,0:0:0:0:
328,188,71249,6,0,L|384:52,1,135.000005149841,0|0,0:0|0:0,0:0:0:0:
400,24,72049,1,8,1:2:0:0:
312,32,72449,1,2,0:0:0:0:
224,40,72849,2,0,L|164:44,1,45.0000017166138
148,76,73249,2,0,L|100:80,1,45.0000017166138,2|0,0:0|0:0,0:0:0:0:
72,112,73649,2,0,B|16:116|16:116|36:156,1,90.0000034332277,8|8,1:2|0:0,0:0:0:0:
92,212,74449,6,0,P|96:256|80:304,1,90.0000034332277,0|2,0:0|0:0,0:0:0:0:
152,360,75249,1,8,1:2:0:0:
200,284,75649,1,10,0:0:0:0:
244,364,76049,2,0,L|300:368,1,45.0000017166138,8|8,0:0|1:2,0:0:0:0:
364,316,76649,2,0,P|372:276|364:256,1,45.0000017166138,8|8,0:0|1:2,0:0:0:0:
324,196,77249,2,0,L|372:184,1,45.0000017166138,8|8,0:0|1:2,0:0:0:0:
396,148,77649,6,0,P|448:136|472:100,1,90.0000034332277,4|2,0:1|0:0,0:0:0:0:
468,20,78449,1,8,1:2:0:0:
384,56,78849,2,0,L|328:64,1,45.0000017166138
304,88,79249,38,0,L|160:108,1,135.000005149841,8|0,0:0|0:0,0:0:0:0:
124,112,80049,1,8,1:2:0:0:
44,72,80449,1,2,0:0:0:0:
60,160,80849,2,0,L|72:252,1,90.0000034332277,0|2,0:0|0:0,0:0:0:0:
20,324,81649,1,8,1:2:0:0:
108,340,82049,2,0,L|160:328,1,45.0000017166138,2|0,0:0|0:0,0:0:0:0:
196,340,82449,6,0,L|288:312,1,90.0000034332277,2|10,0:0|0:0,0:0:0:0:
368,336,83249,1,8,1:2:0:0:
444,292,83649,2,0,P|444:264|432:236,1,45.0000017166138,2|0,0:0|0:0,0:0:0:0:
404,220,84049,6,0,L|432:124,1,90.0000034332277,0|2,0:0|0:0,0:0:0:0:
464,48,84849,1,8,1:2:0:0:
376,64,85249,2,0,L|312:72,1,45.0000017166138,2|10,0:0|0:0,0:0:0:0:
288,76,85649,6,0,P|276:128|292:168,1,90.0000034332277,8|8,1:2|1:2,0:0:0:0:
252,244,86449,1,8,1:2:0:0:
196,172,86849,2,0,L|140:164,1,45.0000017166138,8|8,1:2|1:2,0:0:0:0:
151,165,89649,38,0,L|92:152,3,60,8|8|8|8,1:2|1:2|1:2|1:2,0:0:0:0:
40,184,90449,6,0,P|24:224|36:304,1,120,4|2,0:0|0:0,0:0:0:0:
144,344,91249,1,8,1:2:0:0:
144,344,91649,1,2,0:0:0:0:
240,272,92049,2,0,P|284:264|320:272,1,60,12|0,0:0|0:0,0:0:0:0:
400,204,92649,2,0,P|440:192|464:168,1,60,8|8,0:0|1:2,0:0:0:0:
452,60,93249,1,2,0:0:0:0:
336,24,93649,6,0,L|208:56,1,120,4|2,0:0|0:0,0:0:0:0:
100,40,94449,1,8,1:2:0:0:
100,40,94849,1,2,0:0:0:0:
32,140,95249,2,0,L|44:208,1,60,8|8,0:0|0:0,0:0:0:0:
152,248,95849,2,0,L|144:328,1,60,8|8,0:0|1:2,0:0:0:0:
40,368,96449,1,10,1:2:0:0:
40,368,96849,6,0,L|164:332,1,120,4|2,0:1|0:0,0:0:0:0:
276,348,97649,1,8,1:2:0:0:
232,236,98049,1,2,0:0:0:0:
252,116,98449,2,0,P|272:72|296:52,1,60,8|8,0:0|0:0,0:0:0:0:
400,84,99049,2,0,P|440:96|472:92,1,60,8|8,0:0|1:2,0:0:0:0:
484,212,99649,1,2,0:0:0:0:
436,320,100049,38,0,P|392:280|380:208,1,120,4|2,0:1|0:0,0:0:0:0:
388,164,100649,2,0,P|364:188|336:200,1,60,0|8,0:0|1:2,0:0:0:0:
232,148,101249,1,2,0:0:0:0:
120,112,101649,2,0,L|144:184,1,60,2|0,3:3|3:0,0:0:0:0:
120,224,102049,2,0,L|144:288,1,60,10|0,3:2|3:2,0:0:0:0:
104,328,102449,2,0,B|112:356|112:356|20:328,1,120,0|8,3:0|1:2,0:0:0:0:
24,208,103249,6,0,P|48:156|104:128,1,120,4|2,0:0|0:0,0:0:0:0:
196,56,104049,1,8,1:2:0:0:
280,140,104449,2,0,L|348:116,1,60,2|0,0:0|0:0,0:0:0:0:
384,156,104849,2,0,L|460:128,1,60,8|0,0:0|0:0,0:0:0:0:
480,164,105249,2,0,P|488:216|464:300,1,120,10|8,0:0|1:2,0:0:0:0:
368,340,106049,1,2,0:0:0:0:
268,272,106449,6,0,L|280:144,1,120,4|2,0:0|0:0,0:0:0:0:
256,36,107249,1,8,1:2:0:0:
256,36,107649,1,2,0:0:0:0:
164,112,108049,2,0,L|176:188,2,60,8|8|2,0:0|0:3|0:0,0:0:0:0:
64,44,108849,2,0,L|60:112,1,60,8|0,1:2|0:0,0:0:0:0:
20,148,109249,2,0,L|12:220,1,60,8|0,1:2|0:0,0:0:0:0:
44,260,109649,6,0,B|32:324|32:324|100:296,1,120,4|2,0:0|0:0,0:0:0:0:
192,252,110449,1,8,1:2:0:0:
192,252,110849,1,2,0:0:0:0:
296,308,111249,2,0,L|372:320,3,60,8|8|0|8,0:0|0:0|0:0|0:0,0:0:0:0:
400,276,112049,2,0,B|452:284|452:284|480:256|464:216,1,120,8|2,1:2|0:0,0:0:0:0:
388,132,112849,38,0,P|384:92|424:24,1,120,12|2,0:0|0:0,0:0:0:0:
308,60,113649,2,0,P|272:88|188:64,1,120,8|2,1:2|0:0,0:0:0:0:
160,36,114249,2,0,P|168:76|164:116,1,60,8|4,1:2|0:0,0:0:0:0:
104,196,114849,1,2,0:0:0:0:
32,292,115249,2,0,P|56:312|96:320,1,60,8|0,1:2|0:0,0:0:0:0:
104,376,115649,2,0,P|152:364|180:368,1,60,8|0,1:2|0:0,0:0:0:0:
196,316,116049,1,4,0:0:0:0:
436,236,128849,5,2,0:3:0:0:
404,104,129449,1,8,0:0:0:0:
404,104,129649,2,0,P|352:68|320:60,1,90.0000034332277,8|0,1:2|0:0,0:0:0:0:
272,132,130449,2,0,P|232:140|172:124,1,90.0000034332277,2|0,0:0|0:0,0:0:0:0:
144,152,131049,2,0,P|108:152|84:164,1,45.0000017166138,0|8,0:0|1:2,0:0:0:0:
32,96,131649,1,2,0:0:0:0:
28,184,132049,5,2,0:3:0:0:
60,316,132649,1,8,0:0:0:0:
60,316,132849,2,0,P|136:304|164:312,1,90.0000034332277,8|0,1:2|0:0,0:0:0:0:
228,264,133649,2,0,P|276:276|328:264,1,90.0000034332277,4|0,0:3|0:0,0:0:0:0:
356,248,134249,2,0,P|348:288|352:304,1,45.0000017166138,0|8,0:0|1:2,0:0:0:0:
416,352,134849,1,2,0:0:0:0:
448,268,135249,5,2,0:3:0:0:
388,148,135849,1,8,0:0:0:0:
388,148,136049,2,0,P|384:100|396:48,1,90.0000034332277,8|0,1:2|0:0,0:0:0:0:
300,56,136849,2,0,L|212:32,1,90.0000034332277,8|0,1:2|0:0,0:0:0:0:
136,80,137649,2,0,L|156:136,1,45.0000017166138,8|0,1:2|0:0,0:0:0:0:
196,136,138049,2,0,L|216:184,1,45.0000017166138,8|0,1:2|3:0,0:0:0:0:
256,192,138449,37,2,0:0:0:0:
256,192,140049,1,2,0:0:0:0:
256,192,140849,6,0,L|248:256,3,60,0|0|0|0,0:0|1:0|0:0|1:2,0:0:0:0:
204,260,141649,6,0,B|228:284|224:316|224:316|192:336|164:324,1,120,4|2,0:0|0:0,0:0:0:0:
68,260,142449,2,0,B|48:288|12:288|12:288|-4:248|8:224,1,120,0|2,1:0|0:0,0:0:0:0:
100,160,143249,2,0,B|96:124|120:104|120:104|160:104|176:128,1,120,4|2,0:0|0:0,0:0:0:0:
288,84,144049,2,0,B|300:112|336:120|336:120|368:100|372:72,1,120,0|2,1:0|0:0,0:0:0:0:
476,132,144849,6,0,P|480:192|460:264,1,120,4|2,0:2|0:0,0:0:0:0:
420,288,145449,1,0,0:0:0:0:
360,272,145649,2,0,B|364:232|340:200|340:200|284:236,1,120,8|2,1:2|0:0,0:0:0:0:
188,196,146449,38,0,P|160:208|128:208,3,60,8|0|2|0,0:0|1:0|0:0|0:0,0:0:0:0:
108,264,147249,2,0,P|64:260|36:268,3,60,2|8|0|8,1:2|0:0|0:0|0:0,0:0:0:0:
36,204,148049,6,0,B|56:168|36:136|36:136|64:144|88:128,1,120,12|2,0:0|0:0,0:0:0:0:
112,80,148649,1,0,0:0:0:0:
168,64,148849,2,0,P|216:56|288:80,1,120,8|2,1:2|0:0,0:0:0:0:
356,172,149649,2,0,P|332:200|304:216,2,60,0|0|10,0:0|0:0|0:0,0:0:0:0:
376,116,150249,1,8,0:0:0:0:
436,120,150449,2,0,P|448:188|428:248,1,120,8|2,1:2|0:0,0:0:0:0:
356,324,151249,6,0,L|224:300,1,120,4|2,0:0|0:0,0:0:0:0:
140,232,152049,2,0,P|152:280|120:364,1,120,8|2,1:2|0:0,0:0:0:0:
76,364,152649,1,0,0:0:0:0:
20,344,152849,2,0,L|32:272,1,60,8|8,0:0|1:2,0:0:0:0:
16,228,153249,2,0,L|24:160,1,60,2|0,0:0|0:0,0:0:0:0:
56,120,153649,2,0,L|64:48,1,60,10|0,1:2|0:0,0:0:0:0:
116,32,154049,2,0,L|184:44,1,60,10|8,1:2|1:2,0:0:0:0:
184,100,154449,6,0,L|304:76,1,120,4|2,0:0|0:0,0:0:0:0:
388,96,155249,1,8,0:2:0:0:
452,160,155649,2,0,L|436:216,1,45.0000017166138,2|0,0:0|0:0,0:0:0:0:
472,236,156049,38,0,L|440:332,1,90.0000034332277,12|2,0:0|0:0,0:0:0:0:
400,336,156649,1,8,0:0:0:0:
360,312,156849,2,0,P|344:288|328:272,2,45.0000017166138,8|0|2,1:2|0:0|0:0,0:0:0:0:
276,344,157649,6,0,P|228:352|168:344,1,90.0000034332277,4|2,0:0|0:0,0:0:0:0:
148,328,158249,1,0,0:0:0:0:
172,288,158449,2,0,P|184:252|180:196,1,90.0000034332277,8|2,1:2|0:0,0:0:0:0:
120,136,159249,2,0,P|100:156|88:188,1,45.0000017166138,8|8,0:0|1:2,0:0:0:0:
68,132,159649,2,0,P|64:160|68:184,1,45.0000017166138,2|0,0:0|0:0,0:0:0:0:
24,160,160049,2,0,P|44:192|56:200,1,45.0000017166138,10|0,1:2|0:0,0:0:0:0:
8,212,160449,2,0,P|40:228|60:228,1,45.0000017166138,10|8,1:2|0:0,0:0:0:0:
20,264,160849,6,0,P|64:268|116:244,1,90.0000034332277,4|2,0:0|0:0,0:0:0:0:
152,252,161449,1,8,0:0:0:0:
192,268,161649,2,0,P|244:252|284:260,1,90.0000034332277,8|2,1:2|0:0,0:0:0:0:
344,200,162449,2,0,L|356:144,2,45.0000017166138,4|0|2,0:0|0:0|0:0,0:0:0:0:
380,228,163049,1,8,0:0:0:0:
424,228,163249,2,0,P|444:192|448:132,1,90.0000034332277,8|2,1:2|0:0,0:0:0:0:
408,64,164049,6,0,P|368:44|308:48,1,90.0000034332277,4|2,1:2|0:0,0:0:0:0:
256,104,164849,2,0,P|212:116|156:116,1,90.0000034332277,8|2,1:2|0:0,0:0:0:0:
128,96,165449,1,0,1:0:0:0:
96,64,165649,2,0,P|72:92|72:104,1,45.0000017166138,8|8,0:0|1:2,0:0:0:0:
44,136,166049,2,0,P|52:160|52:192,1,45.0000017166138,2|0,0:0|0:0,0:0:0:0:
28,216,166449,38,0,P|24:248|32:268,1,45.0000017166138,10|0,1:2|0:0,0:0:0:0:
44,300,166849,1,2,0:0:0:0:
124,340,167249,6,0,P|173:336|205:344,1,60,4|0,0:3|0:0,0:0:0:0:
236,312,167649,2,0,P|264:316|312:308,1,60,4|0,0:3|0:0,0:0:0:0:
348,340,168049,2,0,P|384:336|420:344,1,60,4|0,0:3|0:0,0:0:0:0:
448,296,168449,2,0,P|464:252|464:224,1,60,8|8,0:3|0:0,0:0:0:0:
424,196,168849,6,0,L|400:132,3,60,4|0|4|0,3:0|0:0|0:3|0:0,0:0:0:0:
456,112,169649,2,0,L|468:44,3,60,4|0|4|0,0:3|0:0|0:3|0:0,0:0:0:0:
412,28,170449,6,0,L|272:48,1,120,2|0,0:0|0:0,0:0:0:0:
252,88,171049,1,0,0:0:0:0:
256,148,171249,2,0,P|272:192|288:204,3,60,8|0|8|0,3:2|0:0|0:0|0:0,0:0:0:0:
292,260,172049,38,0,P|260:280|216:288,1,60,0|8,0:0|0:3,0:0:0:0:
216,344,172449,2,0,P|184:324|168:304,1,60
152,248,172849,1,8,1:2:0:0:
136,128,173249,2,0,P|144:80|152:64,1,60,8|0,1:2|0:0,0:0:0:0:
192,28,173649,6,0,P|136:52|72:48,1,120,2|0,0:0|0:0,0:0:0:0:
78,50,174449,1,4,0:3:0:0:
24,156,174849,2,0,L|40:216,1,60,8|8,0:0|0:0,0:0:0:0:
20,272,175249,6,0,P|60:240|144:236,1,120,6|0,0:0|0:0,0:0:0:0:
232,288,176049,1,8,1:2:0:0:
344,332,176449,2,8,P|392:344|424:336,1,60,8|8,0:2|0:0,0:0:0:0:
456,320,176849,6,2,L|440:192,1,120,12|2,0:0|0:0,0:0:0:0:
484,88,177649,2,0,L|472:20,2,60,8|8|0,1:2|0:0|0:0,0:0:0:0:
364,72,178449,38,0,P|316:56|284:60,1,60,8|0,0:0|0:0,0:0:0:0:
264,96,178849,2,0,P|236:108|192:108,1,60,2|0,0:0|0:0,0:0:0:0:
152,84,179249,2,0,P|176:128|168:200,1,120,8|8,0:0|0:0,0:0:0:0:
112,300,180049,6,0,P|104:260|108:232,1,60,4|0,0:3|0:0,0:0:0:0:
52,212,180449,2,0,P|88:184|116:176,1,60,4|0,0:3|0:0,0:0:0:0:
108,120,180849,2,0,P|144:124|168:140,1,60,4|0,0:3|0:0,0:0:0:0:
216,104,181249,2,0,P|224:148|216:172,1,60,4|0,0:3|0:0,0:0:0:0:
272,192,181649,6,0,P|260:236|264:260,3,60,4|0|4|0,0:3|0:0|0:3|0:0,0:0:0:0:
316,276,182449,2,0,P|324:320|316:344,3,60,4|0|4|0,0:3|0:0|0:3|0:0,0:0:0:0:
376,352,183249,6,0,P|420:324|488:328,1,120,6|0,0:0|0:0,0:0:0:0:
485,327,183849,2,0,P|472:288|476:256,1,60,0|8,0:0|1:2,0:0:0:0:
500,152,184449,1,0,0:0:0:0:
420,64,184849,2,0,P|424:108|416:132,2,60,0|8|0,0:0|0:0|0:0,0:0:0:0:
364,44,185449,1,0,0:0:0:0:
308,68,185649,2,0,P|272:80|184:76,1,120,8|8,0:0|0:0,0:0:0:0:
88,140,186449,38,0,P|152:128|224:136,1,120,6|0,0:0|0:0,0:0:0:0:
240,184,187049,1,0,0:0:0:0:
228,244,187249,2,0,L|212:320,2,60,8|0|0,0:3|0:0|0:0,0:0:0:0:
336,192,188049,6,0,L|352:264,2,60,6|0|8,0:0|0:0|0:0,0:0:0:0:
344,132,188649,1,8,0:0:0:0:
400,108,188849,2,0,P|440:112|484:184,1,120,8|0,0:3|0:3,0:0:0:0:
460,292,189649,6,0,P|416:312|332:300,1,120,12|0,0:3|0:0,0:0:0:0:
228,320,190449,2,0,P|168:312|92:332,1,120,8|0,0:3|0:0,0:0:0:0:
28,240,191249,2,0,P|64:212|96:208,1,60,4|0,0:1|0:0,0:0:0:0:
72,148,191649,2,0,P|112:164|152:160,1,60,8|0,0:3|0:0,0:0:0:0:
124,224,192049,2,0,P|164:204|192:204,1,60,8|8,0:3|0:3,0:0:0:0:
164,144,192449,2,0,P|200:168|232:168,1,60,0|8,0:0|0:3,0:0:0:0:
256,216,192849,5,4,0:0:0:0:
