osu file format v13

[General]
AudioFilename: EdelWeiss.mp3
AudioLeadIn: 2000
PreviewTime: 89449
Countdown: 0
SampleSet: Soft
StackLeniency: 0.7
Mode: 0
LetterboxInBreaks: 0
UseSkinSprites: 1
EpilepsyWarning: 1
WidescreenStoryboard: 0

[Editor]
DistanceSpacing: 1
BeatDivisor: 4
GridSize: 4
TimelineZoom: 2.3

[Metadata]
Title:EdelWeiss
TitleUnicode:EdelWeiss
Artist:OkameP
ArtistUnicode:オカメP
Creator:[Mahua]
Version:EdelWeiss
Source:
Tags:Evil_Twilight Awaken Melt sm21893513 vocaloid hatsune miku
BeatmapID:307657
BeatmapSetID:119911

[Difficulty]
HPDrainRate:6
CircleSize:4
OverallDifficulty:7
ApproachRate:9
SliderMultiplier:1.8
SliderTickRate:2

[Events]
//Background and Video events
0,0,"EdelWeiss.jpg",0,0
//Break Periods
//Storyboard Layer 0 (Background)
//Storyboard Layer 1 (Fail)
//Storyboard Layer 2 (Pass)
//Storyboard Layer 3 (Foreground)
//Storyboard Sound Samples
//Background Colour Transformations
3,100,163,162,255

[TimingPoints]
849,400,4,2,2,25,1,0
849,-133.333333333333,4,2,2,25,0,0
13649,-133.333333333333,4,2,1,40,0,0
14449,-133.333333333333,4,2,2,40,0,0
15249,-133.333333333333,4,2,1,40,0,0
16049,-133.333333333333,4,2,2,40,0,0
16849,-133.333333333333,4,2,1,40,0,0
17449,-133.333333333333,4,2,2,40,0,0
19249,-133.333333333333,4,2,0,40,0,0
20049,-133.333333333333,4,2,2,40,0,0
23249,-133.333333333333,4,2,1,40,0,0
23849,-133.333333333333,4,2,2,40,0,0
25649,-133.333333333333,4,2,5,50,0,0
26449,-100,4,2,1,60,0,0
27049,-100,4,2,2,60,0,0
27249,-100,4,2,1,60,0,0
27649,-100,4,2,4,60,0,0
27849,-100,4,2,1,60,0,0
28249,-100,4,2,3,60,0,0
28449,-100,4,2,1,60,0,0
28649,-100,4,2,2,60,0,0
28849,-100,4,2,1,60,0,0
29249,-100,4,2,2,60,0,0
29649,-100,4,2,2,60,0,0
31249,-100,4,2,1,60,0,0
31449,-100,4,2,3,60,0,0
31549,-100,4,2,1,60,0,0
32849,-100,4,2,2,60,0,0
33249,-100,4,2,4,60,0,0
33449,-100,4,2,2,60,0,0
33649,-100,4,2,1,60,0,0
34049,-100,4,2,4,60,0,0
34249,-100,4,2,3,60,0,0
34349,-100,4,2,1,60,0,0
34849,-100,4,2,4,60,0,0
35049,-100,4,2,2,60,0,0
35249,-100,4,2,1,60,0,0
35349,-100,4,2,5,60,0,0
35549,-100,4,2,1,60,0,0
35649,-100,4,2,4,60,0,0
35849,-100,4,2,1,60,0,0
36449,-100,4,2,4,60,0,0
36649,-100,4,2,1,60,0,0
36949,-100,4,2,5,60,0,0
37149,-100,4,2,4,60,0,0
37449,-100,4,2,1,60,0,0
38049,-100,4,2,4,40,0,0
38249,-100,4,2,1,60,0,0
39649,-133.333333333333,4,2,3,60,0,0
40049,-133.333333333333,4,2,1,60,0,0
40449,-133.333333333333,4,2,3,60,0,0
40649,-133.333333333333,4,2,3,60,0,0
41649,-133.333333333333,4,2,1,60,0,0
41849,-133.333333333333,4,2,3,60,0,0
42449,-133.333333333333,4,2,3,60,0,0
42649,-133.333333333333,4,2,1,60,0,0
43049,-133.333333333333,4,2,3,60,0,0
43249,-133.333333333333,4,2,1,60,0,0
43849,-133.333333333333,4,2,3,60,0,0
44849,-133.333333333333,4,2,1,60,0,0
45049,-133.333333333333,4,2,3,60,0,0
45649,-133.333333333333,4,2,2,60,0,0
45849,-133.333333333333,4,2,1,60,0,0
46049,-133.333333333333,4,2,3,60,0,0
46449,-133.333333333333,4,2,1,60,0,0
47049,-133.333333333333,4,2,3,60,0,0
48049,-133.333333333333,4,2,1,60,0,0
48449,-133.333333333333,4,2,3,60,0,0
49649,-133.333333333333,4,2,1,60,0,0
49849,-133.333333333333,4,2,3,60,0,0
50249,-133.333333333333,4,2,1,60,0,0
51449,-133.333333333333,4,2,3,60,0,0
52049,-133.333333333333,4,2,2,60,0,0
52149,-133.333333333333,4,2,1,60,0,0
52649,-133.333333333333,4,2,3,60,0,0
52849,-133.333333333333,4,2,1,60,0,0
53449,-133.333333333333,4,2,3,60,0,0
53749,-133.333333333333,4,2,6,40,0,0
53949,-133.333333333333,4,2,1,60,0,0
55049,-133.333333333333,4,2,3,60,0,0
55249,-133.333333333333,4,2,0,60,0,0
55349,-133.333333333333,4,2,1,60,0,0
55849,-133.333333333333,4,2,3,60,0,0
56049,-133.333333333333,4,2,1,60,0,0
56249,-133.333333333333,4,2,3,60,0,0
56549,-133.333333333333,4,2,1,60,0,0
56849,-133.333333333333,4,2,3,60,0,0
56874,-133.333333333333,4,2,1,60,0,0
57449,-133.333333333333,4,2,3,60,0,0
57649,-133.333333333333,4,2,1,60,0,0
57849,-133.333333333333,4,2,3,60,0,0
57949,-133.333333333333,4,2,1,60,0,0
58249,-133.333333333333,4,2,3,60,0,0
58449,-133.333333333333,4,2,1,60,0,0
58549,-133.333333333333,4,2,0,60,0,0
58849,-133.333333333333,4,2,1,60,0,0
59049,-133.333333333333,4,2,3,60,0,0
59249,-133.333333333333,4,2,1,60,0,0
59849,-133.333333333333,4,2,3,60,0,0
60149,-133.333333333333,4,2,6,60,0,0
60349,-133.333333333333,4,2,1,60,0,0
61449,-133.333333333333,4,2,3,60,0,0
61649,-133.333333333333,4,2,0,60,0,0
61749,-133.333333333333,4,2,1,60,0,0
62849,-133.333333333333,4,2,3,60,0,0
62949,-133.333333333333,4,2,6,60,0,0
63149,-133.333333333333,4,2,1,60,0,0
64149,-133.333333333333,4,2,5,60,0,0
64249,-133.333333333333,4,2,1,60,0,0
64849,-133.333333333333,4,2,1,70,0,0
66049,-133.333333333333,4,2,8,35,0,0
66249,-133.333333333333,4,2,3,70,0,0
66449,-133.333333333333,4,2,8,25,0,0
66649,-133.333333333333,4,2,3,70,0,0
67249,-133.333333333333,4,2,1,70,0,0
67449,-133.333333333333,4,2,8,35,0,0
67649,-133.333333333333,4,2,3,70,0,0
67849,-133.333333333333,4,2,1,45,0,0
68049,-133.333333333333,4,2,1,70,0,0
68249,-133.333333333333,4,2,1,70,0,0
68449,-133.333333333333,4,2,8,25,0,0
68649,-133.333333333333,4,2,1,70,0,0
68849,-133.333333333333,4,2,7,70,0,0
69049,-133.333333333333,4,2,1,70,0,0
69249,-133.333333333333,4,2,8,35,0,0
69449,-133.333333333333,4,2,3,70,0,0
69649,-133.333333333333,4,2,8,35,0,0
69849,-133.333333333333,4,2,3,70,0,0
70049,-133.333333333333,4,2,8,35,0,0
70249,-133.333333333333,4,2,1,70,0,0
70449,-133.333333333333,4,2,7,70,0,0
70549,-133.333333333333,4,2,1,70,0,0
70649,-133.333333333333,4,2,3,70,0,0
70849,-133.333333333333,4,2,1,70,0,0
71349,-133.333333333333,4,2,0,70,0,0
71449,-133.333333333333,4,2,1,70,0,0
71649,-133.333333333333,4,2,8,35,0,0
71849,-133.333333333333,4,2,1,70,0,0
72449,-133.333333333333,4,2,8,25,0,0
72649,-133.333333333333,4,2,3,70,0,0
72949,-133.333333333333,4,2,6,70,0,0
73149,-133.333333333333,4,2,1,70,0,0
73249,-133.333333333333,4,2,8,30,0,0
73449,-133.333333333333,4,2,1,70,0,0
74049,-133.333333333333,4,2,3,70,0,0
74149,-133.333333333333,4,2,1,70,0,0
74449,-133.333333333333,4,2,3,70,0,0
74749,-133.333333333333,4,2,8,25,0,0
75049,-133.333333333333,4,2,3,70,0,0
75249,-133.333333333333,4,2,1,70,0,0
75649,-133.333333333333,4,2,3,70,0,0
75849,-133.333333333333,4,2,1,70,0,0
76049,-133.333333333333,4,2,3,70,0,0
76249,-133.333333333333,4,2,1,70,0,0
76649,-133.333333333333,4,2,3,70,0,0
76849,-133.333333333333,4,2,1,70,0,0
77249,-133.333333333333,4,2,3,70,0,0
77449,-133.333333333333,4,2,1,70,0,0
78049,-133.333333333333,4,2,8,35,0,0
78249,-133.333333333333,4,2,3,70,0,0
78449,-133.333333333333,4,2,1,70,0,0
79049,-133.333333333333,4,2,3,70,0,0
79349,-133.333333333333,4,2,6,70,0,0
79549,-133.333333333333,4,2,1,70,0,0
79849,-133.333333333333,4,2,3,70,0,0
80049,-133.333333333333,4,2,1,70,0,0
80649,-133.333333333333,4,2,8,35,0,0
80849,-133.333333333333,4,2,0,70,0,0
80949,-133.333333333333,4,2,1,70,0,0
81249,-133.333333333333,4,2,8,35,0,0
81449,-133.333333333333,4,2,3,70,0,0
81649,-133.333333333333,4,2,1,50,0,0
82249,-133.333333333333,4,2,3,70,0,0
82649,-133.333333333333,4,2,8,35,0,0
83049,-133.333333333333,4,2,3,70,0,0
83149,-133.333333333333,4,2,5,70,0,0
83349,-133.333333333333,4,2,1,70,0,0
83649,-133.333333333333,4,2,3,70,0,0
84049,-133.333333333333,4,2,0,70,0,0
84149,-133.333333333333,4,2,1,70,0,0
84649,-133.333333333333,4,2,3,70,0,0
84849,-133.333333333333,4,2,1,70,0,0
85449,-133.333333333333,4,2,3,70,0,0
85749,-133.333333333333,4,2,6,70,0,0
85949,-133.333333333333,4,2,1,70,0,0
86449,-133.333333333333,4,2,1,70,0,0
86849,-133.333333333333,4,2,8,35,0,0
87049,-133.333333333333,4,2,1,70,0,0
87449,-133.333333333333,4,2,1,10,0,0
88849,-133.333333333333,4,2,5,30,0,0
88949,-133.333333333333,4,2,9,10,0,0
89249,-133.333333333333,4,2,9,30,0,0
89649,-100,4,2,1,70,0,0
90849,-100,4,2,4,70,0,0
91249,-100,4,2,1,70,0,0
91649,-100,4,2,4,70,0,0
92049,-100,4,2,1,70,0,0
92249,-100,4,2,3,70,0,0
92449,-100,4,2,4,70,0,0
92649,-100,4,2,3,70,0,0
92849,-100,4,2,1,70,0,0
93249,-100,4,2,4,70,0,0
93449,-100,4,2,1,70,0,0
93649,-100,4,2,3,70,0,0
93749,-100,4,2,6,70,0,0
93949,-100,4,2,1,70,0,0
94049,-100,4,2,4,70,0,0
94249,-100,4,2,3,70,0,0
94449,-100,4,2,1,70,0,0
94849,-100,4,2,4,70,0,0
95049,-100,4,2,1,70,0,0
95249,-100,4,2,4,70,0,0
95449,-100,4,2,1,70,0,0
95649,-100,4,2,4,70,0,0
96049,-100,4,2,1,70,0,0
96849,-100,4,2,2,90,0,0
97049,-100,4,2,2,70,0,0
97249,-100,4,2,4,70,0,0
97649,-100,4,2,7,70,0,0
97749,-100,4,2,1,70,0,0
98049,-100,4,2,4,70,0,0
98249,-100,4,2,1,70,0,0
98449,-100,4,2,3,70,0,0
98849,-100,4,2,4,70,0,0
99249,-100,4,2,1,70,0,0
99349,-100,4,2,6,50,0,0
99549,-100,4,2,1,70,0,0
99649,-100,4,2,4,70,0,0
100049,-100,4,2,1,70,0,0
100449,-100,4,2,4,70,0,0
100849,-100,4,2,1,70,0,0
100949,-100,4,2,5,70,0,0
101149,-100,4,2,1,70,0,0
101249,-100,4,2,4,70,0,0
101449,-100,4,2,1,60,0,0
101649,-100,4,2,1,70,0,0
102049,-100,4,2,4,70,0,0
102449,-100,4,2,5,60,0,0
103249,-100,4,2,1,70,0,0
103649,-100,4,2,4,70,0,0
104049,-100,4,2,1,70,0,0
104449,-100,4,2,4,70,0,0
104849,-100,4,2,1,70,0,0
105049,-100,4,2,3,70,0,0
105249,-100,4,2,4,70,0,0
105649,-100,4,2,1,70,0,0
106049,-100,4,2,4,70,0,0
106449,-100,4,2,1,70,0,0
106849,-100,4,2,4,70,0,0
107249,-100,4,2,1,70,0,0
107649,-100,4,2,4,70,0,0
107849,-100,4,2,1,50,0,0
108049,-100,4,2,4,70,0,0
108249,-100,4,2,3,70,0,0
108449,-100,4,2,4,70,0,0
108849,-100,4,2,5,70,0,0
108949,-100,4,2,1,70,0,0
109249,-100,4,2,5,70,0,0
109349,-100,4,2,1,70,0,0
109649,-100,4,2,2,70,0,0
110049,-100,4,2,4,70,0,0
110449,-100,4,2,1,70,0,0
110849,-100,4,2,4,70,0,0
111249,-100,4,2,3,70,0,0
111649,-100,4,2,4,70,0,0
111849,-100,4,2,3,70,0,0
112049,-100,4,2,1,70,0,0
112149,-100,4,2,5,70,0,0
112349,-100,4,2,1,70,0,0
112449,-100,4,2,4,70,0,0
112849,-100,4,2,1,70,0,0
113249,-100,4,2,4,70,0,0
113649,-100,4,2,1,70,0,0
114049,-100,4,2,4,70,0,0
114249,-100,4,2,3,70,0,0
114449,-100,4,2,1,50,0,0
114649,-100,4,2,3,70,0,0
114849,-100,4,2,4,70,0,0
115049,-100,4,2,3,70,0,0
115249,-100,4,2,1,70,0,0
115349,-100,4,2,7,70,0,0
115449,-100,4,2,1,70,0,0
115549,-100,4,2,5,70,0,0
115649,-100,4,2,1,70,0,0
115749,-100,4,2,7,70,0,0
115849,-100,4,2,4,70,0,0
115949,-100,4,2,5,70,0,0
116049,-100,4,2,1,25,0,0
117249,-100,4,2,2,25,0,0
119049,-100,4,2,1,25,0,0
120449,-100,4,2,2,25,0,0
122449,-200,4,2,1,25,0,0
123249,-200,4,2,2,25,0,0
124049,-200,4,2,1,25,0,0
124849,-200,4,2,2,25,0,0
125649,-200,4,2,1,25,0,0
126449,-200,4,2,2,25,0,0
126849,-200,4,2,2,10,0,0
127049,-200,4,2,2,25,0,0
127249,-200,4,2,1,25,0,0
127649,-200,4,2,1,17,0,0
128049,-200,4,2,2,25,0,0
128849,-133.333333333333,4,2,1,40,0,0
129049,-133.333333333333,4,2,3,40,0,0
129249,-133.333333333333,4,2,8,30,0,0
129449,-133.333333333333,4,2,3,40,0,0
129649,-133.333333333333,4,2,1,40,0,0
130049,-133.333333333333,4,2,4,40,0,0
130249,-133.333333333333,4,2,3,40,0,0
130449,-133.333333333333,4,2,3,40,0,0
130649,-133.333333333333,4,2,1,40,0,0
131049,-133.333333333333,4,2,3,40,0,0
131249,-133.333333333333,4,2,5,40,0,0
131449,-133.333333333333,4,2,1,40,0,0
131649,-133.333333333333,4,2,8,20,0,0
132049,-133.333333333333,4,2,1,40,0,0
132249,-133.333333333333,4,2,3,40,0,0
132449,-133.333333333333,4,2,8,20,0,0
132649,-133.333333333333,4,2,3,40,0,0
132849,-133.333333333333,4,2,5,40,0,0
133049,-133.333333333333,4,2,3,40,0,0
133249,-133.333333333333,4,2,8,20,0,0
133449,-133.333333333333,4,2,3,40,0,0
133649,-133.333333333333,4,2,4,40,0,0
133849,-133.333333333333,4,2,3,40,0,0
134049,-133.333333333333,4,2,8,20,0,0
134249,-133.333333333333,4,2,4,20,0,0
134449,-133.333333333333,4,2,1,40,0,0
134849,-133.333333333333,4,2,8,20,0,0
135249,-133.333333333333,4,2,1,40,0,0
135449,-133.333333333333,4,2,3,40,0,0
135649,-133.333333333333,4,2,8,20,0,0
135849,-133.333333333333,4,2,3,40,0,0
136049,-133.333333333333,4,2,4,40,0,0
136249,-133.333333333333,4,2,3,40,0,0
136449,-133.333333333333,4,2,1,40,0,0
136649,-133.333333333333,4,2,3,40,0,0
136849,-133.333333333333,4,2,4,40,0,0
137049,-133.333333333333,4,2,1,40,0,0
137449,-133.333333333333,4,2,3,40,0,0
137649,-133.333333333333,4,2,1,40,0,0
138049,-133.333333333333,4,2,8,20,0,0
138449,-133.333333333333,4,2,3,10,0,0
140049,-133.333333333333,4,2,5,25,0,0
140149,-133.333333333333,4,2,1,15,0,0
140449,-133.333333333333,4,2,1,30,0,0
140849,-100,4,2,1,70,0,0
142049,-100,4,2,2,70,0,0
142249,-100,4,2,1,70,0,0
142849,-100,4,2,2,70,0,0
143249,-100,4,2,4,70,0,0
143649,-100,4,2,2,70,0,0
144049,-100,4,2,1,70,0,0
144249,-100,4,2,4,70,0,0
144449,-100,4,2,2,70,0,0
144649,-100,4,2,4,70,0,0
144849,-100,4,2,1,70,0,0
145249,-100,4,2,2,70,0,0
145649,-100,4,2,1,70,0,0
146049,-100,4,2,2,70,0,0
146249,-100,4,2,3,70,0,0
146649,-100,4,2,4,70,0,0
146849,-100,4,2,2,70,0,0
147249,-100,4,2,3,70,0,0
148049,-100,4,2,1,70,0,0
148449,-100,4,2,2,70,0,0
148649,-100,4,2,3,70,0,0
148849,-100,4,2,1,70,0,0
149249,-100,4,2,2,70,0,0
149649,-100,4,2,1,70,0,0
150049,-100,4,2,2,70,0,0
150249,-100,4,2,3,70,0,0
150449,-100,4,2,1,70,0,0
150849,-100,4,2,2,70,0,0
151249,-100,4,2,1,70,0,0
151649,-100,4,2,2,70,0,0
152049,-100,4,2,1,70,0,0
152249,-100,4,2,3,70,0,0
152449,-100,4,2,2,70,0,0
152649,-100,4,2,3,70,0,0
153049,-100,4,2,4,70,0,0
153249,-100,4,2,2,70,0,0
153649,-100,4,2,5,70,0,0
153849,-100,4,2,4,70,0,0
154449,-100,4,2,1,70,0,0
154849,-100,4,2,2,70,0,0
155249,-100,4,2,1,70,0,0
155649,-100,4,2,2,70,0,0
156049,-100,4,2,3,70,0,0
156449,-100,4,2,2,70,0,0
156649,-100,4,2,3,70,0,0
156849,-100,4,2,1,70,0,0
157249,-100,4,2,2,70,0,0
157649,-100,4,2,1,70,0,0
158049,-100,4,2,2,70,0,0
158449,-100,4,2,4,70,0,0
158649,-100,4,2,3,70,0,0
158849,-100,4,2,2,70,0,0
159049,-100,4,2,3,70,0,0
160049,-100,4,2,1,70,0,0
160249,-100,4,2,3,70,0,0
160449,-100,4,2,1,70,0,0
160549,-100,4,2,3,70,0,0
160649,-100,4,2,1,70,0,0
160749,-100,4,2,3,70,0,0
160849,-100,4,2,1,70,0,0
161249,-100,4,2,2,70,0,0
161649,-100,4,2,1,70,0,0
162049,-100,4,2,2,70,0,0
162449,-100,4,2,3,70,0,0
162849,-100,4,2,2,70,0,0
163049,-100,4,2,3,70,0,0
163249,-100,4,2,4,70,0,0
163649,-100,4,2,2,70,0,0
164049,-100,4,2,1,70,0,0
164449,-100,4,2,2,70,0,0
164649,-100,4,2,3,70,0,0
164849,-100,4,2,1,70,0,0
165249,-100,4,2,2,70,0,0
165449,-100,4,2,4,70,0,0
165849,-100,4,2,3,70,0,0
166049,-100,4,2,2,70,0,0
166449,-100,4,2,1,70,0,0
166849,-133.333333333333,4,2,6,100,0,0
166874,-100,4,2,1,70,0,0
167249,-100,4,2,1,70,0,0
171449,-100,4,2,3,70,0,0
171849,-100,4,2,3,70,0,0
172249,-100,4,2,5,50,0,0
172349,-100,4,2,4,70,0,0
172649,-100,4,2,4,70,0,0
172849,-100,4,2,5,70,0,0
173049,-100,4,2,4,70,0,0
173249,-100,4,2,5,70,0,0
173449,-100,4,2,4,70,0,0
173649,-100,4,2,1,70,0,0
174249,-100,4,2,3,70,0,0
174449,-100,4,2,1,70,0,0
175649,-100,4,2,4,70,0,0
176049,-100,4,2,1,70,0,0
176249,-100,4,2,3,70,0,0
176449,-100,4,2,4,70,0,0
176849,-100,4,2,1,70,0,0
177249,-100,4,2,4,70,0,0
177649,-100,4,2,1,70,0,0
177749,-100,4,2,6,70,0,0
177949,-100,4,2,1,70,0,0
178049,-100,4,2,4,70,0,0
178449,-100,4,2,1,70,0,0
184149,-100,4,2,6,70,0,0
184349,-100,4,2,1,70,0,0
184449,-100,4,2,4,70,0,0
184649,-100,4,2,3,70,0,0
184849,-100,4,2,1,70,0,0
186449,-100,4,2,4,70,0,0
189049,-100,4,2,3,70,0,0
190449,-100,4,2,1,70,0,0
190849,-100,4,2,4,70,0,0
191049,-100,4,2,3,70,0,0
191649,-100,4,2,1,70,0,0
192149,-100,4,2,3,70,0,0
192449,-100,4,2,4,70,0,0
192649,-100,4,2,3,70,0,0
192849,-100,4,2,6,30,0,0

[Colours]
Combo1 : 165,160,126
Combo2 : 0,128,255
Combo3 : 83,206,253
Combo4 : 237,237,237
Combo5 : 122,228,237
Combo6 : 183,167,119

[HitObjects]
124,84,849,70,0,L|140:228,1,135.000005149842,10|0,0:0|0:0,0:0:0:0:
76,296,1649,1,0,0:0:0:0:
224,108,2049,1,0,0:0:0:0:
296,56,2249,1,0,0:0:0:0:
384,48,2449,2,0,P|440:60|488:140,1,135.000005149842,2|0,0:0|0:0,0:0:0:0:
488,124,3449,6,0,L|496:204,2,67.5000025749208
408,160,4049,2,0,B|416:228|416:228|396:300,1,135.000005149842,2|0,0:0|0:0,0:0:0:0:
304,360,4649,2,0,B|296:292|296:292|316:220,1,135.000005149842,2|0,0:0|0:0,0:0:0:0:
312,120,5249,1,2,0:0:0:0:
160,36,5649,70,0,L|240:44,2,67.5000025749208,2|0|0,0:0|0:0|0:0,0:0:0:0:
84,80,6249,1,2,0:0:0:0:
160,124,6449,2,0,P|180:160|144:248,1,135.000005149842,2|0,0:0|0:0,0:0:0:0:
64,272,7049,1,0,0:0:0:0:
104,180,7249,6,0,B|172:164|172:200|252:172,1,135.000005149842,10|0,0:0|0:0,0:0:0:0:
176,332,8049,1,0,0:0:0:0:
304,176,8449,1,0,0:0:0:0:
380,216,8649,1,0,0:0:0:0:
468,204,8849,2,0,L|492:136,1,67.5000025749208,2|0,0:0|0:0,0:0:0:0:
488,52,9249,2,0,B|456:16|456:16|376:48|304:24,1,202.500007724762,2|0,0:0|0:0,0:0:0:0:
216,32,10049,70,0,P|180:52|148:56,1,67.5000025749208
40,24,10449,2,0,L|72:176,1,135.000005149842,2|0,0:0|0:0,0:0:0:0:
116,228,11049,2,0,L|84:76,1,135.000005149842,2|0,0:0|0:0,0:0:0:0:
60,296,11649,1,2,0:0:0:0:
208,200,12049,6,0,P|256:212|300:288,1,135.000005149842,10|0,0:0|0:0,0:0:0:0:
300,296,12849,69,2,0:0:0:0:
292,308,13649,6,0,L|380:288,1,67.5000025749208,2|0,0:0|0:0,0:0:0:0:
444,272,14049,1,0,0:0:0:0:
476,188,14249,1,0,0:0:0:0:
340,40,14449,70,0,L|364:128,1,67.5000025749208,2|0,0:0|0:0,0:0:0:0:
384,196,14849,1,0,0:0:0:0:
296,168,15049,1,0,0:0:0:0:
216,208,15249,6,0,P|188:252|188:288,1,67.5000025749208,2|0,0:0|0:0,0:0:0:0:
212,352,15649,1,0,0:0:0:0:
300,368,15849,1,0,0:0:0:0:
108,192,16049,70,0,L|80:120,1,67.5000025749208,2|0,0:0|0:0,0:0:0:0:
88,40,16449,1,0,0:0:0:0:
176,36,16649,1,0,0:0:0:0:
52,272,16849,6,0,P|108:284|192:240,1,135.000005149842,2|0,0:0|0:0,0:0:0:0:
448,280,17449,2,0,P|392:268|308:312,1,135.000005149842,2|0,0:0|0:0,0:0:0:0:
396,360,18049,2,0,P|452:368|480:360,1,67.5000025749208,2|0,0:0|0:0,0:0:0:0:
496,188,18449,2,0,L|472:112,2,67.5000025749208,10|0|0,0:0|0:0|0:0,0:0:0:0:
384,144,19049,1,0,0:0:0:0:
324,80,19249,69,0,0:0:0:0:
236,64,19449,1,0,0:0:0:0:
236,64,19549,1,0,0:0:0:0:
236,64,19649,1,2,0:0:0:0:
232,264,19849,1,2,0:0:0:0:
160,152,20049,6,0,L|156:236,1,67.5000025749208,2|0,0:0|0:0,0:0:0:0:
316,308,20449,1,0,0:0:0:0:
268,144,20649,1,0,0:0:0:0:
80,188,20849,2,0,P|80:240|120:288,1,101.250003862381,2|0,0:0|0:0,0:0:0:0:
144,304,21249,2,0,P|132:336|100:364,1,67.5000025749208
12,132,21649,69,2,0:0:0:0:
204,224,21849,1,0,0:0:0:0:
320,68,22049,2,0,P|352:96|400:100,1,67.5000025749208,2|0,0:0|0:0,0:0:0:0:
440,160,22449,1,0,0:0:0:0:
392,16,22649,1,2,0:0:0:0:
392,16,22749,1,0,0:0:0:0:
392,16,22849,1,2,0:0:0:0:
436,244,23049,1,0,0:0:0:0:
360,196,23249,6,0,P|348:268|408:328,1,135.000005149842,2|0,0:0|0:0,0:0:0:0:
376,108,23849,2,0,B|332:108|332:108|280:96|280:96|224:96,1,135.000005149842,2|0,0:0|0:0,0:0:0:0:
60,200,24449,70,0,L|152:192,1,67.5000025749208,2|0,0:0|0:0,0:0:0:0:
200,244,24849,1,2,0:0:0:0:
112,344,25049,1,0,0:0:0:0:
112,120,25249,1,2,0:0:0:0:
288,224,25449,1,0,0:0:0:0:
212,340,25649,5,8,0:0:0:0:
256,328,25749,1,0,0:0:0:0:
296,316,25849,1,8,0:0:0:0:
340,304,25949,1,0,0:0:0:0:
360,348,26049,69,8,0:0:0:0:
404,336,26149,1,8,0:0:0:0:
448,324,26249,1,8,0:0:0:0:
492,312,26349,1,8,0:0:0:0:
512,352,26449,22,0,L|488:236,1,90,4|0,0:0|0:0,0:0:0:0:
384,192,26849,1,0,0:0:0:0:
472,24,27049,1,2,0:0:0:0:
472,24,27149,1,0,0:0:0:0:
472,24,27249,2,0,L|460:120,1,90,8|0,0:0|0:0,0:0:0:0:
304,240,27649,1,2,0:0:0:0:
304,80,27849,1,0,0:0:0:0:
388,280,28049,6,0,L|356:372,1,90
384,192,28449,1,0,0:0:0:0:
240,160,28649,1,2,0:0:0:0:
240,160,28749,1,0,0:0:0:0:
240,160,28849,2,0,P|184:132|88:136,1,135,8|0,0:0|0:0,0:0:0:0:
60,208,29249,2,0,L|80:312,1,90,2|0,0:0|0:0,0:0:0:0:
328,176,29649,6,0,P|384:136|392:52,1,135,6|0,0:0|0:0,0:0:0:0:
380,32,30049,1,0,0:0:0:0:
240,160,30249,1,0,0:0:0:0:
416,228,30449,2,0,L|396:336,1,90,8|0,0:0|0:0,0:0:0:0:
240,160,30849,2,0,L|223:71,1,90,2|0,0:0|0:0,0:0:0:0:
136,48,31249,6,0,L|40:36,2,90,0|8|0,0:0|0:0|0:0,0:0:0:0:
36,152,31849,1,0,0:0:0:0:
176,208,32049,2,0,L|160:272,1,45,8|0,0:0|0:0,0:0:0:0:
328,332,32449,2,0,L|320:280,1,45,8|0,0:0|0:0,0:0:0:0:
336,244,32649,1,2,0:0:0:0:
376,220,32749,1,2,0:0:0:0:
420,224,32849,38,0,P|460:244|488:296,1,90,2|0,0:0|0:0,0:0:0:0:
404,304,33249,1,2,0:0:0:0:
404,136,33449,1,2,0:0:0:0:
404,136,33549,1,0,0:0:0:0:
404,136,33649,2,0,L|432:40,1,90,8|0,0:0|0:0,0:0:0:0:
504,0,34049,1,2,0:0:0:0:
320,48,34249,1,2,0:0:0:0:
320,48,34349,6,0,L|272:64,1,45,0|4,0:0|0:0,0:0:0:0:
188,48,34649,1,0,0:0:0:0:
100,28,34849,1,2,0:0:0:0:
12,8,35049,1,2,0:0:0:0:
12,8,35149,1,0,0:0:0:0:
12,8,35249,2,0,L|40:156,1,135,8|0,0:0|0:0,0:0:0:0:
100,192,35649,6,0,P|156:176|212:180,1,90,2|0,0:0|0:0,0:0:0:0:
304,212,36049,6,0,P|316:256|304:344,1,135,4|0,0:0|0:0,0:0:0:0:
264,364,36449,1,2,0:0:0:0:
428,252,36649,1,0,0:0:0:0:
428,252,36749,1,0,0:0:0:0:
428,252,36849,2,0,P|420:184|440:120,1,135,8|0,0:0|0:0,0:0:0:0:
472,92,37249,1,2,0:0:0:0:
496,300,37449,37,8,0:0:0:0:
392,40,37649,2,0,L|264:64,1,90,4|0,0:1|0:0,0:0:0:0:
156,36,38049,1,2,0:0:0:0:
64,204,38249,1,0,0:0:0:0:
64,204,38349,1,0,0:0:0:0:
64,204,38449,6,0,L|88:268,1,45,8|0,0:0|0:0,0:0:0:0:
168,272,38649,2,0,L|192:336,1,45,8|0,0:0|0:0,0:0:0:0:
212,108,38849,2,0,L|236:172,1,45,8|0,0:0|0:0,0:0:0:0:
316,280,39049,2,0,L|340:344,1,45,8|0,0:0|0:0,0:0:0:0:
412,352,39249,5,12,0:0:0:0:
412,352,39649,2,0,L|500:320,1,67.5000025749208,0|8,0:0|0:0,0:0:0:0:
492,244,40049,1,8,3:2:0:0:
492,244,40449,2,0,L|504:168,1,67.5000025749208,0|8,0:0|0:0,0:0:0:0:
396,40,40849,1,0,0:0:0:0:
412,192,41049,1,8,0:0:0:0:
412,192,41149,1,0,0:0:0:0:
412,192,41249,2,0,L|424:120,1,67.5000025749208,8|0,0:0|0:0,0:0:0:0:
304,40,41649,2,0,L|316:112,1,67.5000025749208,8|0,0:0|0:0,0:0:0:0:
368,280,42049,1,8,0:0:0:0:
288,328,42449,6,0,P|236:308|152:316,1,135.000005149842,0|0,0:0|0:0,0:0:0:0:
80,356,43049,1,8,0:0:0:0:
20,240,43249,2,0,L|32:156,1,67.5000025749208,4|0,0:3|0:0,0:0:0:0:
152,64,43649,2,0,L|140:148,1,67.5000025749208,0|8,0:0|0:0,0:0:0:0:
192,236,44049,37,0,0:0:0:0:
136,40,44249,1,8,0:0:0:0:
136,40,44349,1,0,0:0:0:0:
136,40,44449,2,0,L|224:52,1,67.5000025749208,8|0,0:0|0:0,0:0:0:0:
312,184,44849,2,0,L|224:172,1,67.5000025749208,8|0,0:0|0:0,0:0:0:0:
364,20,45249,2,0,L|452:32,1,67.5000025749208,8|0,0:0|0:0,0:0:0:0:
484,96,45649,6,0,P|500:136|468:228,1,135.000005149842,2|8,0:0|0:0,0:0:0:0:
408,280,46249,1,0,0:0:0:0:
320,296,46449,2,0,L|332:376,1,67.5000025749208,8|0,0:0|0:0,0:0:0:0:
200,160,46849,2,0,L|188:240,1,67.5000025749208,0|8,0:0|0:0,0:0:0:0:
64,308,47249,2,0,L|76:228,2,67.5000025749208,0|8|0,0:0|0:0|0:0,0:0:0:0:
136,356,47849,1,0,0:0:0:0:
84,32,48049,2,0,L|120:188,1,135.000005149842,8|8,0:0|0:0,0:0:0:0:
232,72,48649,5,0,0:0:0:0:
232,72,48749,1,0,0:0:0:0:
232,72,48849,2,2,P|284:56|356:72,1,101.250003862381,8|0,0:0|0:0,0:0:0:0:
392,128,49249,2,0,L|372:216,1,67.5000025749208,0|8,0:0|0:0,0:0:0:0:
484,328,49649,2,0,L|468:240,2,67.5000025749208,8|8|0,0:0|0:0|0:0,0:0:0:0:
408,372,50249,1,8,0:0:0:0:
408,372,50649,1,8,0:0:0:0:
408,372,51049,5,0,0:0:0:0:
208,248,51249,1,8,0:0:0:0:
336,324,51449,1,0,0:0:0:0:
336,324,51549,1,0,0:0:0:0:
336,324,51649,2,0,L|252:312,1,67.5000025749208,8|0,0:0|0:0,0:0:0:0:
257,101,52049,38,0,P|288:161|292:228,1,135.000005149842,2|0,0:0|0:0,0:0:0:0:
291,228,52649,1,8,0:0:0:0:
184,160,52849,2,0,P|132:172|92:168,1,67.5000025749208,8|0,0:0|0:0,0:0:0:0:
336,56,53249,2,0,P|364:20|396:8,1,67.5000025749208,0|8,0:0|0:0,0:0:0:0:
496,172,53649,2,0,P|432:144|412:68,1,135.000005149842,8|0,0:0|0:0,0:0:0:0:
496,80,54249,1,0,0:0:0:0:
380,216,54449,2,0,L|392:308,1,67.5000025749208,8|0,0:0|0:0,0:0:0:0:
480,328,54849,2,0,L|471:261,1,67.5000025749208,0|8,0:0|0:0,0:0:0:0:
292,228,55249,6,0,P|256:280|176:292,1,135.000005149842
112,256,55849,1,8,0:0:0:0:
148,72,56049,1,8,0:0:0:0:
216,136,56249,1,8,0:0:0:0:
216,136,56349,1,0,0:0:0:0:
216,136,56449,2,0,L|208:224,1,67.5000025749208,8|0,0:0|0:0,0:0:0:0:
56,40,56849,2,0,L|64:128,1,67.5000025749208,8|8,0:0|0:0,0:0:0:0:
104,324,57249,2,0,L|110:256,1,67.5000025749208,0|8,0:0|0:0,0:0:0:0:
292,228,57649,1,8,0:0:0:0:
384,268,57849,5,8,0:0:0:0:
384,268,57949,1,0,0:0:0:0:
384,268,58049,2,0,L|456:248,1,67.5000025749208,0|8,0:0|0:0,0:0:0:0:
456,152,58449,2,2,L|352:184,1,101.250003862381,8|0,0:0|0:0,0:0:0:0:
284,144,58849,2,0,L|292:64,1,67.5000025749208,0|8,0:0|0:0,0:0:0:0:
360,20,59249,1,8,0:0:0:0:
200,104,59449,6,0,L|192:180,1,67.5000025749208
84,308,59849,1,8,0:0:0:0:
48,228,60049,2,0,P|104:224|160:264,1,101.250003862381,8|0,0:0|0:0,0:0:0:0:
168,280,60449,1,0,0:0:0:0:
32,144,60649,1,0,0:0:0:0:
152,360,60849,1,8,0:0:0:0:
236,336,61049,2,0,L|380:308,1,135.000005149842,0|8,0:0|0:0,0:0:0:0:
456,216,61649,38,2,B|336:240,1,101.250003862381,0|0,0:2|0:0,0:0:0:0:
272,240,62049,2,0,P|236:196|224:136,1,101.250003862381
340,64,62449,2,0,P|332:120|296:160,1,101.250003862381,8|0,0:0|0:0,0:0:0:0:
164,84,62849,2,0,P|236:68|276:80,1,101.250003862381,8|0,0:0|0:0,0:0:0:0:
261,73,63249,1,0,0:0:0:0:
144,168,63449,1,8,0:0:0:0:
80,108,63649,5,0,0:0:0:0:
172,248,63849,1,0,0:0:0:0:
54,261,64049,2,0,L|88:268,1,33.7500012874604,8|2,0:0|0:0,0:0:0:0:
110,353,64249,2,0,L|144:360,1,33.7500012874604,8|0,0:0|0:0,0:0:0:0:
228,324,64449,1,8,0:0:0:0:
240,328,64549,1,8,0:0:0:0:
252,332,64649,1,8,0:0:0:0:
264,336,64749,1,8,0:0:0:0:
276,340,64849,6,0,L|360:312,1,67.5000025749208,4|0,0:0|0:0,0:0:0:0:
412,368,65249,1,0,0:0:0:0:
288,248,65449,1,0,0:0:0:0:
288,248,65549,1,0,0:0:0:0:
288,248,65649,2,0,L|364:224,1,67.5000025749208,8|0,0:0|0:0,0:0:0:0:
440,212,66049,2,0,P|436:260|408:288,1,67.5000025749208,2|8,0:0|0:0,0:0:0:0:
360,156,66449,6,0,P|344:116|348:76,1,67.5000025749208,2|8,0:0|0:0,0:0:0:0:
396,12,66849,1,0,0:0:0:0:
272,48,67049,1,8,0:0:0:0:
272,48,67149,1,0,0:0:0:0:
272,48,67249,2,0,L|180:60,1,67.5000025749208,8|2,0:0|0:0,0:0:0:0:
496,96,67649,2,0,L|404:108,1,67.5000025749208,8|2,0:0|0:0,0:0:0:0:
216,200,68049,38,0,L|124:212,1,67.5000025749208,2|0,0:0|0:0,0:0:0:0:
48,144,68449,1,2,0:0:0:0:
96,296,68649,1,0,0:0:0:0:
96,296,68749,1,0,0:0:0:0:
96,296,68849,2,0,L|104:372,1,67.5000025749208,8|0,0:0|0:0,0:0:0:0:
296,240,69249,2,0,L|288:316,1,67.5000025749208,2|8,0:0|0:0,0:0:0:0:
392,236,69649,6,0,L|380:156,1,67.5000025749208,2|8,0:0|0:0,0:0:0:0:
464,284,70049,1,2,0:0:0:0:
304,132,70249,1,8,0:0:0:0:
304,132,70349,1,0,0:0:0:0:
304,132,70449,2,0,P|340:96|368:92,1,67.5000025749208,8|8,0:0|0:0,0:0:0:0:
444,100,70849,5,0,0:0:0:0:
296,240,71049,1,0,0:0:0:0:
248,56,71249,2,0,P|200:76|152:60,1,101.250003862381,8|0,0:0|0:0,0:0:0:0:
56,32,71649,2,0,L|68:112,1,67.5000025749208,2|0,0:0|0:0,0:0:0:0:
36,188,72049,1,8,0:0:0:0:
136,332,72249,1,0,0:0:0:0:
160,216,72449,1,2,0:0:0:0:
160,216,72549,1,2,0:0:0:0:
160,216,72649,1,8,0:0:0:0:
224,280,72849,6,0,P|244:308|328:316,1,101.250003862381,8|0,0:0|0:0,0:0:0:0:
388,212,73249,2,0,L|372:292,1,67.5000025749208,2|0,0:0|0:0,0:0:0:0:
400,364,73649,1,8,0:0:0:0:
320,160,73849,1,0,0:0:0:0:
392,124,74049,38,0,P|420:132|456:168,1,67.5000025749208,8|0,0:0|0:0,0:0:0:0:
340,32,74449,2,0,P|312:56|268:68,1,67.5000025749208,8|0,0:0|0:0,0:0:0:0:
240,68,74749,1,2,0:0:0:0:
196,52,74849,1,2,0:0:0:0:
120,128,75049,1,8,0:0:0:0:
176,232,75249,2,0,L|152:316,1,67.5000025749208,8|0,0:0|0:0,0:0:0:0:
24,88,75649,2,0,L|36:164,1,67.5000025749208,8|8,0:0|0:0,0:0:0:0:
32,332,76049,6,0,L|56:248,1,67.5000025749208,8|8,0:0|0:0,0:0:0:0:
164,304,76449,2,0,L|232:248,1,67.5000025749208,0|8,0:0|0:0,0:0:0:0:
288,368,76849,2,0,L|356:352,1,67.5000025749208,8|0,0:0|0:0,0:0:0:0:
452,220,77249,1,8,0:0:0:0:
452,220,77349,1,0,0:0:0:0:
452,220,77449,1,8,0:0:0:0:
380,156,77649,5,4,0:1:0:0:
472,92,77849,2,0,L|460:144,1,33.7500012874604
364,252,78049,2,0,P|312:224|292:192,1,67.5000025749208,2|8,2:0|0:0,0:0:0:0:
328,72,78449,2,0,P|376:60|408:64,1,67.5000025749208,8|0,0:0|0:0,0:0:0:0:
118,61,78849,2,0,P|152:61|184:72,1,67.5000025749208,0|8,0:0|0:0,0:0:0:0:
184,168,79249,2,0,L|156:276,1,101.250003862381,8|0,0:0|0:0,0:0:0:0:
80,296,79649,2,0,P|40:280|8:284,1,67.5000025749208,0|8,0:0|0:0,0:0:0:0:
28,360,80049,5,8,0:0:0:0:
92,208,80249,1,0,0:0:0:0:
92,208,80349,1,0,0:0:0:0:
92,208,80449,1,0,0:0:0:0:
216,336,80649,1,2,0:0:0:0:
92,208,80849,2,2,L|112:128,1,67.5000025749208,0|0,0:0|0:0,0:0:0:0:
264,36,81249,2,0,L|244:116,1,67.5000025749208,2|8,0:0|0:0,0:0:0:0:
120,60,81649,1,8,1:2:0:0:
264,180,81849,1,0,0:0:0:0:
264,180,81949,1,0,0:0:0:0:
264,180,82049,2,0,P|304:156|324:128,1,67.5000025749208,0|8,0:0|0:0,0:0:0:0:
384,44,82449,38,0,L|464:64,1,67.5000025749208,8|2,0:0|0:0,0:0:0:0:
449,60,82749,1,2,0:0:0:0:
449,60,82849,1,2,0:0:0:0:
408,216,83049,2,0,B|388:191|384:167|384:167|396:136|384:111,1,101.250003862381,8|0,0:0|0:0,0:0:0:0:
316,140,83449,1,0,0:0:0:0:
484,160,83649,1,8,0:0:0:0:
368,320,83849,1,0,0:0:0:0:
492,252,84049,6,2,L|476:324,1,67.5000025749208,0|0,0:0|0:0,0:0:0:0:
316,140,84449,2,0,L|328:224,1,67.5000025749208,0|8,0:0|0:0,0:0:0:0:
192,312,84849,2,0,L|152:236,1,67.5000025749208,8|0,1:2|0:0,0:0:0:0:
160,252,85149,1,0,0:0:0:0:
160,252,85249,1,0,0:0:0:0:
116,364,85449,1,8,0:0:0:0:
216,188,85649,2,0,P|156:168|108:184,1,101.250003862381,8|0,0:0|0:0,0:0:0:0:
44,216,86049,2,0,L|56:292,1,67.5000025749208
24,368,86449,5,8,1:2:0:0:
56,128,86649,1,0,0:0:0:0:
56,128,86749,1,0,0:0:0:0:
56,128,86849,1,2,0:0:0:0:
248,272,87049,1,0,0:0:0:0:
260,276,87449,5,0,0:0:0:0:
272,280,87649,1,0,0:0:0:0:
284,284,87849,1,0,0:0:0:0:
296,288,88049,1,0,0:0:0:0:
308,292,88249,1,0,0:0:0:0:
320,296,88449,1,0,0:0:0:0:
332,300,88649,1,0,0:0:0:0:
344,304,88849,2,0,P|356:264|332:184,1,101.250003862381,2|0,0:0|0:0,0:0:0:0:
400,136,89249,2,0,L|472:156,1,67.5000025749208
452,28,89649,37,8,1:2:0:0:
408,40,89749,1,0,0:0:0:0:
364,52,89849,1,8,0:0:0:0:
320,64,89949,1,0,0:0:0:0:
280,28,90049,5,8,1:2:0:0:
236,40,90149,1,8,0:0:0:0:
192,52,90249,1,8,0:0:0:0:
148,68,90349,1,8,0:0:0:0:
112,28,90449,6,0,L|136:120,1,90,4|0,0:0|0:0,0:0:0:0:
164,200,90849,1,2,0:0:0:0:
40,336,91049,1,0,0:0:0:0:
40,336,91149,1,0,0:0:0:0:
40,336,91249,2,0,L|48:240,1,90,8|0,3:2|0:0,0:0:0:0:
16,116,91649,1,2,0:0:0:0:
192,284,91849,1,0,0:0:0:0:
248,216,92049,6,0,L|348:192,1,90,4|8,0:1|0:0,0:0:0:0:
452,208,92449,1,2,0:0:0:0:
384,372,92649,1,8,0:0:0:0:
384,372,92749,1,0,0:0:0:0:
384,372,92849,2,0,P|356:328|412:252,1,135,8|0,1:2|0:0,0:0:0:0:
400,144,93249,2,0,P|428:104|436:52,1,90,2|0,0:0|0:0,0:0:0:0:
356,24,93649,38,0,L|208:64,1,135,12|0,0:2|0:0,0:0:0:0:
184,48,94049,1,2,0:0:0:0:
248,216,94249,1,8,0:0:0:0:
144,36,94449,2,0,L|172:132,1,90,8|0,1:2|0:0,0:0:0:0:
32,328,94849,2,0,L|60:228,1,90,2|0,0:0|0:0,0:0:0:0:
248,216,95249,6,0,L|220:116,2,90,6|8|2,0:0|0:0|0:0,0:0:0:0:
372,272,95849,1,0,0:0:0:0:
444,136,96049,2,0,L|436:196,1,45,8|0,1:2|0:0,0:0:0:0:
300,72,96449,2,0,L|320:136,1,45,8|0,1:2|0:0,0:0:0:0:
312,160,96649,1,2,0:0:0:0:
288,200,96749,1,2,0:0:0:0:
248,216,96849,6,0,L|152:176,1,90,8|0,0:0|0:0,0:0:0:0:
56,240,97249,1,2,0:0:0:0:
192,364,97449,1,0,0:0:0:0:
192,364,97549,1,0,0:0:0:0:
192,364,97649,2,0,P|192:308|128:252,1,135,8|0,2:2|0:0,0:0:0:0:
138,254,98049,1,2,0:0:0:0:
88,136,98249,1,2,0:0:0:0:
88,136,98349,1,0,0:0:0:0:
88,136,98449,5,12,0:0:0:0:
88,324,98649,1,8,0:0:0:0:
192,364,98849,1,2,0:0:0:0:
312,300,99049,1,0,0:0:0:0:
312,300,99149,1,0,0:0:0:0:
312,300,99249,2,0,L|464:344,1,135,8|0,1:2|0:0,0:0:0:0:
496,264,99649,38,0,P|508:216|500:172,1,90,2|0,0:0|0:0,0:0:0:0:
356,36,100049,6,0,P|340:104|364:180,1,135,4|0,0:0|0:0,0:0:0:0:
388,196,100449,1,2,0:0:0:0:
228,280,100649,1,0,0:0:0:0:
228,280,100749,1,0,0:0:0:0:
228,280,100849,2,0,B|260:224|260:224|240:144,1,135,8|0,1:2|0:0,0:0:0:0:
228,112,101249,1,2,0:0:0:0:
64,36,101449,1,8,1:2:0:0:
152,28,101649,6,0,L|128:132,1,90,4|0,0:1|0:0,0:0:0:0:
56,176,102049,1,2,0:0:0:0:
224,72,102249,1,0,0:0:0:0:
152,212,102449,5,8,1:2:0:0:
136,256,102549,1,0,0:0:0:0:
120,300,102649,2,0,L|104:344,1,45,8|0,0:0|0:0,0:0:0:0:
216,328,102849,37,8,1:2:0:0:
260,320,102949,1,8,0:0:0:0:
304,312,103049,2,0,L|360:300,1,45,8|8,0:0|0:0,0:0:0:0:
456,280,103249,6,0,L|432:368,1,90
396,184,103649,1,2,0:0:0:0:
296,188,103849,1,0,0:0:0:0:
296,188,103949,1,0,0:0:0:0:
296,188,104049,2,0,L|200:200,1,90,8|0,1:2|0:0,0:0:0:0:
136,256,104449,1,2,0:0:0:0:
352,108,104649,1,0,0:0:0:0:
160,88,104849,6,0,L|264:96,1,90,4|8,0:1|0:0,0:0:0:0:
76,144,105249,1,2,0:0:0:0:
204,200,105449,1,0,0:0:0:0:
204,200,105549,1,0,0:0:0:0:
204,200,105649,2,0,P|220:264|168:336,1,135,8|0,1:2|0:0,0:0:0:0:
104,344,106049,2,0,L|8:348,1,90,2|0,0:0|0:0,0:0:0:0:
308,272,106449,6,0,L|404:268,1,90,4|0,0:1|0:0,0:0:0:0:
468,328,106849,1,2,0:0:0:0:
476,188,107049,1,0,0:0:0:0:
476,188,107149,1,0,0:0:0:0:
476,188,107249,2,0,L|316:196,1,135,8|0,1:2|0:0,0:0:0:0:
272,132,107649,2,0,P|256:76|264:28,1,90,2|0,0:0|0:0,0:0:0:0:
48,36,108049,38,0,P|116:48|144:76,2,90,6|8|2,0:0|0:0|0:0,0:0:0:0:
72,136,108649,1,0,0:0:0:0:
40,248,108849,1,8,1:2:0:0:
72,280,108949,1,8,0:0:0:0:
104,312,109049,1,8,0:0:0:0:
136,344,109149,1,8,0:0:0:0:
184,280,109249,5,8,1:2:0:0:
224,300,109349,1,8,0:0:0:0:
264,316,109449,1,8,0:0:0:0:
304,332,109549,1,8,0:0:0:0:
340,260,109649,6,0,L|456:268,1,90,2|0,0:0|0:0,0:0:0:0:
492,332,110049,1,2,0:0:0:0:
448,64,110249,1,0,0:0:0:0:
448,64,110349,1,0,0:0:0:0:
448,64,110449,2,0,P|480:120|460:200,1,135,8|0,1:2|0:0,0:0:0:0:
392,136,110849,2,0,P|344:128|292:136,1,90,2|0,0:0|0:0,0:0:0:0:
136,48,111249,6,0,P|196:64|252:52,1,90,12|8,0:0|0:0,0:0:0:0:
44,76,111649,1,2,0:0:0:0:
112,136,111849,1,8,0:0:0:0:
112,136,111949,1,0,0:0:0:0:
112,136,112049,2,0,L|88:280,1,135,8|0,1:2|0:0,0:0:0:0:
188,248,112449,38,0,P|244:232|288:240,1,90,2|0,0:0|0:0,0:0:0:0:
152,340,112849,6,0,P|92:360|16:340,1,135,6|0,0:0|0:0,0:0:0:0:
0,304,113249,1,2,0:0:0:0:
248,328,113449,1,0,0:0:0:0:
248,328,113549,1,0,0:0:0:0:
248,328,113649,2,0,B|332:296|332:296|396:308,1,135,8|0,1:2|0:0,0:0:0:0:
464,320,114049,2,0,L|452:212,1,90,2|8,0:0|0:0,0:0:0:0:
448,24,114449,5,6,0:0:0:0:
420,148,114649,1,8,0:0:0:0:
328,68,114849,2,0,P|276:56|220:60,1,90,2|8,0:0|0:0,0:0:0:0:
36,216,115249,6,0,L|52:268,1,45,8|0,1:2|0:0,0:0:0:0:
136,260,115449,2,0,L|152:312,1,45,8|8,0:0|0:0,0:0:0:0:
164,104,115649,2,0,L|180:156,1,45,8|0,1:2|0:0,0:0:0:0:
272,276,115849,2,0,L|288:328,1,45,8|8,0:0|0:0,0:0:0:0:
372,348,116049,37,2,0:0:0:0:
448,304,116249,1,2,0:0:0:0:
464,216,116449,1,2,0:0:0:0:
416,140,116649,1,2,0:0:0:0:
416,140,117249,1,8,0:0:0:0:
160,48,117649,5,0,0:0:0:0:
168,136,117849,1,2,0:0:0:0:
240,188,118049,1,2,0:0:0:0:
328,184,118249,1,2,0:0:0:0:
328,184,118849,1,8,0:0:0:0:
160,224,119049,5,0,0:0:0:0:
160,224,119149,1,0,0:0:0:0:
160,224,119249,1,2,0:0:0:0:
176,312,119449,1,0,0:0:0:0:
112,372,119649,1,2,0:0:0:0:
24,352,119849,1,2,0:0:0:0:
24,352,120449,1,2,0:0:0:0:
264,72,120849,5,0,0:0:0:0:
352,80,121049,1,2,0:0:0:0:
416,140,121249,1,0,0:0:0:0:
416,228,121449,1,10,0:0:0:0:
416,228,122049,1,0,0:0:0:0:
376,308,122249,37,0,0:0:0:0:
376,308,122349,1,0,0:0:0:0:
376,308,122449,2,0,L|300:320,1,67.5,10|0,0:0|0:0,0:0:0:0:
244,264,122849,2,0,L|256:216,1,45,0|0,0:0|0:0,0:0:0:0:
192,152,123249,2,0,L|180:212,1,45,2|0,0:0|0:0,0:0:0:0:
104,244,123649,5,0,0:0:0:0:
44,176,123849,1,0,0:0:0:0:
76,92,124049,2,0,P|120:68|152:72,1,67.5,2|0,0:0|0:0,0:0:0:0:
232,32,124449,2,0,L|220:88,1,45,0|0,0:0|0:0,0:0:0:0:
284,136,124849,2,0,L|296:88,1,45,2|0,0:0|0:0,0:0:0:0:
372,44,125249,5,0,0:0:0:0:
452,84,125449,1,0,0:0:0:0:
476,172,125649,2,0,L|456:272,1,90,2|0,0:0|0:0,0:0:0:0:
392,320,126249,1,0,0:0:0:0:
392,192,126449,2,0,L|384:240,1,45,8|0,0:0|0:0,0:0:0:0:
308,284,126849,2,0,L|300:332,1,45,8|0,0:0|0:0,0:0:0:0:
212,352,127249,5,2,0:0:0:0:
124,336,127449,1,0,0:0:0:0:
80,256,127649,1,2,0:0:0:0:
104,168,127849,1,0,0:0:0:0:
188,136,128049,38,0,L|288:160,1,90,8|0,0:0|0:0,0:0:0:0:
116,80,128849,5,4,0:1:0:0:
196,48,129049,1,8,0:0:0:0:
196,48,129149,1,0,0:0:0:0:
196,48,129249,2,2,L|264:64,1,67.5,2|8,0:0|0:0,0:0:0:0:
424,44,129649,2,0,L|358:28,1,67.5,8|0,3:2|0:0,0:0:0:0:
432,144,130049,2,0,P|456:200|456:224,1,67.5000025749208,8|8,0:0|0:0,0:0:0:0:
324,292,130449,6,2,P|340:236|388:204,1,101.250003862381,8|0,0:0|0:0,0:0:0:0:
477,296,130849,2,0,P|443:295|412:284,1,67.5000025749208,0|8,0:0|0:0,0:0:0:0:
348,132,131249,1,8,0:0:0:0:
376,360,131449,1,0,0:0:0:0:
376,360,131549,1,0,0:0:0:0:
376,360,131649,1,2,0:0:0:0:
272,172,131849,1,2,0:0:0:0:
296,372,132049,5,4,0:1:0:0:
232,256,132249,1,8,0:0:0:0:
232,256,132349,1,0,0:0:0:0:
232,256,132449,2,0,L|144:248,1,67.5000025749208,2|8,0:0|0:0,0:0:0:0:
52,336,132849,2,0,L|119:342,1,67.5000025749208,8|8,0:0|0:0,0:0:0:0:
92,128,133249,2,0,L|4:120,1,67.5000025749208,2|8,0:0|0:0,0:0:0:0:
152,60,133649,37,8,0:0:0:0:
292,44,133849,1,8,0:0:0:0:
292,44,133949,1,0,0:0:0:0:
292,44,134049,2,0,P|280:96|260:120,1,67.5000025749208,2|2,0:0|0:0,0:0:0:0:
404,200,134449,2,0,P|392:144|396:112,1,67.5000025749208,8|0,0:0|0:0,0:0:0:0:
392,134,134749,1,0,0:0:0:0:
392,134,134849,1,2,0:0:0:0:
344,264,135049,1,2,0:0:0:0:
472,148,135249,5,4,0:1:0:0:
428,288,135449,1,8,0:0:0:0:
428,288,135549,1,0,0:0:0:0:
428,288,135649,2,0,L|416:368,1,67.5000025749208,2|8,0:0|0:0,0:0:0:0:
260,236,136049,2,0,L|272:312,1,67.5000025749208,8|8,0:0|0:0,0:0:0:0:
100,320,136449,2,0,L|112:240,1,67.5000025749208,8|8,0:0|0:0,0:0:0:0:
56,76,136849,6,2,P|96:116|144:124,1,101.250003862381,8|0,0:0|0:0,0:0:0:0:
232,24,137249,2,0,L|212:92,1,67.5000025749208,0|8,0:0|0:0,0:0:0:0:
140,40,137649,5,8,1:2:0:0:
208,168,137849,1,0,0:0:0:0:
208,168,137949,1,0,0:0:0:0:
208,168,138049,1,2,0:0:0:0:
320,8,138249,1,2,0:0:0:0:
324,12,138449,69,2,0:0:0:0:
324,100,138649,5,0,0:0:0:0:
336,96,138849,1,0,0:0:0:0:
348,92,139049,1,0,0:0:0:0:
360,88,139249,1,0,0:0:0:0:
372,84,139449,1,0,0:0:0:0:
384,80,139649,1,0,0:0:0:0:
396,76,139849,1,0,0:0:0:0:
408,72,140049,2,0,L|384:192,1,101.250003862381,2|0,0:0|0:0,0:0:0:0:
444,252,140449,2,0,P|416:284|384:296,1,67.5000025749208
292,152,140849,37,8,1:2:0:0:
304,108,140949,1,8,0:0:0:0:
316,64,141049,1,8,0:0:0:0:
328,20,141149,1,8,0:0:0:0:
224,52,141249,5,8,1:2:0:0:
184,72,141349,1,8,0:0:0:0:
144,92,141449,1,8,0:0:0:0:
104,112,141549,1,8,0:0:0:0:
16,152,141649,6,0,L|32:52,1,90,4|0,0:0|0:0,0:0:0:0:
92,208,142049,1,2,0:0:0:0:
168,260,142249,1,0,0:0:0:0:
168,260,142349,1,0,0:0:0:0:
168,260,142449,2,0,P|128:296|84:304,1,90,8|8,1:2|0:0,0:0:0:0:
252,288,142849,1,2,0:0:0:0:
368,212,143049,1,0,0:0:0:0:
368,212,143149,1,0,0:0:0:0:
368,212,143249,2,0,L|356:316,1,90,8|0,1:2|0:0,0:0:0:0:
460,352,143649,1,2,0:0:0:0:
456,200,143849,5,0,0:0:0:0:
456,200,143949,1,0,0:0:0:0:
456,200,144049,2,0,L|436:144,1,45,8|0,1:2|0:0,0:0:0:0:
360,124,144249,2,0,L|340:68,1,45,8|0,0:0|0:0,0:0:0:0:
368,296,144449,2,0,L|348:240,1,45,2|0,0:0|0:0,0:0:0:0:
224,140,144649,2,0,L|204:84,1,45,8|0,0:0|0:0,0:0:0:0:
136,56,144849,38,0,P|72:64|24:128,1,135,4|0,0:1|0:0,0:0:0:0:
92,232,145249,2,0,L|112:124,1,90,2|0,0:0|0:0,0:0:0:0:
24,284,145649,1,8,1:2:0:0:
176,224,145849,1,0,0:0:0:0:
176,224,145949,1,0,0:0:0:0:
176,224,146049,1,2,0:0:0:0:
312,320,146249,1,8,0:0:0:0:
336,160,146449,2,0,P|302:189|288:231,1,90,8|8,0:0|1:2,0:0:0:0:
140,304,146850,2,0,P|184:309|224:291,1,90,2|0,0:0|0:0,0:0:0:0:
376,244,147249,6,0,L|432:256,1,45,10|0,0:0|0:0,0:0:0:0:
444,176,147449,2,0,L|500:188,1,45,10|0,0:0|0:0,0:0:0:0:
288,68,147649,2,0,L|344:80,1,45,10|0,0:0|0:0,0:0:0:0:
404,16,147849,2,0,L|460:28,1,45,10|0,0:0|0:0,0:0:0:0:
496,112,148049,6,0,L|408:92,1,90,4|0,0:1|0:0,0:0:0:0:
288,68,148449,1,2,0:0:0:0:
104,164,148649,1,8,0:0:0:0:
104,164,148749,1,0,0:0:0:0:
104,164,148849,2,0,P|176:140|240:160,1,135,8|0,1:2|0:0,0:0:0:0:
260,244,149249,2,0,L|232:336,1,90,2|0,0:0|0:0,0:0:0:0:
44,236,149649,6,0,P|20:192|16:136,1,90,4|0,0:1|0:0,0:0:0:0:
60,28,150049,1,2,0:0:0:0:
172,228,150249,1,8,0:0:0:0:
172,228,150349,1,0,0:0:0:0:
172,228,150449,2,0,B|128:248|128:248|120:304|48:324,1,135,8|0,1:2|0:0,0:0:0:0:
32,320,150849,2,0,L|148:332,1,90,2|0,0:0|0:0,0:0:0:0:
201,309,151249,38,0,L|112:300,1,90,4|0,1:1|0:0,0:0:0:0:
224,152,151649,2,0,L|313:161,1,90,2|0,0:0|0:0,0:0:0:0:
392,116,152049,1,8,1:2:0:0:
452,48,152249,2,0,L|464:0,2,45,8|0|2,0:0|0:0|0:0,0:0:0:0:
420,200,152649,1,8,0:0:0:0:
348,256,152849,6,0,L|356:356,1,90,12|8,0:0|1:2,0:0:0:0:
144,96,153249,2,0,L|136:196,1,90,2|0,0:0|0:0,0:0:0:0:
60,344,153649,6,0,L|28:288,1,45,10|0,1:2|0:0,0:0:0:0:
132,280,153849,2,0,L|128:220,1,45,8|0,0:0|0:0,0:0:0:0:
234,258,154049,5,8,1:2:0:0:
278,248,154149,1,8,0:0:0:0:
322,253,154249,1,8,1:2:0:0:
361,275,154349,1,8,0:0:0:0:
390,308,154449,38,0,L|414:216,1,90,4|0,0:1|0:0,0:0:0:0:
444,100,154849,1,2,0:0:0:0:
468,320,155049,1,0,0:0:0:0:
468,320,155149,1,0,0:0:0:0:
468,320,155249,2,0,L|504:188,1,135,8|0,1:2|0:0,0:0:0:0:
428,176,155649,2,0,P|396:200|336:200,1,90,2|0,0:0|0:0,0:0:0:0:
224,92,156049,6,0,L|128:76,1,90,4|8,0:1|0:0,0:0:0:0:
20,128,156449,1,2,0:0:0:0:
152,168,156649,1,8,0:0:0:0:
152,168,156749,1,0,0:0:0:0:
152,168,156849,2,0,P|168:220|116:296,1,135,8|0,1:2|0:0,0:0:0:0:
8,236,157249,2,0,P|68:216|108:224,1,90,2|0,0:0|0:0,0:0:0:0:
340,348,157649,2,0,P|272:356|208:316,1,135,6|0,0:0|0:0,0:0:0:0:
272,184,158049,2,0,L|288:284,1,90,2|0,0:0|0:0,0:0:0:0:
424,84,158449,6,0,L|400:192,1,90,8|8,1:2|0:0,0:0:0:0:
128,40,158849,2,0,L|148:152,1,90,2|8,0:0|0:0,0:0:0:0:
44,320,159249,5,4,0:1:0:0:
64,188,159449,1,8,1:2:0:0:
236,256,159649,1,2,0:0:0:0:
216,124,159849,1,0,0:0:0:0:
344,72,160049,38,0,L|392:80,1,45,8|0,1:2|0:0,0:0:0:0:
392,192,160249,2,0,L|440:184,1,45,10|0,0:0|0:0,0:0:0:0:
496,296,160449,1,8,1:2:0:0:
452,292,160549,1,8,0:0:0:0:
408,288,160649,1,8,1:2:0:0:
364,284,160749,1,8,0:0:0:0:
320,280,160849,6,0,P|288:324|240:340,1,90,4|0,0:1|0:0,0:0:0:0:
168,312,161249,1,2,0:0:0:0:
232,164,161449,1,0,0:0:0:0:
232,164,161549,1,0,0:0:0:0:
232,164,161649,2,0,L|236:256,1,90,8|0,1:2|0:0,0:0:0:0:
84,152,162049,2,0,L|100:48,1,90,2|0,0:0|0:0,0:0:0:0:
344,72,162449,6,0,P|279:88|228:47,1,135,12|0,0:0|0:0,0:0:0:0:
344,72,162849,2,0,L|360:160,1,90,2|8,0:0|0:0,0:0:0:0:
312,236,163249,1,2,1:2:0:0:
464,160,163449,1,0,0:0:0:0:
464,160,163549,1,0,0:0:0:0:
464,160,163649,1,2,0:0:0:0:
368,328,163849,2,0,L|428:292,1,45,2|0,0:0|0:0,0:0:0:0:
480,260,164049,2,0,P|440:260|396:236,1,90,4|0,0:0|0:0,0:0:0:0:
188,216,164449,2,0,P|232:264|240:296,1,90,2|8,0:0|0:0,0:0:0:0:
32,344,164849,5,8,1:2:0:0:
44,236,165049,1,0,0:0:0:0:
44,236,165149,1,0,0:0:0:0:
44,236,165249,1,2,0:0:0:0:
120,144,165449,37,8,1:2:0:0:
236,116,165649,2,0,L|332:128,1,90,8|8,3:3|0:0,0:0:0:0:
280,316,166049,2,0,L|376:328,1,90,2|0,0:0|0:0,0:0:0:0:
480,228,166449,2,0,L|416:220,1,45,8|0,1:2|0:0,0:0:0:0:
352,252,166649,2,0,L|288:244,1,45,8|0,1:2|0:0,0:0:0:0:
216,288,166849,6,0,P|168:280|104:288,1,101.250003862381,2|0,0:0|0:0,0:0:0:0:
72,268,167249,6,0,P|56:208|64:160,1,90,4|0,3:3|0:0,0:0:0:0:
236,116,167649,2,0,P|252:56|244:8,1,90,8|0,2:3|0:0,0:0:0:0:
420,160,168049,5,4,3:3:0:0:
452,304,168249,1,0,0:0:0:0:
224,208,168449,1,4,3:3:0:0:
244,32,168649,1,8,3:2:0:0:
40,232,168849,38,0,L|56:340,1,90,4|0,3:3|0:0,0:0:0:0:
316,140,169249,2,0,L|300:244,1,90,8|0,3:3|0:0,0:0:0:0:
452,68,169649,5,4,3:3:0:0:
480,224,169849,1,0,0:0:0:0:
216,320,170049,1,4,3:3:0:0:
228,164,170249,1,0,0:0:0:0:
33,107,170449,6,0,L|16:196,1,90,2|0,0:0|0:0,0:0:0:0:
15,196,170749,1,0,0:0:0:0:
15,196,170849,1,0,0:0:0:0:
116,68,171049,1,0,0:0:0:0:
88,316,171249,2,0,L|112:200,1,90,8|8,3:3|0:0,0:0:0:0:
316,176,171649,2,0,P|272:176|228:164,1,90,2|8,0:0|0:0,0:0:0:0:
356,340,172049,6,0,P|424:332|468:344,1,90,4|0,0:1|1:0,0:0:0:0:
456,340,172349,1,8,3:2:0:0:
468,348,172449,1,8,3:2:0:0:
364,216,172649,1,0,3:2:0:0:
344,208,172749,1,8,3:2:0:0:
328,192,172849,1,8,3:2:0:0:
448,64,173049,1,8,3:2:0:0:
436,92,173149,1,8,3:2:0:0:
416,116,173249,1,8,3:2:0:0:
244,112,173449,37,8,3:2:0:0:
200,88,173549,1,8,3:2:0:0:
180,48,173649,2,0,P|280:28|336:48,1,135,2|0,0:0|0:0,0:0:0:0:
348,56,174049,1,0,0:0:0:0:
176,184,174249,1,0,0:0:0:0:
176,184,174349,1,0,0:0:0:0:
176,184,174449,2,0,B|96:208|96:208|40:192,1,135,8|0,1:2|0:0,0:0:0:0:
4,180,174849,1,0,0:0:0:0:
264,160,175049,5,0,0:0:0:0:
264,160,175149,1,0,0:0:0:0:
264,160,175249,2,0,P|260:212|216:268,1,90,2|0,0:0|0:0,0:0:0:0:
368,348,175649,1,2,0:0:0:0:
436,180,175849,1,0,0:0:0:0:
436,180,175949,1,0,0:0:0:0:
436,180,176049,2,0,P|444:120|476:76,1,90,8|8,1:2|0:0,0:0:0:0:
348,56,176449,6,0,L|248:80,1,90,2|0,0:0|0:0,0:0:0:0:
52,92,176849,2,0,L|220:124,1,135,4|0,0:0|0:0,0:0:0:0:
264,160,177249,1,2,0:0:0:0:
288,312,177449,1,0,0:0:0:0:
288,312,177549,1,0,0:0:0:0:
288,312,177649,2,0,P|256:348|168:360,1,135,8|0,1:2|0:0,0:0:0:0:
96,308,178049,1,2,0:0:0:0:
180,200,178249,1,0,0:0:0:0:
180,200,178349,1,0,0:0:0:0:
180,200,178449,6,4,L|208:292,1,90,12|0,1:2|0:0,0:0:0:0:
328,80,178849,2,0,L|304:196,1,90,4|0,0:1|0:0,0:0:0:0:
432,232,179249,38,0,L|412:180,1,45,8|0,1:2|0:0,0:0:0:0:
416,144,179449,1,8,0:0:0:0:
444,108,179549,1,8,0:0:0:0:
344,244,179649,6,0,L|368:296,1,45,8|0,1:2|0:0,0:0:0:0:
368,332,179849,1,8,0:0:0:0:
344,372,179949,1,8,0:0:0:0:
300,380,180049,6,0,L|196:352,1,90,4|0,3:0|0:0,0:0:0:0:
56,232,180449,2,0,L|156:224,1,90,4|0,3:0|0:0,0:0:0:0:
224,140,180849,1,4,3:0:0:0:
344,244,181049,1,0,0:0:0:0:
344,244,181149,1,0,0:0:0:0:
344,244,181249,2,0,L|248:256,1,90,4|0,3:0|0:0,0:0:0:0:
124,128,181649,6,0,P|100:80|112:24,1,90,4|0,3:0|0:0,0:0:0:0:
304,144,182049,2,0,P|288:192|252:216,1,90,4|0,3:0|0:0,0:0:0:0:
256,352,182449,1,4,3:0:0:0:
456,344,182649,1,0,0:0:0:0:
456,344,182749,1,0,0:0:0:0:
456,344,182849,2,0,P|424:296|428:244,1,90,4|0,3:0|0:0,0:0:0:0:
492,56,183249,38,0,L|464:196,1,135,4|0,0:1|0:0,0:0:0:0:
496,276,183649,1,2,0:0:0:0:
392,124,183849,1,0,0:0:0:0:
392,124,183949,1,0,0:0:0:0:
392,124,184049,2,0,P|360:80|272:68,1,135,8|0,1:2|0:0,0:0:0:0:
216,112,184449,2,0,L|236:216,1,90,2|8,0:0|0:0,0:0:0:0:
72,328,184849,6,0,L|96:232,2,90,4|4|0,0:1|3:0|0:0,0:0:0:0:
152,368,185449,1,0,0:0:0:0:
36,44,185649,5,8,1:2:0:0:
44,88,185749,1,0,0:0:0:0:
56,132,185849,1,8,0:0:0:0:
64,176,185949,1,0,0:0:0:0:
140,116,186049,5,8,1:2:0:0:
180,136,186149,1,8,0:0:0:0:
220,156,186249,1,8,0:0:0:0:
260,176,186349,1,8,0:0:0:0:
288,80,186449,38,0,L|384:36,1,90,6|0,0:0|0:0,0:0:0:0:
296,196,186849,1,2,0:0:0:0:
488,112,187049,1,0,0:0:0:0:
488,112,187149,1,0,0:0:0:0:
488,112,187249,2,0,P|421:109|362:141,1,135,8|0,1:2|0:0,0:0:0:0:
376,228,187649,1,0,0:0:0:0:
456,356,187849,1,0,0:0:0:0:
460,340,187949,1,0,0:0:0:0:
464,324,188049,1,4,0:1:0:0:
312,280,188249,5,0,0:0:0:0:
468,308,188449,1,2,0:0:0:0:
240,332,188649,1,0,0:0:0:0:
96,300,188849,6,0,L|76:208,1,90,8|8,1:2|0:0,0:0:0:0:
160,52,189249,6,0,P|168:116|152:152,1,90
40,100,189649,38,0,L|92:92,2,45,4|0|0,3:0|0:0|0:0,0:0:0:0:
256,168,190049,1,0,0:0:0:0:
472,100,190249,1,0,0:0:0:0:
472,100,190349,1,0,0:0:0:0:
472,100,190449,2,0,L|364:84,1,90,8|0,1:2|0:0,0:0:0:0:
256,168,190849,2,0,L|256:268,1,90,2|8,0:0|0:0,0:0:0:0:
380,328,191249,6,0,P|372:276|348:232,1,90,8|0,0:0|0:0,0:0:0:0:
156,242,191649,2,0,P|137:283|132:328,1,90,8|0,1:2|0:0,0:0:0:0:
256,352,192049,6,0,L|248:304,1,45,8|0,1:2|0:0,0:0:0:0:
356,164,192249,2,0,L|336:220,1,45,8|0,0:0|0:0,0:0:0:0:
156,244,192449,2,0,L|180:196,1,45,8|8,1:2|0:0,0:0:0:0:
256,32,192649,2,0,L|264:80,1,45,8|8,0:0|0:0,0:0:0:0:
256,192,192849,5,4,0:0:0:0:
