osu file format v14

[General]
AudioFilename: Kimi Janakya Dame Mitai.MP3
AudioLeadIn: 0
PreviewTime: 45105
Countdown: 0
SampleSet: Soft
StackLeniency: 0.7
Mode: 0
LetterboxInBreaks: 0
WidescreenStoryboard: 0

[Editor]
DistanceSpacing: 1.4
BeatDivisor: 4
GridSize: 32
TimelineZoom: 2.1

[Metadata]
Title:KIMIJYANAKYA DAMEMITAI
TitleUnicode:君じゃなきゃダメみたい
Artist:Oishi Masayoshi
ArtistUnicode:オーイシマサヨシ
Creator:[ Abhor ]
Version:Hard
Source:月刊少女野崎くん
Tags:大石昌良 Gekkan Shoujo Nozaki-kun Monthly Girls' opening tv size Regraz
BeatmapID:601661
BeatmapSetID:238510

[Difficulty]
HPDrainRate:5
CircleSize:4
OverallDifficulty:5
ApproachRate:7.5
SliderMultiplier:1.6
SliderTickRate:1

[Events]
//Background and Video events
0,0,"GEKANSHOUJOU.jpg",0,0
Video,3,"op.avi"
//Break Periods
//Storyboard Layer 0 (Background)
//Storyboard Layer 1 (Fail)
//Storyboard Layer 2 (Pass)
//Storyboard Layer 3 (Foreground)
//Storyboard Sound Samples

[TimingPoints]
1136,458.015267175573,4,2,0,41,1,0
8922,-100,4,2,2,55,0,0
12357,-83.3333333333333,4,2,2,55,0,0
15334,-125,4,2,2,63,0,0
36861,-100,4,2,2,67,0,0
44647,-100,4,2,1,67,0,0
45105,-90.9090909090909,4,1,1,62,0,1
58845,-90.9090909090909,4,1,1,75,0,0
59761,-100,4,1,1,75,0,1
74418,-100,4,2,2,55,0,0
87242,-133.333333333333,4,2,2,67,0,0
89074,-133.333333333333,4,2,0,20,0,0
89532,-133.333333333333,4,2,2,67,0,0

[Colours]
Combo1 : 187,255,119
Combo2 : 255,66,66
Combo3 : 254,149,92
Combo4 : 175,96,255

[HitObjects]
104,80,8006,5,8,0:0:0:0:
199,81,8235,1,0,0:0:0:0:
199,81,8349,1,0,0:0:0:0:
199,81,8464,2,0,P|240:92|283:86,1,80
372,90,8922,2,0,L|371:161,1,53.3333333333333,8|0,0:0|0:0,0:0:0:0:
326,254,9380,1,0,0:0:0:0:
326,254,9609,2,0,P|363:263|398:261,1,53.3333333333333
153,262,10296,6,0,L|122:335,1,80
129,176,10754,2,0,L|67:166,1,40
130,31,11212,2,0,P|198:47|231:42,1,80
288,98,11670,2,0,L|377:98,2,80,8|0|4,0:0|0:0|0:0,0:0:0:0:
256,192,12357,12,8,13502,0:0:0:0:
212,240,13960,6,0,L|197:163,2,63.9999980468751,8|0|0,0:0|0:0|0:0,0:0:0:0:
300,240,14418,2,0,L|316:168,2,63.9999980468751,8|0|0,0:0|0:0|0:0,0:0:0:0:
97,231,15334,2,0,P|94:186|103:169,1,64,8|0,0:0|0:0,0:0:0:0:
178,123,15792,6,0,P|185:79|219:47,1,64,4|0,0:0|0:0,0:0:0:0:
267,116,16250,2,0,P|300:87|330:81,1,64,8|0,0:0|0:0,0:0:0:0:
337,169,16708,2,0,P|384:162|417:173,1,64
373,251,17166,2,0,P|363:300|333:325,1,64,8|0,0:0|0:0,0:0:0:0:
266,321,17624,5,0,0:0:0:0:
176,324,17853,1,0,0:0:0:0:
215,243,18082,1,8,0:0:0:0:
125,248,18311,1,0,0:0:0:0:
156,164,18540,2,0,P|157:117|181:89,1,64
245,142,18998,2,0,P|284:147|319:136,1,64,8|0,0:0|0:0,0:0:0:0:
361,69,19456,5,4,0:0:0:0:
361,69,19685,1,0,0:0:0:0:
436,20,19914,2,8,P|449:60|444:102,1,64,8|0,0:0|0:0,0:0:0:0:
393,152,20372,1,0,0:0:0:0:
393,152,20601,1,0,0:0:0:0:
425,235,20830,2,8,P|389:242|345:226,1,64
281,199,21288,5,0,0:0:0:0:
281,199,21403,1,0,0:0:0:0:
281,199,21517,2,0,L|193:199,1,64,0|8,0:0|0:0,0:0:0:0:
159,130,21975,1,0,0:0:0:0:
195,49,22204,2,0,L|259:49,2,64,0|0|8,0:0|0:0|0:0,0:0:0:0:
159,130,22891,1,8,0:0:0:0:
136,217,23120,6,0,L|56:228,1,64,4|0,0:0|0:0,0:0:0:0:
188,280,23578,1,8,0:0:0:0:
188,280,23807,1,0,0:0:0:0:
270,314,24036,2,0,L|346:324,1,64
412,279,24494,1,8,0:0:0:0:
412,279,24723,1,0,0:0:0:0:
384,193,24952,5,0,0:0:0:0:
384,193,25181,1,0,0:0:0:0:
350,109,25410,2,0,L|273:109,1,64,8|0,0:0|0:0,0:0:0:0:
196,111,25868,1,0,0:0:0:0:
196,111,25983,1,0,0:0:0:0:
196,111,26097,1,0,0:0:0:0:
175,198,26326,2,0,L|224:245,1,64,8|0,0:0|0:0,0:0:0:0:
290,301,26784,6,0,P|303:204|274:173,1,128,4|10,0:0|0:0,0:0:0:0:
310,98,27471,1,0,0:0:0:0:
310,98,27586,1,0,0:0:0:0:
310,98,27700,2,0,P|344:89|374:59,2,64,0|0|8,0:0|0:0|0:0,0:0:0:0:
256,169,28387,1,0,0:0:0:0:
203,96,28616,6,0,P|177:125|170:159,1,64
256,169,29074,2,0,L|256:236,1,64,8|0,0:0|0:0,0:0:0:0:
345,245,29532,2,0,P|365:210|365:179,1,64
365,98,29990,2,0,L|428:97,1,64,8|0,0:0|0:0,0:0:0:0:
311,170,30448,6,0,L|345:223,1,64,4|0,0:0|0:0,0:0:0:0:
221,172,30906,2,0,L|198:218,2,32,8|0|0,0:0|0:0|0:0,0:0:0:0:
168,98,31365,2,0,L|104:97,1,64,0|0,0:0|0:0,0:0:0:0:
56,172,31823,1,8,0:0:0:0:
56,172,32052,2,0,L|84:220,2,32,0|0|0,0:0|0:0|0:0,0:0:0:0:
144,255,32510,5,0,0:0:0:0:
204,320,32739,2,0,P|140:344|81:317,1,128,8|0,0:0|0:0,0:0:0:0:
144,255,33426,2,0,L|143:196,2,32,0|0|8,0:0|0:0|0:0,0:0:0:0:
232,239,33884,1,0,0:0:0:0:
295,176,34113,6,0,P|321:244|296:302,1,128,4|10,0:0|0:0,0:0:0:0:
232,238,34800,1,0,0:0:0:0:
210,151,35029,2,0,P|273:87|335:92,1,128,0|8,0:0|0:0,0:0:0:0:
295,176,35716,1,0,0:0:0:0:
384,166,35945,6,0,L|430:166,2,32
426,245,36403,2,0,L|335:245,1,64,8|0,0:0|0:0,0:0:0:0:
269,270,36861,2,0,P|265:233|283:187,2,80,0|0|8,0:0|0:0|0:0,0:0:0:0:
205,340,37548,1,0,0:0:0:0:
134,275,37777,5,4,0:0:0:0:
203,208,38006,1,0,0:0:0:0:
134,141,38235,2,0,P|123:83|137:38,1,80,8|0,0:0|0:0,0:0:0:0:
217,92,38693,2,0,P|256:101|287:128,1,80
307,220,39151,2,0,L|294:257,2,40,8|0|0,0:0|0:0|0:0,0:0:0:0:
181,277,39609,6,0,L|125:277,3,40
97,255,40067,2,0,L|70:202,3,40,8|0|0|0,0:0|0:0|0:0|0:0,0:0:0:0:
74,171,40525,2,0,B|88:89|88:89|177:49,1,160,0|8,0:0|0:0,0:0:0:0:
251,37,41212,1,0,0:0:0:0:
277,128,41441,6,0,P|323:196|278:277,1,160,4|8,0:0|0:0,0:0:0:0:
244,203,42128,1,0,0:0:0:0:
244,203,42357,2,0,L|440:175,1,160,0|8,0:0|0:0,0:0:0:0:
422,86,43044,1,0,0:0:0:0:
327,98,43273,6,0,L|155:123,1,160,4|8,0:0|0:0,0:0:0:0:
74,139,43960,1,0,0:0:0:0:
74,139,44189,2,0,L|74:92,2,40
98,267,44647,1,0,0:0:0:0:
98,267,45105,6,0,L|99:356,1,88.000002685547,4|0,0:0|0:0,0:0:0:0:
183,291,45563,2,0,L|183:191,1,88.000002685547,8|0,0:0|0:0,0:0:0:0:
259,130,46021,1,0,0:0:0:0:
259,130,46250,1,0,0:0:0:0:
342,194,46479,1,8,0:0:0:0:
420,266,46708,6,0,P|347:302|260:264,1,176.000005371094,4|0,0:0|0:0,0:0:0:0:
161,185,47395,2,0,L|161:87,1,88.000002685547,8|0,0:0|0:0,0:0:0:0:
67,48,47853,2,0,L|67:148,1,88.000002685547
160,185,48311,1,8,0:0:0:0:
232,107,48540,6,0,P|271:200|225:267,1,176.000005371094,4|0,0:0|0:0,0:0:0:0:
165,336,49227,2,0,P|219:363|266:358,1,88.000002685547,8|0,0:0|0:0,0:0:0:0:
237,257,49685,2,0,P|235:199|212:160,1,88.000002685547
121,142,50143,1,8,0:0:0:0:
35,204,50372,6,0,B|24:234|35:280|57:301,2,88.000002685547
121,143,51059,2,0,P|126:90|105:52,1,88.000002685547,8|0,0:0|0:0,0:0:0:0:
233,41,51517,1,0,0:0:0:0:
347,87,51746,1,0,0:0:0:0:
393,201,51975,1,8,0:0:0:0:
304,286,52204,2,0,L|280:342,2,44.0000013427735,0|0|4,0:0|0:0|0:0,0:0:0:0:
213,202,52662,6,0,L|132:248,2,88.000002685547,0|8|0,0:0|0:0|0:0,0:0:0:0:
240,187,53235,1,0,0:0:0:0:
267,173,53349,1,0,0:0:0:0:
187,79,53578,1,0,0:0:0:0:
66,55,53807,2,0,P|69:113|86:149,1,88.000002685547,8|0,0:0|0:0,0:0:0:0:
73,245,54265,6,0,P|58:286|67:338,1,88.000002685547
163,296,54723,2,0,P|207:306|251:291,1,88.000002685547,8|0,0:0|0:0,0:0:0:0:
197,200,55181,2,0,P|182:158|199:115,1,88.000002685547
225,15,55639,1,8,0:0:0:0:
225,15,55868,6,0,P|290:69|298:155,1,176.000005371094,4|0,0:0|0:0,0:0:0:0:
275,272,56555,1,8,0:0:0:0:
361,333,56784,1,0,0:0:0:0:
447,272,57013,1,0,0:0:0:0:
274,150,57471,1,8,0:0:0:0:
207,68,57700,6,0,P|170:155|201:226,1,176.000005371094,4|0,0:0|0:0,0:0:0:0:
260,312,58387,1,8,0:0:0:0:
350,257,58616,2,0,L|410:257,1,44.0000013427735
390,187,58845,2,0,L|290:187,1,88.000002685547
239,102,59303,2,0,L|348:102,1,88.000002685547,8|0,0:0|0:0,0:0:0:0:
372,17,59761,6,0,P|330:7|283:16,1,80,4|0,0:0|0:0,0:0:0:0:
239,102,60219,2,0,P|172:107|147:96,1,80,8|0,0:0|0:0,0:0:0:0:
65,97,60677,2,0,P|73:142|98:175,2,80,0|0|8,0:0|0:0|0:0,0:0:0:0:
161,103,61364,1,0,0:0:0:0:
165,198,61593,6,0,P|194:257|145:348,1,160,0|8,0:0|0:0,0:0:0:0:
97,265,62280,1,0,0:0:0:0:
159,337,62509,2,0,L|245:340,1,80
292,241,62967,1,8,0:0:0:0:
351,146,63196,2,0,L|436:146,1,80,4|0,0:0|0:0,0:0:0:0:
371,51,63654,6,0,L|281:51,1,80,0|8,0:0|0:0,0:0:0:0:
183,77,64112,1,0,0:0:0:0:
174,189,64341,2,0,B|174:234|174:234|153:276,1,80,0|0,0:0|0:0,0:0:0:0:
102,343,64799,1,8,0:0:0:0:
55,259,65028,6,0,B|36:219|36:219|34:86,1,160,4|0,0:0|0:0,0:0:0:0:
103,36,65715,2,0,P|181:36|203:53,1,80,8|0,0:0|0:0,0:0:0:0:
141,123,66173,1,0,0:0:0:0:
141,123,66402,1,0,0:0:0:0:
102,210,66631,2,0,P|140:220|179:211,1,80,8|0,0:0|0:0,0:0:0:0:
256,154,67089,5,4,0:0:0:0:
321,245,67318,1,0,0:0:0:0:
321,245,67547,2,0,L|401:245,1,80,8|0,0:0|0:0,0:0:0:0:
421,245,67890,1,0,0:0:0:0:
442,244,68005,1,0,0:0:0:0:
377,152,68234,1,0,0:0:0:0:
377,152,68463,2,0,P|445:139|458:106,1,80,8|0,0:0|0:0,0:0:0:0:
364,62,68921,6,0,P|317:28|282:27,1,80
200,27,69379,2,0,P|161:36|132:63,1,80,8|0,0:0|0:0,0:0:0:0:
120,84,69722,1,0,0:0:0:0:
115,107,69837,2,0,L|172:182,1,80
261,226,70296,2,0,P|259:173|283:136,1,80,8|0,0:0|0:0,0:0:0:0:
391,137,70753,6,0,L|334:212,1,80,4|0,0:0|0:0,0:0:0:0:
441,254,71212,2,0,L|389:321,1,80,8|0,0:0|0:0,0:0:0:0:
280,330,71670,2,0,P|228:328|191:302,1,80
164,210,72128,1,8,0:0:0:0:
164,210,72357,1,0,0:0:0:0:
76,140,72586,5,0,0:0:0:0:
76,140,72815,1,0,0:0:0:0:
59,250,73043,2,0,L|59:340,1,80,8|0,0:0|0:0,0:0:0:0:
164,290,73501,2,0,L|164:210,1,80
251,139,73959,2,0,P|289:126|326:141,1,80,8|0,0:0|0:0,0:0:0:0:
250,224,74418,6,0,P|322:253|397:228,1,160,4|8,0:0|0:0,0:0:0:0:
431,195,74989,1,0,0:0:0:0:
491,64,75333,1,0,0:0:0:0:
491,64,75562,2,0,L|439:59,1,40
403,61,75791,2,0,P|358:36|327:31,1,80,8|0,0:0|0:0,0:0:0:0:
234,32,76249,6,0,P|195:40|161:61,1,80
78,109,76708,2,0,L|48:66,1,40,8|0,0:0|0:0,0:0:0:0:
55,220,77166,2,0,P|40:262|48:295,1,80
139,264,77624,2,0,P|177:292|212:298,1,80,8|0,0:0|0:0,0:0:0:0:
213,202,78081,6,0,L|301:202,1,80,0|0,0:0|0:0,0:0:0:0:
366,264,78540,2,0,L|350:311,1,40,8|0,0:0|0:0,0:0:0:0:
396,164,78997,2,0,P|377:120|351:98,1,80
331,89,79341,1,0,0:0:0:0:
307,86,79455,1,8,0:0:0:0:
211,86,79684,1,0,0:0:0:0:
259,208,79914,6,0,L|259:168,2,40
223,297,80372,2,0,P|265:306|303:295,1,80,8|0,0:0|0:0,0:0:0:0:
385,252,80830,2,0,L|410:212,2,40
370,157,81288,2,0,P|306:156|267:134,1,80,8|0,0:0|0:0,0:0:0:0:
241,68,81746,5,0,0:0:0:0:
161,15,81975,1,0,0:0:0:0:
83,71,82204,2,0,P|54:78|28:74,1,53.3333333333333,8|0,0:0|0:0,0:0:0:0:
104,180,82662,2,0,P|138:205|223:207,2,120
184,125,83579,6,0,P|184:49|172:15,1,80
279,43,84036,2,0,P|323:48|359:44,1,80,8|0,0:0|0:0,0:0:0:0:
441,92,84494,2,0,L|432:181,1,80
349,218,84952,2,0,L|366:321,1,80,8|0,0:0|0:0,0:0:0:0:
256,192,85410,12,8,86784,0:0:0:0:
132,105,87242,6,0,L|60:113,2,40.000001525879,0|0|0,0:0|0:0|0:0,0:0:0:0:
160,179,87700,2,0,L|124:224,2,40.000001525879,8|0|0,0:0|0:0|0:0,0:0:0:0:
226,224,88158,2,0,L|215:284,2,40.000001525879,0|0|0,0:0|0:0|0:0,0:0:0:0:
304,207,88616,2,0,L|333:269,2,40.000001525879,8|0|0,0:0|0:0|0:0,0:0:0:0:
368,159,89074,6,0,P|358:108|280:84,1,120.000004577637,0|12,0:0|0:0,0:0:0:0:
