osu file format v9

[General]
AudioFilename: Oingo Boingo - Little Girls.mp3
AudioLeadIn: 0
PreviewTime: 27641
Countdown: 1
SampleSet: Soft
StackLeniency: 0.7
Mode: 0
LetterboxInBreaks: 1

[Editor]
DistanceSpacing: 0.8
BeatDivisor: 2
GridSize: 32

[Metadata]
Title:Little Girls
Artist:Oingo Boingo
Creator:CDFA
Version:Little!
Source:
Tags:

[Difficulty]
HPDrainRate:4
CircleSize:4
OverallDifficulty:4
ApproachRate:8
SliderMultiplier:2
SliderTickRate:1

[Events]
//Background and Video events
0,0,"Konachan_com%20-%2048834%20akiyama_mio%20k-on!.jpg"
//Break Periods
2,124088,141638
//Storyboard Layer 0 (Background)
//Storyboard Layer 1 (Fail)
//Storyboard Layer 2 (Pass)
//Storyboard Layer 3 (Foreground)
//Storyboard Sound Samples
//Background Colour Transformations
3,100,163,162,255

[TimingPoints]
8804.07836753266,348.837209302326,4,2,1,74,1,0
27651,348.837209302326,4,2,1,74,1,0
74395,348.837209302326,4,2,1,74,1,0
110632,348.837209302326,4,2,1,74,1,0
115515,348.837209302326,4,2,1,74,1,0
142388,348.837209302326,4,2,1,74,1,0

[HitObjects]
32,192,27651,2,0,B|64:96|194:54|320:96|352:192,1,400,2|2
256,320,28697,1,8
95,320,29046,2,0,B|96:207,1,100,2|0
152,163,29395,2,0,B|254:164,1,100,8|0
332,163,29744,2,0,B|365:270|284:325|256:320,1,200,2|8
255,159,30441,5,4
368,45,30790,1,4
481,158,31139,1,4
367,271,31488,1,4
253,157,31837,2,8,B|256:375,1,200
396,381,32535,6,0,B|486:388|526:336|526:264,1,200,2|8
469,209,33058,1,0
412,152,33232,2,0,B|314:116|212:149,2,200,2|8|2
298,265,34279,5,8
241,321,34453,1,8
184,264,34628,2,0,B|102:194,2,100,2|0|8
256,128,35325,5,4
369,241,35674,1,4
255,354,36023,1,4
141,240,36372,1,4
256,128,36721,2,8,B|256:352,1,200
352,192,37418,6,0,B|352:96|257:72|160:96|160:192,1,300,2|0
159,271,38116,2,0,B|257:310|354:277,1,200,2|8
354,116,38814,1,2
297,59,38988,1,0
257,128,39162,1,8
215,59,39337,1,0
158,115,39511,1,2
158,195,39686,1,0
220,245,39860,1,8
300,247,40035,1,8
352,186,40209,2,0,B|435:174|469:219|495:261|497:309,2,200,2|8|2
256,320,41255,1,8
192,160,41604,2,4,B|192:96|256:82|320:96|320:160,1,200
192,256,42302,6,0,B|224:320|255:330|255:330|288:320|320:256,1,200,2|8
357,185,42825,1,0
357,104,43000,2,0,B|256:80|153:104,2,200,2|8|2
224,192,44046,5,8
167,248,44221,1,0
223,304,44395,2,0,B|320:320|352:352|352:352|384:320|384:288,2,200,2|8|2
223,143,45441,1,8
336,29,45790,1,0
449,142,46139,1,8
335,255,46488,2,4,B|334:358|266:389|187:358,1,200
209,204,47186,1,4
192,32,47535,5,8
135,88,47709,1,0
78,144,47883,1,2
21,200,48058,1,0
77,256,48232,1,8
133,312,48407,1,0
189,368,48581,2,4,B|289:388|397:372,1,200
416,288,49104,2,8,B|416:192|352:87|288:192|288:288,1,300
231,344,49802,1,8
174,287,49976,1,4
320,32,50325,5,8
377,88,50499,1,0
434,144,50673,1,2
491,200,50848,1,0
435,256,51022,1,8
379,312,51197,1,0
323,368,51371,2,4,B|223:388|115:372,1,200
96,288,51894,2,8,B|96:192|160:87|224:192|224:288,1,300
281,344,52592,1,8
338,287,52766,1,4
192,192,53116,6,0,B|232:127|232:127|256:130|282:126|282:126|320:192,1,200,8|0
256,352,53814,1,8
256,272,53988,1,0
256,192,54162,1,2
192,32,54511,5,8
256,64,54686,1,0
320,32,54860,2,0,B|384:32|431:49|478:87|477:143,2,200,2|8|2
192,128,55907,6,0,B|224:192|256:202|256:202|288:192|320:128,1,200,8|0
192,32,56604,1,8
256,64,56779,1,0
320,32,56953,1,2
192,128,57302,5,8
256,160,57476,1,0
320,128,57651,2,0,B|376:119|423:139|455:189|448:254,2,200,2|8|2
160,160,58697,6,0,B|96:128|40:192|96:256|160:224,1,200,8|0
320,192,59395,1,8
399,192,59569,1,0
480,192,59744,1,2
352,96,60093,5,8
295,39,60267,1,0
238,95,60441,2,0,B|187:97|156:149|156:149|122:94|67:95,2,200,2|8|2
192,256,61488,2,0,B|192:320|256:340|320:320|320:256,1,200,8|0
192,192,62186,1,8
256,128,62360,1,0
320,192,62535,1,2
256,352,62883,5,8
256,271,63058,1,0
256,191,63232,2,0,B|224:128|288:64|257:-7,2,200,2|8|2
256,271,64104,5,0
256,352,64279,1,8
96,352,64628,2,0,B|64:160|256:53|448:160|416:352,1,600,0|8
336,349,65848,5,0
279,292,66023,1,2
222,348,66197,1,0
165,291,66372,1,8
108,347,66546,1,0
51,290,66721,2,0,B|52:72,1,200,0|8
108,33,67244,1,8
164,89,67418,2,4,B|255:119|364:92,1,200,4|4
224,192,68116,5,2
167,248,68290,1,0
223,304,68465,1,8
279,247,68639,1,0
224,192,68814,2,0,B|252:119|236:70|206:35|170:20|144:22,1,200,0|8
52,137,69511,2,4,B|24:210|40:259|70:294|106:309|132:307,1,200
224,191,70209,5,2
280,247,70383,1,0
336,190,70558,1,8
392,246,70732,1,0
448,189,70907,2,0,B|455:89|411:44|355:23|316:32,1,200,0|8
256,192,71604,12,0,74046
160,192,74395,6,0,B|160:288|192:352|256:384|320:352|352:288|352:192,1,400,4|2
256,192,75267,1,0
206,129,75441,2,0,B|208:46|260:36|308:49|308:131,1,200,8|0
160,192,76139,5,8
216,248,76314,1,0
272,304,76488,2,0,B|348:369|472:362,1,200,2|8
416,192,77186,5,0
302,78,77535,1,8
189,190,77883,1,0
302,303,78232,1,8
302,142,78581,2,4,B|301:366,1,200
140,341,79279,6,0,B|39:331|10:291|12:221,1,200,2|8
11,140,79802,1,0
11,60,79976,2,0,B|109:31|211:57,2,200,2|8|2
124,173,81023,1,8
180,229,81197,1,0
236,172,81372,2,0,B|338:144|437:166,1,200,2|8
320,278,82069,5,0
206,391,82418,1,8
92,277,82767,1,0
205,163,83116,1,8
205,163,83814,1,12
96,32,84162,6,0,B|160:0|224:96|288:64,1,200,0|8
360,34,84686,1,0
431,68,84860,2,0,B|446:166|424:236|376:272|337:262,1,200,0|8
256,160,85558,5,2
199,216,85732,1,0
142,159,85907,1,8
85,215,86081,1,0
28,271,86255,1,2
84,327,86430,1,0
140,270,86604,1,8
196,326,86779,1,8
252,269,86953,2,0,B|341:310|453:276,1,200,2|8
390,220,87476,1,0
333,163,87651,2,0,B|233:146|126:166,1,200,2|8
77,221,88174,1,0
20,277,88348,2,4,B|114:341|209:281,1,200
256,128,89046,6,0,B|256:256,2,100,2|0|8
256,47,89569,1,0
336,47,89744,2,0,B|416:32|474:75|489:134|463:172,2,200,2|8|2
256,192,90790,1,8
199,248,90965,1,0
142,191,91139,2,0,B|35:192|0:129|2:70,2,200,2|8|2
255,304,92186,1,8
368,190,92535,1,2
255,77,92883,1,8
255,77,93581,1,8
32,288,94279,5,8
88,344,94453,1,0
144,287,94628,1,2
200,343,94802,1,0
256,286,94976,1,8
312,342,95151,1,0
368,285,95325,2,0,B|446:276|471:231|481:184|453:139,1,200,0|8
399,201,95848,2,0,B|321:192|296:147|286:100|314:55,1,200
391,60,96372,1,8
447,116,96546,1,8
480,188,96721,1,4
32,96,97069,5,8
88,40,97243,1,0
144,97,97418,1,2
200,41,97592,1,0
256,98,97766,1,8
312,42,97941,1,8
368,99,98115,2,0,B|446:108|471:153|481:200|453:245,1,200,0|8
399,183,98638,2,0,B|321:192|296:237|286:284|314:329,1,200
391,324,99162,1,8
447,268,99336,1,8
480,196,99511,1,4
320,128,99860,6,0,B|288:192|252:202|252:202|224:192|192:128,1,200,8|0
191,288,100558,1,8
256,320,100732,1,0
320,288,100907,1,2
192,192,101255,5,8
256,224,101430,1,0
320,192,101604,1,2
288,128,101779,1,0
224,128,101953,1,8
256,288,102302,1,0
416,352,102651,6,0,B|473:349|496:301|511:247|491:186,1,200,8|0
380,81,103348,1,8
323,137,103523,1,0
266,80,103697,1,2
152,193,104046,1,8
208,249,104221,1,0
264,192,104395,2,0,B|365:237|467:196,2,200,2|8|2
160,64,105441,6,0,B|256:116|352:64,1,200,8|0
256,192,106139,1,8
256,272,106314,1,0
256,351,106488,1,2
95,351,106837,1,8
95,271,107011,1,0
95,190,107186,2,0,B|175:84|256:192,2,200,2|8|2
192,320,108232,6,0,B|224:352|224:352|256:270|288:352|288:352|320:320,1,200,8|2
256,160,108930,1,8
256,80,109104,1,0
336,80,109279,6,0,B|451:80,1,100,2|0
492,136,109628,2,0,B|492:238,1,100,8|0
435,292,109976,2,2,B|345:341|237:304,1,200,2|10
96,320,110632,6,2,B|0:256,1,100
32,192,110981,2,2,B|128:256,1,100,10|2
160,192,111330,2,2,B|64:128,1,100
160,96,111679,2,2,B|256:160,1,100,10|2
288,96,112027,2,2,B|192:32,1,100
288,0,112376,2,2,B|384:64,1,100,10|2
384,128,112725,2,2,B|480:192,1,100
384,224,113074,2,2,B|288:160,1,100,10|2
256,192,113423,12,2,115167
160,192,115516,5,2
192,256,115690,1,0
256,288,115865,1,8
320,256,116039,1,0
352,192,116213,2,0,B|352:96|384:32|448:32,2,200,0|8|4
256,64,117260,1,4
96,96,117609,5,2
96,175,117783,1,0
96,255,117958,1,8
96,334,118132,1,0
175,334,118306,2,2,B|274:368|382:342,1,200,2|10
256,224,119004,1,4
256,63,119353,1,4
160,192,119702,5,2
192,256,119876,1,0
256,288,120051,1,8
320,256,120225,1,0
352,192,120399,2,2,B|256:143|160:192,1,200,2|10
256,192,121097,12,4,123888
0,32,142388,6,0,B|32:128,1,100,4|0
96,64,142737,2,0,B|128:160,1,100,8|0
192,96,143086,2,0,B|224:192,1,100,2|0
288,128,143435,6,0,B|320:224,1,100,8|0
512,32,143784,6,0,B|480:128,1,100,4|0
416,64,144133,2,0,B|384:160,1,100,8|0
320,96,144482,2,0,B|288:192,1,100,2|0
224,128,144831,2,0,B|192:224,1,100,8|0
128,288,145179,6,0,B|128:416,1,100,4|0
192,352,145528,2,0,B|192:224,1,100,8|0
256,288,145877,2,0,B|256:416,1,100,2|0
320,352,146225,2,0,B|320:224,1,100,8|0
384,288,146574,1,4
384,127,146923,1,8
327,70,147098,1,0
270,126,147272,2,0,B|178:165|151:242|159:308,2,200,2|8|2
256,288,148318,5,8
312,344,148493,1,0
368,287,148667,2,0,B|469:287|506:226|496:152,2,200,2|8|2
207,287,149714,5,8
151,231,149889,1,0
208,175,150063,2,0,B|208:74|269:37|343:47,2,200,2|8|2
128,320,151109,5,8
184,376,151284,1,0
240,319,151458,2,0,B|329:334|379:281|401:224,1,200,2|8
333,181,151981,1,0
256,192,152156,5,8
256,192,152330,1,8
256,192,152505,1,8
256,192,152679,1,8
256,192,152853,1,8
160,32,153550,6,0,B|224:64|259:41|259:41|288:64|352:32,1,200,4|8
431,32,154074,1,0
487,88,154248,2,0,B|505:164|474:230|428:268|378:237,1,200,2|8
328,246,154771,1,0
247,246,154946,2,0,B|171:176,1,100
93,178,155294,2,8,B|9:242,1,100
70,295,155643,2,0,B|166:332|271:310,1,200,2|8
328,246,156167,1,0
256,192,156341,5,0
207,39,156690,1,8
335,135,157039,1,0
175,135,157388,1,8
303,39,157736,1,4
256,192,158085,1,4
128,288,158434,6,0,B|192:352|237:379|311:371,1,200,0|8
358,315,158957,1,0
301,258,159132,2,0,B|256:192|256:64,2,200,0|8|0
352,96,160178,5,8
408,152,160353,1,8
351,208,160527,2,0,B|361:321|309:374|254:367,1,200,0|8
187,367,161050,1,0
130,310,161225,2,0,B|50:241,2,100,0|2|8
186,253,161748,2,0,B|255:172,2,100,0|2|0
129,196,162271,2,0,B|56:124,2,100,8|2|2
256,288,162969,1,8
384,192,163318,1,4
256,96,163667,5,8
256,175,163841,1,0
312,231,164015,1,2
368,287,164190,1,0
447,287,164364,1,8
503,230,164539,1,0
503,150,164713,2,0,B|421:85|309:59,1,200,2|8
267,119,165236,2,0,B|379:151|454:210,1,200
447,287,165760,1,8
390,343,165934,1,8
333,286,166108,1,4
256,96,166457,5,8
256,175,166631,1,0
200,231,166805,1,2
144,287,166980,1,0
65,287,167154,1,8
9,230,167329,1,0
9,150,167503,2,0,B|91:85|203:59,1,200,2|8
245,119,168026,2,0,B|133:151|58:210,1,200
65,287,168550,1,8
122,343,168724,1,8
179,286,168898,1,4
256,160,169248,6,0,B|320:192|384:96|448:128,1,200,8|0
332,240,169946,1,8
275,296,170120,1,0
218,352,170294,1,2
104,238,170643,1,8
47,181,170818,1,0
103,124,170992,2,0,B|197:88|244:190|333:89,2,200,0|8|0
213,240,172039,6,0,B|213:283|213:283|256:349|300:283|300:283|300:240,1,200,8|0
256,96,172736,1,8
256,176,172911,1,0
256,255,173085,1,2
369,368,173434,5,8
425,311,173608,1,0
481,254,173783,2,0,B|313:126,2,200,0|8|0
320,254,174829,6,0,B|96:256,1,200,8|0
120,95,175527,1,8
176,151,175701,1,0
232,94,175876,1,2
118,207,176225,1,8
174,263,176399,1,0
230,206,176574,2,0,B|325:169|433:211,2,200,0|8|0
177,357,177620,2,0,B|276:411|370:368,1,200,8|0
255,254,178318,1,8
255,174,178492,1,0
255,93,178667,1,2
128,192,179015,5,8
171,259,179190,1,0
213,326,179364,2,0,B|306:372|414:363,2,200,0|8|0
384,288,180411,6,0,B|288:288|184:226,1,200,8|0
307,118,181108,2,0,B|211:118|107:180,1,200,8|0
3,287,181806,1,8
59,343,181981,1,0
115,286,182155,2,0,B|202:292|237:246|247:186|222:131,2,200,0|8|0
1,172,183201,6,0,B|145:27,1,200,8|0
141,190,183899,1,8
141,350,184248,5,0
197,293,184422,1,0
253,349,184597,1,8
309,292,184771,1,0
365,348,184946,2,0,B|467:351|500:299|495:227,1,200,0|8
512,64,185643,6,0,B|512:192,1,100,2|0
448,224,185992,2,0,B|448:96,1,100,8|0
384,64,186341,2,0,B|384:192,1,100,2|0
320,224,186690,2,0,B|320:96,1,100,8|0
256,64,187039,2,0,B|256:192,1,100,2|0
192,224,187388,2,0,B|192:96,1,100,8|0
128,64,187736,2,0,B|128:192,1,100,2|0
64,224,188085,2,0,B|64:96,1,100,8|0
0,192,188434,6,0,B|0:320,1,100,2|0
64,352,188783,2,0,B|64:224,1,100,8|0
128,192,189132,2,0,B|128:320,1,100,2|0
192,352,189481,2,0,B|192:224,1,100,8|0
256,192,189829,2,0,B|256:320,1,100,2|0
320,352,190178,2,0,B|320:224,1,100,8|0
384,192,190527,2,0,B|384:320,1,100,2|0
448,352,190876,2,0,B|448:224,1,100,8|0
256,192,191225,12,8,192969
160,192,193318,5,2
216,248,193492,1,0
256,178,193667,1,8
294,248,193841,1,0
350,191,194015,1,2
256,64,194364,1,8
256,144,194539,1,8
256,223,194713,2,4,B|256:344|311:378|390:383,1,200
480,288,195411,5,2
480,208,195585,1,0
423,151,195760,1,8
366,207,195934,1,0
366,286,196108,2,0,B|276:331|166:289,1,200,0|8
285,177,196806,2,4,B|195:132|85:174,1,200
32,320,197504,5,2
88,376,197678,1,0
144,319,197853,1,8
200,375,198027,1,0
256,320,198201,2,0,B|256:96,1,200,0|8
256,192,198899,12,0,201341
128,160,201690,6,0,B|192:64|257:5|257:5|320:64|384:160,1,400,4|0
256,256,202736,1,8
128,352,203085,2,0,B|224:384,1,100
288,352,203434,2,0,B|384:384,1,100,8|0
448,352,203783,2,0,B|512:320|512:160,1,200,0|8
455,114,204306,1,0
398,57,204481,2,0,B|298:29|193:60,1,200,0|8
143,114,205004,1,0
86,170,205178,2,0,B|77:272|133:350|178:346,1,200,0|8
216,286,205701,1,0
257,217,205876,2,4,B|257:16,1,200
370,130,206574,6,0,B|368:343,1,200,0|8
287,329,207097,1,0
207,329,207271,2,0,B|116:372|7:340,2,200,0|8|0
255,176,208318,1,8
255,96,208492,1,0
255,15,208667,2,0,B|359:1|426:32|447:89,1,200,0|8
380,125,209190,1,0
338,193,209364,2,0,B|247:376,1,200,0|8
191,314,209888,1,0
134,257,210062,2,0,B|257:64,1,200,0|8
241,88,211108,1,12
128,192,211457,6,0,B|160:288|222:344|288:288|320:192,1,300
319,113,212155,2,0,B|340:49|381:12|425:49|446:113,1,200,0|8
352,256,212853,1,0
288,320,213027,1,0
224,256,213201,1,8
160,320,213376,1,0
96,256,213550,1,0
32,192,213725,1,0
96,128,213899,1,8
160,192,214074,1,8
224,128,214248,2,0,B|321:101|428:136,1,200,0|8
364,190,214771,1,0
307,246,214946,2,0,B|258:340|185:358|129:349,1,200,0|8
149,190,215643,1,4
256,64,215992,1,12
256,224,216341,6,0,B|359:252|455:221,1,200,0|8
396,164,216864,1,0
339,107,217039,2,0,B|256:196|166:103,2,200,0|8|0
224,224,218085,1,8
167,280,218260,1,0
223,336,218434,2,0,B|323:366|427:346,1,200,0|8
241,105,219132,5,0
160,288,219481,1,8
352,192,219829,1,0
128,192,220178,1,8
320,287,220527,2,4,B|416:287|448:255|452:170,1,200
256,32,221225,5,8
256,352,221574,1,8
