osu file format v14

[General]
AudioFilename: w0w.mp3
AudioLeadIn: 0
PreviewTime: 39326
Countdown: 0
SampleSet: None
StackLeniency: 0.7
Mode: 3
LetterboxInBreaks: 0
SpecialStyle: 0
WidescreenStoryboard: 0

[Editor]
DistanceSpacing: 1
BeatDivisor: 4
GridSize: 8
TimelineZoom: 1.4

[Metadata]
Title:Reimu-instrumental-
TitleUnicode:麗夢-instrumental-
Artist:OhkaP
ArtistUnicode:桜華P
Creator:Rizqy
Version:Hard
Source:
Tags:no. 666 the voc@loid m@ster 23 2nd album ultimate alternative
BeatmapID:835286
BeatmapSetID:381888

[Difficulty]
HPDrainRate:8
CircleSize:5
OverallDifficulty:8
ApproachRate:10
SliderMultiplier:1.4
SliderTickRate:1

[Events]
//Background and Video events
0,0,"skrbg_n.jpg",0,0
//Break Periods
//Storyboard Layer 0 (Background)
//Storyboard Layer 1 (Fail)
//Storyboard Layer 2 (Pass)
//Storyboard Layer 3 (Foreground)
//Storyboard Sound Samples

[TimingPoints]
2660,666.666666666667,4,3,0,30,1,0

[HitObjects]
153,192,2326,5,4,0:0:0:0:
358,192,2326,1,4,0:0:0:0:
153,192,2660,1,8,0:0:0:0:
460,192,2660,128,0,2993:0:0:0:0:
153,192,2826,1,8,0:0:0:0:
51,192,2993,1,8,0:0:0:0:
256,192,2993,128,0,3326:0:0:0:0:
358,192,3326,1,2,0:0:0:0:
460,192,3326,1,2,0:0:0:0:
51,192,3326,128,0,3660:0:0:0:0:
153,192,3660,128,0,3993:0:0:0:0:
358,192,3660,1,8,0:0:0:0:
256,192,3826,1,2,0:0:0:0:
51,192,3826,1,2,0:0:0:0:
460,192,3993,128,0,4326:0:0:0:0:
358,192,3993,1,8,0:0:0:0:
153,192,4160,1,8,0:0:0:0:
358,192,4326,128,0,4660:0:0:0:0:
153,192,4326,1,8,0:0:0:0:
256,192,4660,128,0,4993:0:0:0:0:
51,192,4660,1,2,0:0:0:0:
460,192,4660,1,2,0:0:0:0:
153,192,4993,128,0,5326:0:0:0:0:
51,192,4993,1,4,0:0:0:0:
358,192,5326,128,0,5660:0:0:0:0:
256,192,5326,1,8,0:0:0:0:
256,192,5493,1,8,0:0:0:0:
153,192,5660,128,0,5993:0:0:0:0:
51,192,5660,1,8,0:0:0:0:
256,192,5993,128,0,6326:0:0:0:0:
358,192,5993,1,2,0:0:0:0:
460,192,5993,1,2,0:0:0:0:
358,192,6326,128,0,6660:0:0:0:0:
153,192,6326,1,8,0:0:0:0:
51,192,6493,1,2,0:0:0:0:
256,192,6493,1,2,0:0:0:0:
460,192,6660,128,0,6993:0:0:0:0:
153,192,6660,1,8,0:0:0:0:
153,192,6826,1,8,0:0:0:0:
256,192,6993,128,0,7326:0:0:0:0:
358,192,6993,1,8,0:0:0:0:
153,192,7326,128,0,7660:0:0:0:0:
51,192,7326,1,2,0:0:0:0:
460,192,7326,1,2,0:0:0:0:
51,192,7660,128,0,7993:0:0:0:0:
358,192,7660,1,8,0:0:0:0:
460,192,7993,128,0,8326:0:0:0:0:
256,192,7993,1,8,0:0:0:0:
256,192,8160,1,8,0:0:0:0:
153,192,8326,128,0,8660:0:0:0:0:
358,192,8326,1,8,0:0:0:0:
256,192,8660,1,2,0:0:0:0:
460,192,8660,1,2,0:0:0:0:
51,192,8660,128,0,8993:0:0:0:0:
358,192,8993,128,0,9326:0:0:0:0:
153,192,8993,1,8,0:0:0:0:
256,192,9160,1,2,0:0:0:0:
51,192,9160,1,2,0:0:0:0:
460,192,9326,128,0,9660:0:0:0:0:
153,192,9326,1,8,0:0:0:0:
153,192,9493,1,8,0:0:0:0:
256,192,9660,128,0,9993:0:0:0:0:
51,192,9660,1,8,0:0:0:0:
153,192,9993,128,0,10326:0:0:0:0:
358,192,9993,1,2,0:0:0:0:
460,192,9993,1,2,0:0:0:0:
51,192,10326,128,0,10660:0:0:0:0:
256,192,10326,1,8,0:0:0:0:
358,192,10660,128,0,10993:0:0:0:0:
153,192,10660,1,8,0:0:0:0:
153,192,10826,1,8,0:0:0:0:
51,192,10993,128,0,11326:0:0:0:0:
256,192,10993,1,8,0:0:0:0:
153,192,11326,128,0,11660:0:0:0:0:
358,192,11326,1,2,0:0:0:0:
460,192,11326,1,2,0:0:0:0:
460,192,11660,128,0,11993:0:0:0:0:
256,192,11660,1,8,0:0:0:0:
358,192,11826,1,2,0:0:0:0:
51,192,11826,1,2,0:0:0:0:
256,192,11993,128,0,12326:0:0:0:0:
153,192,11993,1,8,0:0:0:0:
51,192,12160,1,2,0:0:0:0:
358,192,12160,1,2,0:0:0:0:
460,192,12326,128,0,12660:0:0:0:0:
153,192,12326,1,8,0:0:0:0:
153,192,12660,128,0,12993:0:0:0:0:
358,192,12660,1,2,0:0:0:0:
51,192,12660,1,2,0:0:0:0:
256,192,12826,1,2,0:0:0:0:
460,192,12826,1,2,0:0:0:0:
51,192,12993,128,2,13326:0:0:0:0:
358,192,12993,1,2,0:0:0:0:
256,192,13160,1,2,0:0:0:0:
460,192,13160,1,2,0:0:0:0:
153,192,13326,1,8,0:0:0:0:
358,192,13326,1,4,1:0:0:0:
460,192,13326,128,0,14660:0:0:0:0:
256,192,13493,1,8,0:0:0:0:
256,192,13660,1,8,0:0:0:0:
358,192,13993,1,2,0:0:0:0:
51,192,13993,1,2,0:0:0:0:
256,192,14326,1,8,0:0:0:0:
153,192,14493,1,2,0:0:0:0:
358,192,14493,1,2,0:0:0:0:
51,192,14660,128,0,15326:0:0:0:0:
256,192,14660,1,8,0:0:0:0:
153,192,14826,1,2,0:0:0:0:
460,192,14826,1,2,0:0:0:0:
358,192,14993,1,8,0:0:0:0:
153,192,15326,128,0,15993:0:0:0:0:
256,192,15326,1,2,0:0:0:0:
460,192,15326,1,2,0:0:0:0:
358,192,15660,1,8,0:0:0:0:
358,192,15826,1,8,0:0:0:0:
256,192,15993,128,0,16493:0:0:0:0:
460,192,15993,1,8,0:0:0:0:
51,192,16160,1,8,0:0:0:0:
51,192,16326,1,8,0:0:0:0:
460,192,16493,128,0,16993:0:0:0:0:
51,192,16660,1,2,0:0:0:0:
358,192,16660,1,2,0:0:0:0:
153,192,16993,128,0,17326:0:0:0:0:
358,192,16993,1,8,0:0:0:0:
256,192,17160,1,2,0:0:0:0:
460,192,17160,1,2,0:0:0:0:
51,192,17326,128,0,17993:0:0:0:0:
358,192,17326,1,8,0:0:0:0:
153,192,17493,1,2,0:0:0:0:
460,192,17493,1,2,0:0:0:0:
256,192,17660,1,8,0:0:0:0:
153,192,17993,128,0,18326:0:0:0:0:
358,192,17993,1,2,0:0:0:0:
460,192,17993,1,2,0:0:0:0:
460,192,18326,128,0,18660:0:0:0:0:
256,192,18326,1,8,0:0:0:0:
256,192,18493,1,8,0:0:0:0:
358,192,18660,1,8,0:0:0:0:
153,192,18660,128,0,19326:0:0:0:0:
51,192,18660,1,4,1:0:0:0:
460,192,18826,1,8,0:0:0:0:
460,192,18993,1,8,0:0:0:0:
256,192,19326,1,2,0:0:0:0:
460,192,19326,1,2,0:0:0:0:
51,192,19326,128,0,19660:0:0:0:0:
153,192,19660,128,0,19993:0:0:0:0:
358,192,19660,1,8,0:0:0:0:
256,192,19826,1,2,0:0:0:0:
460,192,19826,1,2,0:0:0:0:
358,192,19993,128,0,20660:0:0:0:0:
51,192,19993,1,8,0:0:0:0:
153,192,20160,1,2,0:0:0:0:
460,192,20160,1,2,0:0:0:0:
256,192,20326,1,8,0:0:0:0:
153,192,20660,1,2,0:0:0:0:
460,192,20660,1,2,0:0:0:0:
51,192,20660,128,0,20993:0:0:0:0:
256,192,20993,128,0,21326:0:0:0:0:
358,192,20993,1,8,0:0:0:0:
358,192,21160,1,8,0:0:0:0:
460,192,21326,128,0,21660:0:0:0:0:
51,192,21326,1,8,0:0:0:0:
153,192,21493,1,8,0:0:0:0:
153,192,21660,1,8,0:0:0:0:
460,192,21826,128,0,22326:0:0:0:0:
51,192,21993,1,2,0:0:0:0:
256,192,21993,1,2,0:0:0:0:
51,192,22326,128,0,22493:0:0:0:0:
256,192,22326,1,8,0:0:0:0:
153,192,22493,1,2,0:0:0:0:
460,192,22493,1,2,0:0:0:0:
51,192,22660,128,0,23326:0:0:0:0:
358,192,22660,1,8,0:0:0:0:
256,192,22826,1,2,0:0:0:0:
460,192,22826,1,2,0:0:0:0:
358,192,22993,1,8,0:0:0:0:
460,192,23326,128,0,23660:0:0:0:0:
153,192,23326,1,2,0:0:0:0:
256,192,23326,1,2,0:0:0:0:
358,192,23660,128,0,23993:0:0:0:0:
153,192,23660,1,8,0:0:0:0:
153,192,23826,1,8,0:0:0:0:
460,192,23993,1,4,1:0:0:0:
256,192,23993,1,8,0:0:0:0:
51,192,23993,128,0,25326:0:0:0:0:
358,192,24160,1,8,0:0:0:0:
358,192,24326,1,8,0:0:0:0:
153,192,24660,1,2,0:0:0:0:
460,192,24660,1,2,0:0:0:0:
358,192,24993,1,8,0:0:0:0:
256,192,25160,1,2,0:0:0:0:
460,192,25160,1,2,0:0:0:0:
153,192,25326,128,0,25993:0:0:0:0:
358,192,25326,1,8,0:0:0:0:
460,192,25493,1,2,0:0:0:0:
256,192,25493,1,2,0:0:0:0:
358,192,25660,1,8,0:0:0:0:
358,192,25993,128,0,26660:0:0:0:0:
51,192,25993,1,2,0:0:0:0:
256,192,25993,1,2,0:0:0:0:
256,192,26326,1,8,0:0:0:0:
256,192,26493,1,8,0:0:0:0:
460,192,26660,128,0,27160:0:0:0:0:
51,192,26660,1,8,0:0:0:0:
153,192,26826,1,8,0:0:0:0:
153,192,26993,1,8,0:0:0:0:
256,192,27160,128,0,27660:0:0:0:0:
51,192,27326,1,2,0:0:0:0:
358,192,27326,1,2,0:0:0:0:
153,192,27660,128,0,27993:0:0:0:0:
358,192,27660,1,8,0:0:0:0:
460,192,27826,1,2,0:0:0:0:
256,192,27826,1,2,0:0:0:0:
51,192,27993,128,0,28660:0:0:0:0:
358,192,27993,1,8,0:0:0:0:
153,192,28160,1,2,0:0:0:0:
460,192,28160,1,2,0:0:0:0:
256,192,28326,1,8,0:0:0:0:
460,192,28660,128,0,28993:0:0:0:0:
153,192,28660,1,2,0:0:0:0:
358,192,28660,1,2,0:0:0:0:
256,192,28826,1,8,0:0:0:0:
358,192,28993,128,0,29326:0:0:0:0:
153,192,28993,1,8,0:0:0:0:
153,192,29160,1,8,0:0:0:0:
256,192,29326,1,8,0:0:0:0:
460,192,29326,1,4,1:0:0:0:
51,192,29326,128,0,29993:0:0:0:0:
358,192,29493,1,8,0:0:0:0:
358,192,29660,1,8,0:0:0:0:
256,192,29993,1,2,0:0:0:0:
153,192,29993,1,2,0:0:0:0:
460,192,29993,128,0,30660:0:0:0:0:
256,192,30326,1,8,0:0:0:0:
51,192,30493,1,2,0:0:0:0:
358,192,30493,1,2,0:0:0:0:
153,192,30660,128,0,30993:0:0:0:0:
256,192,30660,1,8,0:0:0:0:
51,192,30826,1,2,0:0:0:0:
358,192,30826,1,2,0:0:0:0:
256,192,30993,128,0,31160:0:0:0:0:
460,192,30993,1,8,0:0:0:0:
153,192,31160,128,0,31326:0:0:0:0:
51,192,31326,128,0,31660:0:0:0:0:
358,192,31326,1,2,0:0:0:0:
460,192,31326,1,2,0:0:0:0:
256,192,31660,1,8,0:0:0:0:
460,192,31660,128,0,31993:0:0:0:0:
153,192,31826,1,2,0:0:0:0:
358,192,31826,1,2,0:0:0:0:
256,192,31993,128,0,33993:0:0:0:0:
51,192,31993,1,8,0:0:0:0:
460,192,32160,1,8,0:0:0:0:
460,192,32326,1,8,0:0:0:0:
358,192,32660,1,2,0:0:0:0:
51,192,32660,1,2,0:0:0:0:
153,192,32993,1,8,0:0:0:0:
51,192,33160,1,2,0:0:0:0:
460,192,33160,1,2,0:0:0:0:
358,192,33326,1,8,0:0:0:0:
51,192,33493,1,2,0:0:0:0:
460,192,33493,1,2,0:0:0:0:
153,192,33660,1,8,0:0:0:0:
51,192,33993,1,2,0:0:0:0:
460,192,33993,1,2,0:0:0:0:
153,192,34326,1,8,0:0:0:0:
153,192,34493,1,8,0:0:0:0:
358,192,34660,128,0,34993:0:0:0:0:
256,192,34660,1,8,0:0:0:0:
256,192,34826,1,8,0:0:0:0:
153,192,34993,128,0,35326:0:0:0:0:
51,192,34993,1,8,0:0:0:0:
460,192,35326,128,0,35660:0:0:0:0:
256,192,35326,1,2,0:0:0:0:
358,192,35326,1,2,0:0:0:0:
51,192,35660,128,0,35993:0:0:0:0:
256,192,35660,1,8,0:0:0:0:
153,192,35826,1,2,0:0:0:0:
460,192,35826,1,2,0:0:0:0:
358,192,35993,128,0,36326:0:0:0:0:
256,192,35993,1,8,0:0:0:0:
51,192,36160,1,2,0:0:0:0:
460,192,36160,1,2,0:0:0:0:
256,192,36326,128,0,36660:0:0:0:0:
153,192,36326,1,8,0:0:0:0:
51,192,36660,128,0,36993:0:0:0:0:
153,192,36660,1,2,0:0:0:0:
460,192,36660,1,2,0:0:0:0:
358,192,36993,128,0,37326:0:0:0:0:
256,192,36993,1,8,0:0:0:0:
256,192,37160,1,8,0:0:0:0:
51,192,37326,128,0,37660:0:0:0:0:
460,192,37326,1,8,0:0:0:0:
358,192,37493,1,8,0:0:0:0:
358,192,37660,1,8,0:0:0:0:
153,192,37660,128,0,37993:0:0:0:0:
256,192,37993,128,0,38326:0:0:0:0:
460,192,37993,1,2,0:0:0:0:
51,192,37993,1,2,0:0:0:0:
460,192,38326,128,0,38660:0:0:0:0:
153,192,38326,1,8,0:0:0:0:
51,192,38493,1,2,0:0:0:0:
358,192,38493,1,2,0:0:0:0:
256,192,38660,1,8,0:0:0:0:
153,192,38660,128,0,38993:0:0:0:0:
358,192,38826,1,2,0:0:0:0:
460,192,38826,1,2,0:0:0:0:
51,192,38993,128,0,39326:0:0:0:0:
256,192,38993,1,8,0:0:0:0:
153,192,39160,1,2,0:0:0:0:
460,192,39160,1,2,0:0:0:0:
358,192,39326,128,0,39660:0:0:0:0:
256,192,39326,1,8,0:0:0:0:
153,192,39493,1,2,0:0:0:0:
460,192,39493,1,2,0:0:0:0:
256,192,39660,128,2,39993:0:0:0:0:
153,192,39660,1,2,0:0:0:0:
51,192,39826,1,2,0:0:0:0:
358,192,39826,1,2,0:0:0:0:
460,192,39993,128,0,40326:0:0:0:0:
358,192,39993,1,8,0:0:0:0:
153,192,39993,1,4,1:0:0:0:
256,192,40160,1,8,0:0:0:0:
256,192,40326,1,8,0:0:0:0:
51,192,40326,128,0,40660:0:0:0:0:
153,192,40660,128,0,40993:0:0:0:0:
358,192,40660,1,2,0:0:0:0:
460,192,40660,1,2,0:0:0:0:
358,192,40993,128,0,41326:0:0:0:0:
51,192,40993,1,8,0:0:0:0:
153,192,41160,1,2,0:0:0:0:
460,192,41160,1,2,0:0:0:0:
256,192,41326,128,0,41660:0:0:0:0:
51,192,41326,1,8,0:0:0:0:
51,192,41493,1,8,0:0:0:0:
460,192,41660,128,0,41993:0:0:0:0:
153,192,41660,1,8,0:0:0:0:
256,192,41993,1,2,0:0:0:0:
358,192,41993,1,2,0:0:0:0:
153,192,41993,128,0,42326:0:0:0:0:
51,192,42326,128,0,42660:0:0:0:0:
460,192,42326,1,8,0:0:0:0:
358,192,42493,1,2,0:0:0:0:
153,192,42493,1,2,0:0:0:0:
256,192,42660,1,8,0:0:0:0:
460,192,42660,128,0,42993:0:0:0:0:
256,192,42826,1,8,0:0:0:0:
153,192,42993,128,0,43326:0:0:0:0:
51,192,42993,1,8,0:0:0:0:
358,192,43326,128,0,43660:0:0:0:0:
256,192,43326,1,2,0:0:0:0:
460,192,43326,1,2,0:0:0:0:
51,192,43660,128,0,43993:0:0:0:0:
256,192,43660,1,8,0:0:0:0:
153,192,43826,1,2,0:0:0:0:
358,192,43826,1,2,0:0:0:0:
460,192,43993,128,0,44660:0:0:0:0:
256,192,43993,1,8,0:0:0:0:
358,192,44160,1,2,0:0:0:0:
51,192,44160,1,2,0:0:0:0:
153,192,44326,1,8,0:0:0:0:
256,192,44660,1,2,0:0:0:0:
358,192,44660,1,2,0:0:0:0:
51,192,44660,128,0,44993:0:0:0:0:
256,192,44993,128,0,45326:0:0:0:0:
153,192,44993,1,4,0:0:0:0:
358,192,45326,128,0,45660:0:0:0:0:
460,192,45326,1,4,1:0:0:0:
51,192,45326,1,8,0:0:0:0:
51,192,45493,1,8,0:0:0:0:
153,192,45660,128,0,45993:0:0:0:0:
256,192,45660,1,8,0:0:0:0:
358,192,45993,1,2,0:0:0:0:
460,192,45993,1,2,0:0:0:0:
51,192,45993,128,0,46326:0:0:0:0:
256,192,46326,128,0,46660:0:0:0:0:
153,192,46326,1,8,0:0:0:0:
51,192,46493,1,2,0:0:0:0:
460,192,46493,1,2,0:0:0:0:
358,192,46660,1,8,0:0:0:0:
153,192,46660,128,0,46993:0:0:0:0:
358,192,46826,1,8,0:0:0:0:
460,192,46993,128,0,47326:0:0:0:0:
256,192,46993,1,8,0:0:0:0:
358,192,47326,128,0,47660:0:0:0:0:
51,192,47326,1,2,0:0:0:0:
153,192,47326,1,2,0:0:0:0:
51,192,47660,128,0,47993:0:0:0:0:
256,192,47660,1,8,0:0:0:0:
153,192,47826,1,2,0:0:0:0:
358,192,47826,1,2,0:0:0:0:
256,192,47993,1,8,0:0:0:0:
460,192,47993,128,0,48326:0:0:0:0:
256,192,48160,1,8,0:0:0:0:
153,192,48326,128,0,48660:0:0:0:0:
51,192,48326,1,8,0:0:0:0:
256,192,48660,128,0,48993:0:0:0:0:
358,192,48660,1,2,0:0:0:0:
460,192,48660,1,2,0:0:0:0:
358,192,48993,128,0,49326:0:0:0:0:
153,192,48993,1,8,0:0:0:0:
256,192,49160,1,2,0:0:0:0:
51,192,49160,1,2,0:0:0:0:
460,192,49326,128,0,49993:0:0:0:0:
153,192,49326,1,8,0:0:0:0:
51,192,49493,1,2,0:0:0:0:
358,192,49493,1,2,0:0:0:0:
256,192,49660,1,8,0:0:0:0:
51,192,49993,128,0,50326:0:0:0:0:
153,192,49993,1,2,0:0:0:0:
358,192,49993,1,2,0:0:0:0:
256,192,50160,1,8,0:0:0:0:
153,192,50326,128,0,50660:0:0:0:0:
358,192,50326,1,8,0:0:0:0:
358,192,50493,1,8,0:0:0:0:
256,192,50660,1,4,1:0:0:0:
51,192,50660,1,8,0:0:0:0:
460,192,50660,128,0,50993:0:0:0:0:
51,192,50826,1,8,0:0:0:0:
358,192,50993,128,0,51326:0:0:0:0:
153,192,50993,1,8,0:0:0:0:
51,192,51326,128,0,51660:0:0:0:0:
256,192,51326,1,2,0:0:0:0:
460,192,51326,1,2,0:0:0:0:
256,192,51660,128,0,51993:0:0:0:0:
153,192,51660,1,8,0:0:0:0:
51,192,51826,1,2,0:0:0:0:
460,192,51826,1,2,0:0:0:0:
358,192,51993,1,8,0:0:0:0:
153,192,51993,128,0,52326:0:0:0:0:
358,192,52160,1,8,0:0:0:0:
460,192,52326,128,0,52660:0:0:0:0:
51,192,52326,1,8,0:0:0:0:
51,192,52660,128,0,52993:0:0:0:0:
153,192,52660,1,2,0:0:0:0:
358,192,52660,1,2,0:0:0:0:
256,192,52993,128,0,53326:0:0:0:0:
460,192,52993,1,8,0:0:0:0:
358,192,53160,1,2,0:0:0:0:
51,192,53160,1,2,0:0:0:0:
153,192,53326,1,8,0:0:0:0:
460,192,53326,128,0,53660:0:0:0:0:
153,192,53493,1,8,0:0:0:0:
51,192,53660,128,0,53993:0:0:0:0:
358,192,53660,1,8,0:0:0:0:
153,192,53993,128,0,54326:0:0:0:0:
256,192,53993,1,2,0:0:0:0:
460,192,53993,1,2,0:0:0:0:
358,192,54326,128,0,54660:0:0:0:0:
256,192,54326,1,8,0:0:0:0:
153,192,54493,1,2,0:0:0:0:
51,192,54493,1,2,0:0:0:0:
460,192,54660,128,0,55326:0:0:0:0:
256,192,54660,1,8,0:0:0:0:
51,192,54826,1,2,0:0:0:0:
358,192,54826,1,2,0:0:0:0:
153,192,54993,1,8,0:0:0:0:
256,192,55326,128,0,55660:0:0:0:0:
51,192,55326,1,2,0:0:0:0:
358,192,55326,1,2,0:0:0:0:
358,192,55660,128,0,55993:0:0:0:0:
153,192,55660,1,8,0:0:0:0:
256,192,55993,1,4,1:0:0:0:
460,192,55993,1,8,0:0:0:0:
51,192,55993,128,0,56326:0:0:0:0:
460,192,56160,1,8,0:0:0:0:
153,192,56326,128,0,56660:0:0:0:0:
358,192,56326,1,8,0:0:0:0:
256,192,56660,1,2,0:0:0:0:
51,192,56660,1,2,0:0:0:0:
460,192,56660,128,0,56993:0:0:0:0:
358,192,56993,128,0,57326:0:0:0:0:
51,192,56993,1,8,0:0:0:0:
153,192,57160,1,2,0:0:0:0:
460,192,57160,1,2,0:0:0:0:
256,192,57326,1,8,0:0:0:0:
51,192,57326,128,0,57660:0:0:0:0:
256,192,57493,1,8,0:0:0:0:
460,192,57660,128,0,57993:0:0:0:0:
153,192,57660,1,8,0:0:0:0:
358,192,57993,1,2,0:0:0:0:
51,192,57993,1,2,0:0:0:0:
153,192,57993,128,0,58326:0:0:0:0:
358,192,58326,128,0,58660:0:0:0:0:
256,192,58326,1,8,0:0:0:0:
153,192,58493,1,2,0:0:0:0:
51,192,58493,1,2,0:0:0:0:
256,192,58660,1,8,0:0:0:0:
460,192,58660,128,0,58993:0:0:0:0:
256,192,58826,1,8,0:0:0:0:
51,192,58993,128,0,59326:0:0:0:0:
153,192,58993,1,8,0:0:0:0:
256,192,59326,1,2,0:0:0:0:
460,192,59326,1,2,0:0:0:0:
358,192,59326,128,0,59660:0:0:0:0:
153,192,59660,128,0,59993:0:0:0:0:
51,192,59660,1,8,0:0:0:0:
256,192,59826,1,2,0:0:0:0:
358,192,59826,1,2,0:0:0:0:
460,192,59993,128,0,60160:0:0:0:0:
51,192,59993,1,8,0:0:0:0:
153,192,60160,1,2,0:0:0:0:
358,192,60160,1,2,0:0:0:0:
460,192,60326,128,0,60660:0:0:0:0:
256,192,60326,1,8,0:0:0:0:
256,192,60660,1,2,0:0:0:0:
51,192,60660,1,2,0:0:0:0:
153,192,60660,128,0,60993:0:0:0:0:
358,192,60826,1,8,0:0:0:0:
51,192,60993,128,0,61326:0:0:0:0:
460,192,60993,1,2,0:0:0:0:
256,192,60993,1,2,0:0:0:0:
358,192,61160,1,2,0:0:0:0:
153,192,61160,1,2,0:0:0:0:
256,192,61326,1,8,0:0:0:0:
358,192,61326,1,4,1:0:0:0:
460,192,61326,128,0,61993:0:0:0:0:
153,192,61493,1,0,0:0:0:0:
153,192,61660,1,8,0:0:0:0:
358,192,61993,1,2,0:0:0:0:
51,192,61993,1,2,0:0:0:0:
256,192,62326,1,8,0:0:0:0:
153,192,62493,1,2,0:0:0:0:
460,192,62493,1,2,0:0:0:0:
358,192,62660,1,8,0:0:0:0:
153,192,62993,1,8,0:0:0:0:
358,192,63326,1,2,0:0:0:0:
51,192,63326,1,2,0:0:0:0:
153,192,63660,1,8,0:0:0:0:
460,192,63993,1,8,0:0:0:0:
460,192,64160,1,8,0:0:0:0:
460,192,64326,1,8,0:0:0:0:
358,192,64660,1,2,0:0:0:0:
51,192,64660,1,2,0:0:0:0:
153,192,64993,1,8,0:0:0:0:
51,192,65160,1,2,0:0:0:0:
358,192,65160,1,2,0:0:0:0:
256,192,65326,1,8,0:0:0:0:
153,192,65493,1,2,0:0:0:0:
460,192,65493,1,2,0:0:0:0:
358,192,65660,1,8,0:0:0:0:
460,192,65993,1,2,0:0:0:0:
51,192,65993,1,2,0:0:0:0:
153,192,66326,1,8,0:0:0:0:
256,192,66660,1,4,1:0:0:0:
358,192,66660,1,8,0:0:0:0:
256,192,66826,1,8,0:0:0:0:
256,192,66993,1,8,0:0:0:0:
51,192,67326,1,2,0:0:0:0:
460,192,67326,1,2,0:0:0:0:
256,192,67660,1,8,0:0:0:0:
153,192,67826,1,2,0:0:0:0:
358,192,67826,1,2,0:0:0:0:
256,192,67993,1,8,0:0:0:0:
256,192,68326,1,8,0:0:0:0:
51,192,68660,1,2,0:0:0:0:
460,192,68660,1,2,0:0:0:0:
358,192,68993,1,8,0:0:0:0:
153,192,69326,1,8,0:0:0:0:
153,192,69493,1,8,0:0:0:0:
153,192,69660,1,8,0:0:0:0:
51,192,69993,1,2,0:0:0:0:
460,192,69993,1,2,0:0:0:0:
358,192,70326,1,8,0:0:0:0:
153,192,70493,1,2,0:0:0:0:
460,192,70493,1,2,0:0:0:0:
256,192,70660,1,8,0:0:0:0:
51,192,70826,1,2,0:0:0:0:
358,192,70826,1,2,0:0:0:0:
153,192,70993,1,8,0:0:0:0:
460,192,71326,1,2,0:0:0:0:
51,192,71326,1,2,0:0:0:0:
460,192,71493,1,2,0:0:0:0:
51,192,71493,1,2,0:0:0:0:
460,192,71660,1,2,0:0:0:0:
51,192,71660,1,2,0:0:0:0:
460,192,71826,1,2,0:0:0:0:
51,192,71826,1,2,0:0:0:0:
