osu file format v14

[General]
AudioFilename: w0w.mp3
AudioLeadIn: 0
PreviewTime: 39326
Countdown: 0
SampleSet: None
StackLeniency: 0.7
Mode: 3
LetterboxInBreaks: 0
SpecialStyle: 0
WidescreenStoryboard: 0

[Editor]
DistanceSpacing: 1
BeatDivisor: 4
GridSize: 8
TimelineZoom: 1.7

[Metadata]
Title:Reimu-instrumental-
TitleUnicode:麗夢-instrumental-
Artist:OhkaP
ArtistUnicode:桜華P
Creator:Rizqy
Version:Easy
Source:
Tags:no. 666 the voc@loid m@ster 23 2nd album ultimate alternative
BeatmapID:835285
BeatmapSetID:381888

[Difficulty]
HPDrainRate:6
CircleSize:5
OverallDifficulty:6
ApproachRate:10
SliderMultiplier:1.4
SliderTickRate:1

[Events]
//Background and Video events
0,0,"skrbg_n.jpg",0,0
//Break Periods
//Storyboard Layer 0 (Background)
//Storyboard Layer 1 (Fail)
//Storyboard Layer 2 (Pass)
//Storyboard Layer 3 (Foreground)
//Storyboard Sound Samples

[TimingPoints]
2660,666.666666666667,4,3,0,30,1,0

[HitObjects]
256,192,2326,5,4,0:0:0:0:
51,192,2660,1,8,0:0:0:0:
358,192,2993,1,8,0:0:0:0:
153,192,3326,1,2,0:0:0:0:
460,192,3326,1,2,0:0:0:0:
51,192,3660,1,8,0:0:0:0:
358,192,3993,1,8,0:0:0:0:
153,192,4326,1,8,0:0:0:0:
460,192,4660,1,2,0:0:0:0:
51,192,4660,1,2,0:0:0:0:
358,192,4993,1,8,0:0:0:0:
153,192,5326,1,8,0:0:0:0:
358,192,5660,1,8,0:0:0:0:
256,192,5993,1,2,0:0:0:0:
460,192,5993,1,2,0:0:0:0:
51,192,6326,1,8,0:0:0:0:
358,192,6660,1,8,0:0:0:0:
153,192,6993,1,8,0:0:0:0:
460,192,7326,1,2,0:0:0:0:
51,192,7326,1,2,0:0:0:0:
256,192,7660,1,8,0:0:0:0:
358,192,7993,1,8,0:0:0:0:
153,192,8326,1,8,0:0:0:0:
51,192,8660,1,2,0:0:0:0:
460,192,8660,1,2,0:0:0:0:
358,192,8993,1,8,0:0:0:0:
256,192,9326,1,8,0:0:0:0:
153,192,9660,1,8,0:0:0:0:
51,192,9993,1,2,0:0:0:0:
358,192,9993,1,2,0:0:0:0:
460,192,10326,1,8,0:0:0:0:
256,192,10660,1,8,0:0:0:0:
358,192,10993,1,8,0:0:0:0:
153,192,11326,1,2,0:0:0:0:
460,192,11326,1,2,0:0:0:0:
51,192,11660,1,8,0:0:0:0:
256,192,11993,1,8,0:0:0:0:
460,192,12326,1,8,0:0:0:0:
358,192,12660,1,2,0:0:0:0:
51,192,12660,1,2,0:0:0:0:
256,192,12993,1,2,0:0:0:0:
460,192,13326,1,4,1:0:0:0:
153,192,13326,128,8,14660:0:0:0:0:
256,192,14660,128,8,15326:0:0:0:0:
358,192,15326,128,2,15993:0:0:0:0:
460,192,15993,128,8,16493:0:0:0:0:
256,192,16493,128,0,16993:0:0:0:0:
153,192,16993,128,8,17326:0:0:0:0:
51,192,17326,128,8,17993:0:0:0:0:
256,192,17993,128,2,18326:0:0:0:0:
358,192,18326,128,8,18660:0:0:0:0:
460,192,18660,128,8,19326:0:0:0:0:
51,192,18660,1,4,1:0:0:0:
153,192,19326,128,2,19660:0:0:0:0:
256,192,19660,128,8,19993:0:0:0:0:
358,192,19993,128,8,20660:0:0:0:0:
51,192,20660,128,2,20993:0:0:0:0:
153,192,20993,128,8,21326:0:0:0:0:
358,192,21326,1,8,0:0:0:0:
358,192,21826,128,0,22326:0:0:0:0:
460,192,22326,1,8,0:0:0:0:
460,192,22660,128,8,23326:0:0:0:0:
256,192,23326,1,2,0:0:0:0:
51,192,23660,1,8,0:0:0:0:
153,192,23993,1,4,1:0:0:0:
358,192,23993,128,8,25326:0:0:0:0:
51,192,25326,128,8,25993:0:0:0:0:
256,192,25993,128,2,26660:0:0:0:0:
460,192,26660,128,8,27160:0:0:0:0:
153,192,27160,128,0,27660:0:0:0:0:
358,192,27660,128,8,27993:0:0:0:0:
51,192,27993,128,8,28660:0:0:0:0:
358,192,28660,128,2,28993:0:0:0:0:
256,192,28993,128,8,29326:0:0:0:0:
153,192,29326,128,8,29993:0:0:0:0:
460,192,29326,1,4,1:0:0:0:
358,192,29993,128,2,30660:0:0:0:0:
460,192,30660,128,8,30993:0:0:0:0:
256,192,30993,128,8,31160:0:0:0:0:
153,192,31160,128,0,31326:0:0:0:0:
51,192,31326,128,2,31660:0:0:0:0:
358,192,31660,128,8,31993:0:0:0:0:
256,192,31993,128,8,33993:0:0:0:0:
460,192,33993,1,2,0:0:0:0:
153,192,34326,1,8,0:0:0:0:
358,192,34660,1,8,0:0:0:0:
51,192,34993,1,8,0:0:0:0:
460,192,35326,1,2,0:0:0:0:
153,192,35326,1,2,0:0:0:0:
358,192,35660,1,8,0:0:0:0:
256,192,35993,1,8,0:0:0:0:
153,192,36326,1,8,0:0:0:0:
51,192,36660,1,2,0:0:0:0:
460,192,36660,1,2,0:0:0:0:
358,192,36993,1,8,0:0:0:0:
153,192,37326,1,8,0:0:0:0:
460,192,37660,1,8,0:0:0:0:
256,192,37993,1,2,0:0:0:0:
51,192,37993,1,2,0:0:0:0:
460,192,38326,1,8,0:0:0:0:
153,192,38660,1,8,0:0:0:0:
358,192,38993,1,8,0:0:0:0:
51,192,39326,1,8,0:0:0:0:
153,192,39493,1,2,0:0:0:0:
256,192,39660,1,2,0:0:0:0:
358,192,39826,1,2,0:0:0:0:
51,192,39993,1,8,0:0:0:0:
460,192,39993,128,4,40326:1:0:0:0:
256,192,40326,128,8,40660:0:0:0:0:
51,192,40660,128,2,40993:0:0:0:0:
460,192,40993,128,8,41326:0:0:0:0:
358,192,41326,128,8,41660:0:0:0:0:
153,192,41660,128,8,41993:0:0:0:0:
51,192,41993,128,2,42326:0:0:0:0:
256,192,42326,128,8,42660:0:0:0:0:
358,192,42660,128,8,42993:0:0:0:0:
153,192,42993,128,8,43326:0:0:0:0:
460,192,43326,128,2,43660:0:0:0:0:
51,192,43660,128,8,43993:0:0:0:0:
358,192,43993,128,8,44660:0:0:0:0:
51,192,44660,128,2,44993:0:0:0:0:
460,192,44993,128,8,45326:0:0:0:0:
256,192,45326,128,4,45660:1:0:0:0:
51,192,45326,1,8,0:0:0:0:
358,192,45660,128,8,45993:0:0:0:0:
153,192,45993,128,2,46326:0:0:0:0:
256,192,46326,128,8,46660:0:0:0:0:
460,192,46660,128,8,46993:0:0:0:0:
51,192,46993,128,8,47326:0:0:0:0:
358,192,47326,128,2,47660:0:0:0:0:
256,192,47660,128,8,47993:0:0:0:0:
51,192,47993,128,8,48326:0:0:0:0:
153,192,48326,128,8,48660:0:0:0:0:
256,192,48660,128,2,48993:0:0:0:0:
358,192,48993,128,8,49326:0:0:0:0:
460,192,49326,128,8,49993:0:0:0:0:
51,192,49993,128,2,50326:0:0:0:0:
358,192,50326,128,8,50660:0:0:0:0:
256,192,50660,128,4,50993:1:0:0:0:
51,192,50660,1,8,0:0:0:0:
153,192,50993,128,8,51326:0:0:0:0:
358,192,51326,128,2,51660:0:0:0:0:
51,192,51660,128,8,51993:0:0:0:0:
460,192,51993,128,8,52326:0:0:0:0:
256,192,52326,128,8,52660:0:0:0:0:
51,192,52660,128,2,52993:0:0:0:0:
358,192,52993,128,8,53326:0:0:0:0:
153,192,53326,128,8,53660:0:0:0:0:
256,192,53660,128,8,53993:0:0:0:0:
358,192,53993,128,2,54326:0:0:0:0:
51,192,54326,128,8,54660:0:0:0:0:
460,192,54660,128,8,55326:0:0:0:0:
153,192,55326,128,2,55660:0:0:0:0:
358,192,55660,128,8,55993:0:0:0:0:
460,192,55993,128,4,56326:1:0:0:0:
51,192,55993,1,8,0:0:0:0:
256,192,56326,128,8,56660:0:0:0:0:
51,192,56660,128,2,56993:0:0:0:0:
153,192,56993,128,8,57326:0:0:0:0:
358,192,57326,128,8,57660:0:0:0:0:
256,192,57660,128,8,57993:0:0:0:0:
153,192,57993,128,2,58326:0:0:0:0:
460,192,58326,128,8,58660:0:0:0:0:
51,192,58660,128,8,58993:0:0:0:0:
358,192,58993,128,8,59326:0:0:0:0:
153,192,59326,128,2,59660:0:0:0:0:
460,192,59660,128,8,59993:0:0:0:0:
256,192,59993,1,8,0:0:0:0:
256,192,60326,128,8,60660:0:0:0:0:
51,192,60660,128,2,60993:0:0:0:0:
460,192,60993,128,2,61326:0:0:0:0:
256,192,61326,128,8,61993:0:0:0:0:
51,192,61326,1,4,1:0:0:0:
460,192,61993,1,2,0:0:0:0:
51,192,61993,1,2,0:0:0:0:
256,192,62660,1,8,0:0:0:0:
358,192,63326,1,2,0:0:0:0:
153,192,63326,1,2,0:0:0:0:
256,192,63993,1,8,0:0:0:0:
51,192,64660,1,2,0:0:0:0:
460,192,64660,1,2,0:0:0:0:
358,192,64993,1,8,0:0:0:0:
256,192,65326,1,8,0:0:0:0:
153,192,65660,1,8,0:0:0:0:
51,192,65993,1,2,0:0:0:0:
460,192,65993,1,2,0:0:0:0:
358,192,66660,1,4,1:0:0:0:
153,192,66660,1,8,0:0:0:0:
51,192,67326,1,2,0:0:0:0:
460,192,67326,1,2,0:0:0:0:
256,192,67993,1,8,0:0:0:0:
153,192,68660,1,2,0:0:0:0:
358,192,68660,1,2,0:0:0:0:
256,192,69326,1,8,0:0:0:0:
460,192,69993,1,2,0:0:0:0:
51,192,69993,1,2,0:0:0:0:
153,192,70326,1,8,0:0:0:0:
256,192,70660,1,8,0:0:0:0:
358,192,70993,1,8,0:0:0:0:
460,192,71326,1,2,0:0:0:0:
51,192,71326,1,2,0:0:0:0:
153,192,71493,1,2,0:0:0:0:
358,192,71660,1,2,0:0:0:0:
256,192,71826,1,2,0:0:0:0:
