osu file format v9

[General]
AudioFilename: 01. Tomodachi Pink.mp3
AudioLeadIn: 2000
PreviewTime: 76973
Countdown: 0
SampleSet: Normal
StackLeniency: 0.7
Mode: 0
LetterboxInBreaks: 0

[Editor]
DistanceSpacing: 1.2
BeatDivisor: 4
GridSize: 4

[Metadata]
Title:Tomodachi Pink
Artist:Ogura Yui
Creator:cRyo[iceeicee]
Version:Hard
Source:RO-KYU-BU!
Tags:Sandpig xsrsbsns climbb65588 KanaRin Hakamada Hinata Character Song yukinohara

[Difficulty]
HPDrainRate:6
CircleSize:4
OverallDifficulty:6
ApproachRate:7
SliderMultiplier:1.3
SliderTickRate:2

[Events]
//Background and Video events
0,0,"BG.jpg"
//Break Periods
2,34727,36294
2,112061,113628
//Storyboard Layer 0 (Background)
Sprite,Background,Centre,"StoryBoard\White.png",320,240 F,0,0,1028,0,1 C,0,0,2528,255,255,255 F,0,1028,13194,1 C,0,2528,3861,255,255,255,255,240,240 C,0,13194,14528,255,240,240,255,198,209 F,0,13194,33861,1 F,0,33861,34528,1,0 F,0,34528,36861,0 C,0,34528,36861,210,170,200,213,226,252 F,0,36861,37528,0,1 F,0,111194,111861,1,0 C,0,111861,113861,213,226,252,211,248,223 F,0,113861,114528,0,1 F,0,178528,179861,1,0
Sprite,Background,Centre,"StoryBoard\Dot.png",523,237 F,0,2528,2861,0,0.7 S,1,2528,3194,0.196,0.246 C,0,2528,3194,214,255,200 F,0,2861,3194,0.7,0
Sprite,Background,Centre,"StoryBoard\Dot.png",95,281 F,0,2528,2861,0,0.5 S,1,2528,3194,0.139,0.189 C,0,2528,3194,255,200,215 F,0,2861,3194,0.5,0
Sprite,Background,Centre,"StoryBoard\Dot.png",15,116 F,0,2528,2861,0,0.6 S,1,2528,3194,0.132,0.182 C,0,2528,3194,255,200,235 F,0,2861,3194,0.6,0
Sprite,Background,Centre,"StoryBoard\Dot.png",538,261 F,0,2528,2861,0,0.5 S,1,2528,3194,0.21,0.26 C,0,2528,3194,214,255,200 F,0,2861,3194,0.5,0
Sprite,Background,Centre,"StoryBoard\Dot.png",309,338 F,0,2528,2861,0,0.7 S,1,2528,3194,0.179,0.229 C,0,2528,3194,255,200,235 F,0,2861,3194,0.7,0
Sprite,Background,Centre,"StoryBoard\Dot.png",76,336 F,0,2861,3194,0,0.7 S,1,2861,3527,0.143,0.193 C,0,2861,3527,214,255,200 F,0,3194,3527,0.7,0
Sprite,Background,Centre,"StoryBoard\Dot.png",318,168 F,0,2861,3194,0,0.8 S,1,2861,3527,0.266,0.316 C,0,2861,3527,200,232,255 F,0,3194,3527,0.8,0
Sprite,Background,Centre,"StoryBoard\Dot.png",338,172 F,0,2861,3194,0,0.8 S,1,2861,3527,0.161,0.211 C,0,2861,3527,240,255,200 F,0,3194,3527,0.8,0
Sprite,Background,Centre,"StoryBoard\Dot.png",316,115 F,0,2861,3194,0,0.7 S,1,2861,3527,0.126,0.176 C,0,2861,3527,200,232,255 F,0,3194,3527,0.7,0
Sprite,Background,Centre,"StoryBoard\Dot.png",440,180 F,0,2861,3194,0,0.8 S,1,2861,3527,0.141,0.191 C,0,2861,3527,255,236,200 F,0,3194,3527,0.8,0
Sprite,Background,Centre,"StoryBoard\Dot.png",532,92 F,0,2861,3194,0,0.5 S,1,2861,3527,0.259,0.309 C,0,2861,3527,255,200,215 F,0,3194,3527,0.5,0
Sprite,Background,Centre,"StoryBoard\Dot.png",559,183 F,0,2861,3194,0,0.6 S,1,2861,3527,0.237,0.287 C,0,2861,3527,255,236,200 F,0,3194,3527,0.6,0
Sprite,Background,Centre,"StoryBoard\Dot.png",394,395 F,0,2861,3194,0,0.6 S,1,2861,3527,0.17,0.22 C,0,2861,3527,255,200,235 F,0,3194,3527,0.6,0
Sprite,Background,Centre,"StoryBoard\Dot.png",446,219 F,0,3194,3527,0,0.5 S,1,3194,3860,0.211,0.261 C,0,3194,3860,239,200,255 F,0,3527,3860,0.5,0
Sprite,Background,Centre,"StoryBoard\Dot.png",49,354 F,0,3194,3527,0,0.8 S,1,3194,3860,0.256,0.306 C,0,3194,3860,203,200,255 F,0,3527,3860,0.8,0
Sprite,Background,Centre,"StoryBoard\Dot.png",422,153 F,0,3194,3527,0,0.7 S,1,3194,3860,0.131,0.181 C,0,3194,3860,240,255,200 F,0,3527,3860,0.7,0
Sprite,Background,Centre,"StoryBoard\Dot.png",353,257 F,0,3194,3527,0,0.6 S,1,3194,3860,0.23,0.28 C,0,3194,3860,203,200,255 F,0,3527,3860,0.6,0
Sprite,Background,Centre,"StoryBoard\Dot.png",490,306 F,0,3194,3527,0,0.7 S,1,3194,3860,0.134,0.184 C,0,3194,3860,203,200,255 F,0,3527,3860,0.7,0
Sprite,Background,Centre,"StoryBoard\Dot.png",29,368 F,0,3194,3527,0,0.7 S,1,3194,3860,0.18,0.23 C,0,3194,3860,239,200,255 F,0,3527,3860,0.7,0
Sprite,Background,Centre,"StoryBoard\Dot.png",274,278 F,0,3194,3527,0,0.8 S,1,3194,3860,0.128,0.178 C,0,3194,3860,239,200,255 F,0,3527,3860,0.8,0
Sprite,Background,Centre,"StoryBoard\Dot.png",552,336 F,0,3527,3860,0,0.7 S,1,3527,4193,0.29,0.34 C,0,3527,4193,239,200,255 F,0,3860,4193,0.7,0
Sprite,Background,Centre,"StoryBoard\Dot.png",495,386 F,0,3527,3860,0,0.8 S,1,3527,4193,0.257,0.307 C,0,3527,4193,200,232,255 F,0,3860,4193,0.8,0
Sprite,Background,Centre,"StoryBoard\Dot.png",362,249 F,0,3527,3860,0,0.5 S,1,3527,4193,0.188,0.238 C,0,3527,4193,200,255,228 F,0,3860,4193,0.5,0
Sprite,Background,Centre,"StoryBoard\Dot.png",618,247 F,0,3527,3860,0,0.7 S,1,3527,4193,0.242,0.292 C,0,3527,4193,255,200,215 F,0,3860,4193,0.7,0
Sprite,Background,Centre,"StoryBoard\Dot.png",56,292 F,0,3527,3860,0,0.5 S,1,3527,4193,0.205,0.255 C,0,3527,4193,200,255,228 F,0,3860,4193,0.5,0
Sprite,Background,Centre,"StoryBoard\Dot.png",24,64 F,0,3527,3860,0,0.5 S,1,3527,4193,0.159,0.209 C,0,3527,4193,214,255,200 F,0,3860,4193,0.5,0
Sprite,Background,Centre,"StoryBoard\Dot.png",40,184 F,0,3860,4193,0,0.5 S,1,3860,4526,0.245,0.295 C,0,3860,4526,239,200,255 F,0,4193,4526,0.5,0
Sprite,Background,Centre,"StoryBoard\Dot.png",604,212 F,0,3860,4193,0,0.6 S,1,3860,4526,0.248,0.298 C,0,3860,4526,255,236,200 F,0,4193,4526,0.6,0
Sprite,Background,Centre,"StoryBoard\Dot.png",395,81 F,0,3860,4193,0,0.8 S,1,3860,4526,0.134,0.184 C,0,3860,4526,239,200,255 F,0,4193,4526,0.8,0
Sprite,Background,Centre,"StoryBoard\Dot.png",458,388 F,0,3860,4193,0,0.8 S,1,3860,4526,0.16,0.21 C,0,3860,4526,214,255,200 F,0,4193,4526,0.8,0
Sprite,Background,Centre,"StoryBoard\Dot.png",251,76 F,0,3860,4193,0,0.6 S,1,3860,4526,0.236,0.286 C,0,3860,4526,240,255,200 F,0,4193,4526,0.6,0
Sprite,Background,Centre,"StoryBoard\Dot.png",339,282 F,0,4193,4526,0,0.5 S,1,4193,4859,0.159,0.209 C,0,4193,4859,203,200,255 F,0,4526,4859,0.5,0
Sprite,Background,Centre,"StoryBoard\Dot.png",412,167 F,0,4193,4526,0,0.6 S,1,4193,4859,0.212,0.262 C,0,4193,4859,239,200,255 F,0,4526,4859,0.6,0
Sprite,Background,Centre,"StoryBoard\Dot.png",369,221 F,0,4193,4526,0,0.7 S,1,4193,4859,0.225,0.275 C,0,4193,4859,255,200,235 F,0,4526,4859,0.7,0
Sprite,Background,Centre,"StoryBoard\Dot.png",627,245 F,0,4193,4526,0,0.6 S,1,4193,4859,0.148,0.198 C,0,4193,4859,214,255,200 F,0,4526,4859,0.6,0
Sprite,Background,Centre,"StoryBoard\Dot.png",296,365 F,0,4193,4526,0,0.8 S,1,4193,4859,0.221,0.271 C,0,4193,4859,200,232,255 F,0,4526,4859,0.8,0
Sprite,Background,Centre,"StoryBoard\Dot.png",39,221 F,0,4193,4526,0,0.6 S,1,4193,4859,0.298,0.348 C,0,4193,4859,255,200,215 F,0,4526,4859,0.6,0
Sprite,Background,Centre,"StoryBoard\Dot.png",390,195 F,0,4526,4859,0,0.7 S,1,4526,5192,0.157,0.207 C,0,4526,5192,255,200,215 F,0,4859,5192,0.7,0
Sprite,Background,Centre,"StoryBoard\Dot.png",571,231 F,0,4526,4859,0,0.5 S,1,4526,5192,0.132,0.182 C,0,4526,5192,240,255,200 F,0,4859,5192,0.5,0
Sprite,Background,Centre,"StoryBoard\Dot.png",336,381 F,0,4526,4859,0,0.6 S,1,4526,5192,0.248,0.298 C,0,4526,5192,255,200,215 F,0,4859,5192,0.6,0
Sprite,Background,Centre,"StoryBoard\Dot.png",397,314 F,0,4526,4859,0,0.7 S,1,4526,5192,0.116,0.166 C,0,4526,5192,255,200,215 F,0,4859,5192,0.7,0
Sprite,Background,Centre,"StoryBoard\Dot.png",598,318 F,0,4526,4859,0,0.8 S,1,4526,5192,0.17,0.22 C,0,4526,5192,255,200,235 F,0,4859,5192,0.8,0
Sprite,Background,Centre,"StoryBoard\Dot.png",177,124 F,0,4526,4859,0,0.7 S,1,4526,5192,0.118,0.168 C,0,4526,5192,255,236,200 F,0,4859,5192,0.7,0
Sprite,Background,Centre,"StoryBoard\Dot.png",102,307 F,0,4859,5192,0,0.8 S,1,4859,5525,0.136,0.186 C,0,4859,5525,255,216,200 F,0,5192,5525,0.8,0
Sprite,Background,Centre,"StoryBoard\Dot.png",477,96 F,0,4859,5192,0,0.5 S,1,4859,5525,0.108,0.158 C,0,4859,5525,255,200,235 F,0,5192,5525,0.5,0
Sprite,Background,Centre,"StoryBoard\Dot.png",291,303 F,0,4859,5192,0,0.5 S,1,4859,5525,0.107,0.157 C,0,4859,5525,255,236,200 F,0,5192,5525,0.5,0
Sprite,Background,Centre,"StoryBoard\Dot.png",318,129 F,0,4859,5192,0,0.5 S,1,4859,5525,0.128,0.178 C,0,4859,5525,240,255,200 F,0,5192,5525,0.5,0
Sprite,Background,Centre,"StoryBoard\Dot.png",89,419 F,0,4859,5192,0,0.5 S,1,4859,5525,0.133,0.183 C,0,4859,5525,255,200,215 F,0,5192,5525,0.5,0
Sprite,Background,Centre,"StoryBoard\Dot.png",133,395 F,0,4859,5192,0,0.8 S,1,4859,5525,0.205,0.255 C,0,4859,5525,255,200,235 F,0,5192,5525,0.8,0
Sprite,Background,Centre,"StoryBoard\Dot.png",236,89 F,0,4859,5192,0,0.6 S,1,4859,5525,0.148,0.198 C,0,4859,5525,200,232,255 F,0,5192,5525,0.6,0
Sprite,Background,Centre,"StoryBoard\Dot.png",593,141 F,0,4859,5192,0,0.6 S,1,4859,5525,0.133,0.183 C,0,4859,5525,255,200,235 F,0,5192,5525,0.6,0
Sprite,Background,Centre,"StoryBoard\Dot.png",150,137 F,0,4859,5192,0,0.5 S,1,4859,5525,0.191,0.241 C,0,4859,5525,255,200,235 F,0,5192,5525,0.5,0
Sprite,Background,Centre,"StoryBoard\Dot.png",620,392 F,0,4859,5192,0,0.8 S,1,4859,5525,0.199,0.249 C,0,4859,5525,239,200,255 F,0,5192,5525,0.8,0
Sprite,Background,Centre,"StoryBoard\Dot.png",244,305 F,0,5192,5525,0,0.8 S,1,5192,5858,0.281,0.331 C,0,5192,5858,240,255,200 F,0,5525,5858,0.8,0
Sprite,Background,Centre,"StoryBoard\Dot.png",207,367 F,0,5192,5525,0,0.6 S,1,5192,5858,0.106,0.156 C,0,5192,5858,200,232,255 F,0,5525,5858,0.6,0
Sprite,Background,Centre,"StoryBoard\Dot.png",160,178 F,0,5192,5525,0,0.6 S,1,5192,5858,0.195,0.245 C,0,5192,5858,203,200,255 F,0,5525,5858,0.6,0
Sprite,Background,Centre,"StoryBoard\Dot.png",487,168 F,0,5192,5525,0,0.5 S,1,5192,5858,0.261,0.311 C,0,5192,5858,200,255,228 F,0,5525,5858,0.5,0
Sprite,Background,Centre,"StoryBoard\Dot.png",393,167 F,0,5192,5525,0,0.8 S,1,5192,5858,0.158,0.208 C,0,5192,5858,239,200,255 F,0,5525,5858,0.8,0
Sprite,Background,Centre,"StoryBoard\Dot.png",23,217 F,0,5192,5525,0,0.6 S,1,5192,5858,0.285,0.335 C,0,5192,5858,214,255,200 F,0,5525,5858,0.6,0
Sprite,Background,Centre,"StoryBoard\Dot.png",442,302 F,0,5525,5858,0,0.8 S,1,5525,6191,0.159,0.209 C,0,5525,6191,240,255,200 F,0,5858,6191,0.8,0
Sprite,Background,Centre,"StoryBoard\Dot.png",171,112 F,0,5525,5858,0,0.7 S,1,5525,6191,0.107,0.157 C,0,5525,6191,214,255,200 F,0,5858,6191,0.7,0
Sprite,Background,Centre,"StoryBoard\Dot.png",621,148 F,0,5525,5858,0,0.8 S,1,5525,6191,0.124,0.174 C,0,5525,6191,255,200,235 F,0,5858,6191,0.8,0
Sprite,Background,Centre,"StoryBoard\Dot.png",384,315 F,0,5525,5858,0,0.6 S,1,5525,6191,0.234,0.284 C,0,5525,6191,255,216,200 F,0,5858,6191,0.6,0
Sprite,Background,Centre,"StoryBoard\Dot.png",27,222 F,0,5525,5858,0,0.6 S,1,5525,6191,0.194,0.244 C,0,5525,6191,240,255,200 F,0,5858,6191,0.6,0
Sprite,Background,Centre,"StoryBoard\Dot.png",167,335 F,0,5525,5858,0,0.7 S,1,5525,6191,0.116,0.166 C,0,5525,6191,255,200,235 F,0,5858,6191,0.7,0
Sprite,Background,Centre,"StoryBoard\Dot.png",268,200 F,0,5525,5858,0,0.5 S,1,5525,6191,0.3,0.35 C,0,5525,6191,214,255,200 F,0,5858,6191,0.5,0
Sprite,Background,Centre,"StoryBoard\Dot.png",336,127 F,0,5858,6191,0,0.8 S,1,5858,6524,0.203,0.253 C,0,5858,6524,200,255,228 F,0,6191,6524,0.8,0
Sprite,Background,Centre,"StoryBoard\Dot.png",370,291 F,0,5858,6191,0,0.8 S,1,5858,6524,0.106,0.156 C,0,5858,6524,200,232,255 F,0,6191,6524,0.8,0
Sprite,Background,Centre,"StoryBoard\Dot.png",599,355 F,0,5858,6191,0,0.8 S,1,5858,6524,0.229,0.279 C,0,5858,6524,255,200,235 F,0,6191,6524,0.8,0
Sprite,Background,Centre,"StoryBoard\Dot.png",330,272 F,0,5858,6191,0,0.8 S,1,5858,6524,0.165,0.215 C,0,5858,6524,200,255,228 F,0,6191,6524,0.8,0
Sprite,Background,Centre,"StoryBoard\Dot.png",261,88 F,0,5858,6191,0,0.6 S,1,5858,6524,0.205,0.255 C,0,5858,6524,255,236,200 F,0,6191,6524,0.6,0
Sprite,Background,Centre,"StoryBoard\Dot.png",497,396 F,0,5858,6191,0,0.5 S,1,5858,6524,0.115,0.165 C,0,5858,6524,203,200,255 F,0,6191,6524,0.5,0
Sprite,Background,Centre,"StoryBoard\Dot.png",188,198 F,0,6191,6524,0,0.6 S,1,6191,6857,0.237,0.287 C,0,6191,6857,240,255,200 F,0,6524,6857,0.6,0
Sprite,Background,Centre,"StoryBoard\Dot.png",138,253 F,0,6191,6524,0,0.8 S,1,6191,6857,0.161,0.211 C,0,6191,6857,240,255,200 F,0,6524,6857,0.8,0
Sprite,Background,Centre,"StoryBoard\Dot.png",455,354 F,0,6191,6524,0,0.6 S,1,6191,6857,0.148,0.198 C,0,6191,6857,214,255,200 F,0,6524,6857,0.6,0
Sprite,Background,Centre,"StoryBoard\Dot.png",533,120 F,0,6191,6524,0,0.7 S,1,6191,6857,0.131,0.181 C,0,6191,6857,239,200,255 F,0,6524,6857,0.7,0
Sprite,Background,Centre,"StoryBoard\Dot.png",262,385 F,0,6191,6524,0,0.5 S,1,6191,6857,0.111,0.161 C,0,6191,6857,239,200,255 F,0,6524,6857,0.5,0
Sprite,Background,Centre,"StoryBoard\Dot.png",538,184 F,0,6191,6524,0,0.8 S,1,6191,6857,0.163,0.213 C,0,6191,6857,200,255,228 F,0,6524,6857,0.8,0
Sprite,Background,Centre,"StoryBoard\Dot.png",105,94 F,0,6524,6857,0,0.8 S,1,6524,7190,0.222,0.272 C,0,6524,7190,255,236,200 F,0,6857,7190,0.8,0
Sprite,Background,Centre,"StoryBoard\Dot.png",154,377 F,0,6524,6857,0,0.7 S,1,6524,7190,0.229,0.279 C,0,6524,7190,203,200,255 F,0,6857,7190,0.7,0
Sprite,Background,Centre,"StoryBoard\Dot.png",444,287 F,0,6524,6857,0,0.6 S,1,6524,7190,0.283,0.333 C,0,6524,7190,239,200,255 F,0,6857,7190,0.6,0
Sprite,Background,Centre,"StoryBoard\Dot.png",247,366 F,0,6524,6857,0,0.6 S,1,6524,7190,0.196,0.246 C,0,6524,7190,255,236,200 F,0,6857,7190,0.6,0
Sprite,Background,Centre,"StoryBoard\Dot.png",561,101 F,0,6524,6857,0,0.7 S,1,6524,7190,0.205,0.255 C,0,6524,7190,255,236,200 F,0,6857,7190,0.7,0
Sprite,Background,Centre,"StoryBoard\Dot.png",427,333 F,0,6524,6857,0,0.6 S,1,6524,7190,0.258,0.308 C,0,6524,7190,214,255,200 F,0,6857,7190,0.6,0
Sprite,Background,Centre,"StoryBoard\Dot.png",431,297 F,0,6524,6857,0,0.6 S,1,6524,7190,0.131,0.181 C,0,6524,7190,200,232,255 F,0,6857,7190,0.6,0
Sprite,Background,Centre,"StoryBoard\Dot.png",335,415 F,0,6857,7190,0,0.6 S,1,6857,7523,0.278,0.328 C,0,6857,7523,239,200,255 F,0,7190,7523,0.6,0
Sprite,Background,Centre,"StoryBoard\Dot.png",192,120 F,0,6857,7190,0,0.8 S,1,6857,7523,0.171,0.221 C,0,6857,7523,214,255,200 F,0,7190,7523,0.8,0
Sprite,Background,Centre,"StoryBoard\Dot.png",354,223 F,0,6857,7190,0,0.6 S,1,6857,7523,0.266,0.316 C,0,6857,7523,239,200,255 F,0,7190,7523,0.6,0
Sprite,Background,Centre,"StoryBoard\Dot.png",388,282 F,0,6857,7190,0,0.8 S,1,6857,7523,0.258,0.308 C,0,6857,7523,255,236,200 F,0,7190,7523,0.8,0
Sprite,Background,Centre,"StoryBoard\Dot.png",514,277 F,0,6857,7190,0,0.6 S,1,6857,7523,0.102,0.152 C,0,6857,7523,239,200,255 F,0,7190,7523,0.6,0
Sprite,Background,Centre,"StoryBoard\Dot.png",76,380 F,0,7190,7523,0,0.5 S,1,7190,7856,0.277,0.327 C,0,7190,7856,203,200,255 F,0,7523,7856,0.5,0
Sprite,Background,Centre,"StoryBoard\Dot.png",10,139 F,0,7190,7523,0,0.7 S,1,7190,7856,0.172,0.222 C,0,7190,7856,214,255,200 F,0,7523,7856,0.7,0
Sprite,Background,Centre,"StoryBoard\Dot.png",249,185 F,0,7190,7523,0,0.7 S,1,7190,7856,0.175,0.225 C,0,7190,7856,214,255,200 F,0,7523,7856,0.7,0
Sprite,Background,Centre,"StoryBoard\Dot.png",51,384 F,0,7190,7523,0,0.5 S,1,7190,7856,0.103,0.153 C,0,7190,7856,214,255,200 F,0,7523,7856,0.5,0
Sprite,Background,Centre,"StoryBoard\Dot.png",43,138 F,0,7190,7523,0,0.5 S,1,7190,7856,0.258,0.308 C,0,7190,7856,203,200,255 F,0,7523,7856,0.5,0
Sprite,Background,Centre,"StoryBoard\Dot.png",391,148 F,0,7190,7523,0,0.8 S,1,7190,7856,0.237,0.287 C,0,7190,7856,255,216,200 F,0,7523,7856,0.8,0
Sprite,Background,Centre,"StoryBoard\Dot.png",363,119 F,0,7190,7523,0,0.6 S,1,7190,7856,0.265,0.315 C,0,7190,7856,255,216,200 F,0,7523,7856,0.6,0
Sprite,Background,Centre,"StoryBoard\Dot.png",381,341 F,0,7190,7523,0,0.7 S,1,7190,7856,0.109,0.159 C,0,7190,7856,255,200,215 F,0,7523,7856,0.7,0
Sprite,Background,Centre,"StoryBoard\Dot.png",72,159 F,0,7190,7523,0,0.8 S,1,7190,7856,0.241,0.291 C,0,7190,7856,214,255,200 F,0,7523,7856,0.8,0
Sprite,Background,Centre,"StoryBoard\Dot.png",99,140 F,0,7190,7523,0,0.5 S,1,7190,7856,0.234,0.284 C,0,7190,7856,200,255,228 F,0,7523,7856,0.5,0
Sprite,Background,Centre,"StoryBoard\Dot.png",165,155 F,0,7523,7856,0,0.7 S,1,7523,8189,0.123,0.173 C,0,7523,8189,214,255,200 F,0,7856,8189,0.7,0
Sprite,Background,Centre,"StoryBoard\Dot.png",621,314 F,0,7523,7856,0,0.6 S,1,7523,8189,0.255,0.305 C,0,7523,8189,255,200,235 F,0,7856,8189,0.6,0
Sprite,Background,Centre,"StoryBoard\Dot.png",192,323 F,0,7523,7856,0,0.6 S,1,7523,8189,0.279,0.329 C,0,7523,8189,240,255,200 F,0,7856,8189,0.6,0
Sprite,Background,Centre,"StoryBoard\Dot.png",12,249 F,0,7523,7856,0,0.6 S,1,7523,8189,0.265,0.315 C,0,7523,8189,214,255,200 F,0,7856,8189,0.6,0
Sprite,Background,Centre,"StoryBoard\Dot.png",465,332 F,0,7523,7856,0,0.6 S,1,7523,8189,0.155,0.205 C,0,7523,8189,200,232,255 F,0,7856,8189,0.6,0
Sprite,Background,Centre,"StoryBoard\Dot.png",252,205 F,0,7523,7856,0,0.7 S,1,7523,8189,0.138,0.188 C,0,7523,8189,255,200,215 F,0,7856,8189,0.7,0
Sprite,Background,Centre,"StoryBoard\Dot.png",166,122 F,0,7523,7856,0,0.7 S,1,7523,8189,0.222,0.272 C,0,7523,8189,255,200,215 F,0,7856,8189,0.7,0
Sprite,Background,Centre,"StoryBoard\Dot.png",99,151 F,0,7523,7856,0,0.6 S,1,7523,8189,0.268,0.318 C,0,7523,8189,239,200,255 F,0,7856,8189,0.6,0
Sprite,Background,Centre,"StoryBoard\Dot.png",114,221 F,0,7523,7856,0,0.6 S,1,7523,8189,0.118,0.168 C,0,7523,8189,255,200,235 F,0,7856,8189,0.6,0
Sprite,Background,Centre,"StoryBoard\Dot.png",424,323 F,0,7856,8189,0,0.8 S,1,7856,8522,0.281,0.331 C,0,7856,8522,255,216,200 F,0,8189,8522,0.8,0
Sprite,Background,Centre,"StoryBoard\Dot.png",99,199 F,0,7856,8189,0,0.5 S,1,7856,8522,0.261,0.311 C,0,7856,8522,200,232,255 F,0,8189,8522,0.5,0
Sprite,Background,Centre,"StoryBoard\Dot.png",346,103 F,0,7856,8189,0,0.7 S,1,7856,8522,0.174,0.224 C,0,7856,8522,255,216,200 F,0,8189,8522,0.7,0
Sprite,Background,Centre,"StoryBoard\Dot.png",82,235 F,0,7856,8189,0,0.7 S,1,7856,8522,0.148,0.198 C,0,7856,8522,255,200,215 F,0,8189,8522,0.7,0
Sprite,Background,Centre,"StoryBoard\Dot.png",377,326 F,0,7856,8189,0,0.6 S,1,7856,8522,0.216,0.266 C,0,7856,8522,203,200,255 F,0,8189,8522,0.6,0
Sprite,Background,Centre,"StoryBoard\Dot.png",238,199 F,0,7856,8189,0,0.6 S,1,7856,8522,0.266,0.316 C,0,7856,8522,200,255,228 F,0,8189,8522,0.6,0
Sprite,Background,Centre,"StoryBoard\Dot.png",214,274 F,0,7856,8189,0,0.5 S,1,7856,8522,0.204,0.254 C,0,7856,8522,200,232,255 F,0,8189,8522,0.5,0
Sprite,Background,Centre,"StoryBoard\Dot.png",355,70 F,0,7856,8189,0,0.6 S,1,7856,8522,0.141,0.191 C,0,7856,8522,239,200,255 F,0,8189,8522,0.6,0
Sprite,Background,Centre,"StoryBoard\Dot.png",157,384 F,0,8189,8522,0,0.6 S,1,8189,8855,0.297,0.347 C,0,8189,8855,240,255,200 F,0,8522,8855,0.6,0
Sprite,Background,Centre,"StoryBoard\Dot.png",440,256 F,0,8189,8522,0,0.5 S,1,8189,8855,0.159,0.209 C,0,8189,8855,240,255,200 F,0,8522,8855,0.5,0
Sprite,Background,Centre,"StoryBoard\Dot.png",601,355 F,0,8189,8522,0,0.8 S,1,8189,8855,0.246,0.296 C,0,8189,8855,255,216,200 F,0,8522,8855,0.8,0
Sprite,Background,Centre,"StoryBoard\Dot.png",117,391 F,0,8189,8522,0,0.8 S,1,8189,8855,0.183,0.233 C,0,8189,8855,255,200,215 F,0,8522,8855,0.8,0
Sprite,Background,Centre,"StoryBoard\Dot.png",434,290 F,0,8189,8522,0,0.6 S,1,8189,8855,0.198,0.248 C,0,8189,8855,255,236,200 F,0,8522,8855,0.6,0
Sprite,Background,Centre,"StoryBoard\Dot.png",285,321 F,0,8189,8522,0,0.5 S,1,8189,8855,0.138,0.188 C,0,8189,8855,240,255,200 F,0,8522,8855,0.5,0
Sprite,Background,Centre,"StoryBoard\Dot.png",204,91 F,0,8189,8522,0,0.6 S,1,8189,8855,0.161,0.211 C,0,8189,8855,255,200,235 F,0,8522,8855,0.6,0
Sprite,Background,Centre,"StoryBoard\Dot.png",160,373 F,0,8522,8855,0,0.8 S,1,8522,9188,0.116,0.166 C,0,8522,9188,255,216,200 F,0,8855,9188,0.8,0
Sprite,Background,Centre,"StoryBoard\Dot.png",85,341 F,0,8522,8855,0,0.6 S,1,8522,9188,0.298,0.348 C,0,8522,9188,255,236,200 F,0,8855,9188,0.6,0
Sprite,Background,Centre,"StoryBoard\Dot.png",110,61 F,0,8522,8855,0,0.6 S,1,8522,9188,0.214,0.264 C,0,8522,9188,255,236,200 F,0,8855,9188,0.6,0
Sprite,Background,Centre,"StoryBoard\Dot.png",478,192 F,0,8522,8855,0,0.6 S,1,8522,9188,0.171,0.221 C,0,8522,9188,214,255,200 F,0,8855,9188,0.6,0
Sprite,Background,Centre,"StoryBoard\Dot.png",48,282 F,0,8522,8855,0,0.5 S,1,8522,9188,0.115,0.165 C,0,8522,9188,240,255,200 F,0,8855,9188,0.5,0
Sprite,Background,Centre,"StoryBoard\Dot.png",85,286 F,0,8522,8855,0,0.6 S,1,8522,9188,0.237,0.287 C,0,8522,9188,200,232,255 F,0,8855,9188,0.6,0
Sprite,Background,Centre,"StoryBoard\Dot.png",229,380 F,0,8522,8855,0,0.6 S,1,8522,9188,0.197,0.247 C,0,8522,9188,200,255,228 F,0,8855,9188,0.6,0
Sprite,Background,Centre,"StoryBoard\Dot.png",195,373 F,0,8522,8855,0,0.5 S,1,8522,9188,0.179,0.229 C,0,8522,9188,240,255,200 F,0,8855,9188,0.5,0
Sprite,Background,Centre,"StoryBoard\Dot.png",593,416 F,0,8855,9188,0,0.5 S,1,8855,9521,0.247,0.297 C,0,8855,9521,255,216,200 F,0,9188,9521,0.5,0
Sprite,Background,Centre,"StoryBoard\Dot.png",297,410 F,0,8855,9188,0,0.5 S,1,8855,9521,0.13,0.18 C,0,8855,9521,255,236,200 F,0,9188,9521,0.5,0
Sprite,Background,Centre,"StoryBoard\Dot.png",67,341 F,0,8855,9188,0,0.7 S,1,8855,9521,0.234,0.284 C,0,8855,9521,200,255,228 F,0,9188,9521,0.7,0
Sprite,Background,Centre,"StoryBoard\Dot.png",59,281 F,0,8855,9188,0,0.6 S,1,8855,9521,0.147,0.197 C,0,8855,9521,255,200,235 F,0,9188,9521,0.6,0
Sprite,Background,Centre,"StoryBoard\Dot.png",13,269 F,0,8855,9188,0,0.5 S,1,8855,9521,0.258,0.308 C,0,8855,9521,255,216,200 F,0,9188,9521,0.5,0
Sprite,Background,Centre,"StoryBoard\Dot.png",503,302 F,0,9188,9521,0,0.7 S,1,9188,9854,0.283,0.333 C,0,9188,9854,255,200,215 F,0,9521,9854,0.7,0
Sprite,Background,Centre,"StoryBoard\Dot.png",554,311 F,0,9188,9521,0,0.8 S,1,9188,9854,0.192,0.242 C,0,9188,9854,240,255,200 F,0,9521,9854,0.8,0
Sprite,Background,Centre,"StoryBoard\Dot.png",599,201 F,0,9188,9521,0,0.7 S,1,9188,9854,0.125,0.175 C,0,9188,9854,255,200,235 F,0,9521,9854,0.7,0
Sprite,Background,Centre,"StoryBoard\Dot.png",528,125 F,0,9188,9521,0,0.6 S,1,9188,9854,0.189,0.239 C,0,9188,9854,214,255,200 F,0,9521,9854,0.6,0
Sprite,Background,Centre,"StoryBoard\Dot.png",577,105 F,0,9188,9521,0,0.5 S,1,9188,9854,0.106,0.156 C,0,9188,9854,214,255,200 F,0,9521,9854,0.5,0
Sprite,Background,Centre,"StoryBoard\Dot.png",337,211 F,0,9188,9521,0,0.6 S,1,9188,9854,0.176,0.226 C,0,9188,9854,255,216,200 F,0,9521,9854,0.6,0
Sprite,Background,Centre,"StoryBoard\Dot.png",610,388 F,0,9188,9521,0,0.5 S,1,9188,9854,0.274,0.324 C,0,9188,9854,239,200,255 F,0,9521,9854,0.5,0
Sprite,Background,Centre,"StoryBoard\Dot.png",467,165 F,0,9188,9521,0,0.6 S,1,9188,9854,0.12,0.17 C,0,9188,9854,255,236,200 F,0,9521,9854,0.6,0
Sprite,Background,Centre,"StoryBoard\Dot.png",478,262 F,0,9521,9854,0,0.8 S,1,9521,10187,0.145,0.195 C,0,9521,10187,255,236,200 F,0,9854,10187,0.8,0
Sprite,Background,Centre,"StoryBoard\Dot.png",463,92 F,0,9521,9854,0,0.8 S,1,9521,10187,0.25,0.3 C,0,9521,10187,203,200,255 F,0,9854,10187,0.8,0
Sprite,Background,Centre,"StoryBoard\Dot.png",429,349 F,0,9521,9854,0,0.5 S,1,9521,10187,0.243,0.293 C,0,9521,10187,200,255,228 F,0,9854,10187,0.5,0
Sprite,Background,Centre,"StoryBoard\Dot.png",545,384 F,0,9521,9854,0,0.5 S,1,9521,10187,0.109,0.159 C,0,9521,10187,255,216,200 F,0,9854,10187,0.5,0
Sprite,Background,Centre,"StoryBoard\Dot.png",290,353 F,0,9521,9854,0,0.5 S,1,9521,10187,0.21,0.26 C,0,9521,10187,255,200,215 F,0,9854,10187,0.5,0
Sprite,Background,Centre,"StoryBoard\Dot.png",192,256 F,0,9521,9854,0,0.7 S,1,9521,10187,0.283,0.333 C,0,9521,10187,200,255,228 F,0,9854,10187,0.7,0
Sprite,Background,Centre,"StoryBoard\Dot.png",95,398 F,0,9521,9854,0,0.5 S,1,9521,10187,0.231,0.281 C,0,9521,10187,240,255,200 F,0,9854,10187,0.5,0
Sprite,Background,Centre,"StoryBoard\Dot.png",548,222 F,0,9521,9854,0,0.8 S,1,9521,10187,0.135,0.185 C,0,9521,10187,200,232,255 F,0,9854,10187,0.8,0
Sprite,Background,Centre,"StoryBoard\Dot.png",560,229 F,0,9854,10187,0,0.5 S,1,9854,10520,0.13,0.18 C,0,9854,10520,255,200,235 F,0,10187,10520,0.5,0
Sprite,Background,Centre,"StoryBoard\Dot.png",132,97 F,0,9854,10187,0,0.5 S,1,9854,10520,0.197,0.247 C,0,9854,10520,200,255,228 F,0,10187,10520,0.5,0
Sprite,Background,Centre,"StoryBoard\Dot.png",154,75 F,0,9854,10187,0,0.5 S,1,9854,10520,0.273,0.323 C,0,9854,10520,255,216,200 F,0,10187,10520,0.5,0
Sprite,Background,Centre,"StoryBoard\Dot.png",485,185 F,0,9854,10187,0,0.6 S,1,9854,10520,0.224,0.274 C,0,9854,10520,255,216,200 F,0,10187,10520,0.6,0
Sprite,Background,Centre,"StoryBoard\Dot.png",591,203 F,0,9854,10187,0,0.6 S,1,9854,10520,0.205,0.255 C,0,9854,10520,255,200,215 F,0,10187,10520,0.6,0
Sprite,Background,Centre,"StoryBoard\Dot.png",117,267 F,0,10187,10520,0,0.8 S,1,10187,10853,0.19,0.24 C,0,10187,10853,203,200,255 F,0,10520,10853,0.8,0
Sprite,Background,Centre,"StoryBoard\Dot.png",209,228 F,0,10187,10520,0,0.5 S,1,10187,10853,0.193,0.243 C,0,10187,10853,200,232,255 F,0,10520,10853,0.5,0
Sprite,Background,Centre,"StoryBoard\Dot.png",281,112 F,0,10187,10520,0,0.5 S,1,10187,10853,0.181,0.231 C,0,10187,10853,240,255,200 F,0,10520,10853,0.5,0
Sprite,Background,Centre,"StoryBoard\Dot.png",321,386 F,0,10187,10520,0,0.5 S,1,10187,10853,0.239,0.289 C,0,10187,10853,255,200,235 F,0,10520,10853,0.5,0
Sprite,Background,Centre,"StoryBoard\Dot.png",488,318 F,0,10187,10520,0,0.7 S,1,10187,10853,0.144,0.194 C,0,10187,10853,200,255,228 F,0,10520,10853,0.7,0
Sprite,Background,Centre,"StoryBoard\Dot.png",76,211 F,0,10187,10520,0,0.5 S,1,10187,10853,0.134,0.184 C,0,10187,10853,203,200,255 F,0,10520,10853,0.5,0
Sprite,Background,Centre,"StoryBoard\Dot.png",200,94 F,0,10187,10520,0,0.8 S,1,10187,10853,0.181,0.231 C,0,10187,10853,200,232,255 F,0,10520,10853,0.8,0
Sprite,Background,Centre,"StoryBoard\Dot.png",32,190 F,0,10187,10520,0,0.8 S,1,10187,10853,0.175,0.225 C,0,10187,10853,255,200,235 F,0,10520,10853,0.8,0
Sprite,Background,Centre,"StoryBoard\Dot.png",193,389 F,0,10187,10520,0,0.8 S,1,10187,10853,0.168,0.218 C,0,10187,10853,255,200,235 F,0,10520,10853,0.8,0
Sprite,Background,Centre,"StoryBoard\Dot.png",583,336 F,0,10520,10853,0,0.7 S,1,10520,11186,0.264,0.314 C,0,10520,11186,255,200,235 F,0,10853,11186,0.7,0
Sprite,Background,Centre,"StoryBoard\Dot.png",134,171 F,0,10520,10853,0,0.7 S,1,10520,11186,0.23,0.28 C,0,10520,11186,255,236,200 F,0,10853,11186,0.7,0
Sprite,Background,Centre,"StoryBoard\Dot.png",185,250 F,0,10520,10853,0,0.7 S,1,10520,11186,0.282,0.332 C,0,10520,11186,255,216,200 F,0,10853,11186,0.7,0
Sprite,Background,Centre,"StoryBoard\Dot.png",62,114 F,0,10520,10853,0,0.6 S,1,10520,11186,0.241,0.291 C,0,10520,11186,214,255,200 F,0,10853,11186,0.6,0
Sprite,Background,Centre,"StoryBoard\Dot.png",446,364 F,0,10520,10853,0,0.5 S,1,10520,11186,0.22,0.27 C,0,10520,11186,255,236,200 F,0,10853,11186,0.5,0
Sprite,Background,Centre,"StoryBoard\Dot.png",61,331 F,0,10520,10853,0,0.5 S,1,10520,11186,0.225,0.275 C,0,10520,11186,200,255,228 F,0,10853,11186,0.5,0
Sprite,Background,Centre,"StoryBoard\Dot.png",313,345 F,0,10520,10853,0,0.5 S,1,10520,11186,0.187,0.237 C,0,10520,11186,200,255,228 F,0,10853,11186,0.5,0
Sprite,Background,Centre,"StoryBoard\Dot.png",276,144 F,0,10520,10853,0,0.7 S,1,10520,11186,0.176,0.226 C,0,10520,11186,255,216,200 F,0,10853,11186,0.7,0
Sprite,Background,Centre,"StoryBoard\Dot.png",15,255 F,0,10853,11186,0,0.8 S,1,10853,11519,0.242,0.292 C,0,10853,11519,214,255,200 F,0,11186,11519,0.8,0
Sprite,Background,Centre,"StoryBoard\Dot.png",257,216 F,0,10853,11186,0,0.5 S,1,10853,11519,0.295,0.345 C,0,10853,11519,240,255,200 F,0,11186,11519,0.5,0
Sprite,Background,Centre,"StoryBoard\Dot.png",360,105 F,0,10853,11186,0,0.7 S,1,10853,11519,0.214,0.264 C,0,10853,11519,255,200,235 F,0,11186,11519,0.7,0
Sprite,Background,Centre,"StoryBoard\Dot.png",538,387 F,0,10853,11186,0,0.5 S,1,10853,11519,0.109,0.159 C,0,10853,11519,214,255,200 F,0,11186,11519,0.5,0
Sprite,Background,Centre,"StoryBoard\Dot.png",115,315 F,0,10853,11186,0,0.5 S,1,10853,11519,0.198,0.248 C,0,10853,11519,255,216,200 F,0,11186,11519,0.5,0
Sprite,Background,Centre,"StoryBoard\Dot.png",367,67 F,0,10853,11186,0,0.5 S,1,10853,11519,0.138,0.188 C,0,10853,11519,200,232,255 F,0,11186,11519,0.5,0
Sprite,Background,Centre,"StoryBoard\Dot.png",436,332 F,0,11186,11519,0,0.6 S,1,11186,11852,0.24,0.29 C,0,11186,11852,255,200,215 F,0,11519,11852,0.6,0
Sprite,Background,Centre,"StoryBoard\Dot.png",155,110 F,0,11186,11519,0,0.8 S,1,11186,11852,0.175,0.225 C,0,11186,11852,239,200,255 F,0,11519,11852,0.8,0
Sprite,Background,Centre,"StoryBoard\Dot.png",137,388 F,0,11186,11519,0,0.7 S,1,11186,11852,0.233,0.283 C,0,11186,11852,240,255,200 F,0,11519,11852,0.7,0
Sprite,Background,Centre,"StoryBoard\Dot.png",123,251 F,0,11186,11519,0,0.8 S,1,11186,11852,0.172,0.222 C,0,11186,11852,239,200,255 F,0,11519,11852,0.8,0
Sprite,Background,Centre,"StoryBoard\Dot.png",394,279 F,0,11186,11519,0,0.5 S,1,11186,11852,0.244,0.294 C,0,11186,11852,214,255,200 F,0,11519,11852,0.5,0
Sprite,Background,Centre,"StoryBoard\Dot.png",532,404 F,0,11186,11519,0,0.5 S,1,11186,11852,0.217,0.267 C,0,11186,11852,255,200,235 F,0,11519,11852,0.5,0
Sprite,Background,Centre,"StoryBoard\Dot.png",508,238 F,0,11186,11519,0,0.8 S,1,11186,11852,0.192,0.242 C,0,11186,11852,255,236,200 F,0,11519,11852,0.8,0
Sprite,Background,Centre,"StoryBoard\Dot.png",326,209 F,0,11186,11519,0,0.6 S,1,11186,11852,0.171,0.221 C,0,11186,11852,203,200,255 F,0,11519,11852,0.6,0
Sprite,Background,Centre,"StoryBoard\Dot.png",305,248 F,0,11186,11519,0,0.6 S,1,11186,11852,0.3,0.35 C,0,11186,11852,214,255,200 F,0,11519,11852,0.6,0
Sprite,Background,Centre,"StoryBoard\Dot.png",62,277 F,0,11519,11852,0,0.8 S,1,11519,12185,0.184,0.234 C,0,11519,12185,255,236,200 F,0,11852,12185,0.8,0
Sprite,Background,Centre,"StoryBoard\Dot.png",440,306 F,0,11519,11852,0,0.8 S,1,11519,12185,0.107,0.157 C,0,11519,12185,240,255,200 F,0,11852,12185,0.8,0
Sprite,Background,Centre,"StoryBoard\Dot.png",277,132 F,0,11519,11852,0,0.5 S,1,11519,12185,0.269,0.319 C,0,11519,12185,200,255,228 F,0,11852,12185,0.5,0
Sprite,Background,Centre,"StoryBoard\Dot.png",391,108 F,0,11519,11852,0,0.5 S,1,11519,12185,0.206,0.256 C,0,11519,12185,240,255,200 F,0,11852,12185,0.5,0
Sprite,Background,Centre,"StoryBoard\Dot.png",275,325 F,0,11519,11852,0,0.5 S,1,11519,12185,0.244,0.294 C,0,11519,12185,255,236,200 F,0,11852,12185,0.5,0
Sprite,Background,Centre,"StoryBoard\Dot.png",156,260 F,0,11519,11852,0,0.6 S,1,11519,12185,0.215,0.265 C,0,11519,12185,214,255,200 F,0,11852,12185,0.6,0
Sprite,Background,Centre,"StoryBoard\Dot.png",521,352 F,0,11519,11852,0,0.7 S,1,11519,12185,0.135,0.185 C,0,11519,12185,203,200,255 F,0,11852,12185,0.7,0
Sprite,Background,Centre,"StoryBoard\Dot.png",320,86 F,0,11852,12185,0,0.6 S,1,11852,12518,0.281,0.331 C,0,11852,12518,255,236,200 F,0,12185,12518,0.6,0
Sprite,Background,Centre,"StoryBoard\Dot.png",232,248 F,0,11852,12185,0,0.5 S,1,11852,12518,0.214,0.264 C,0,11852,12518,240,255,200 F,0,12185,12518,0.5,0
Sprite,Background,Centre,"StoryBoard\Dot.png",258,271 F,0,11852,12185,0,0.8 S,1,11852,12518,0.209,0.259 C,0,11852,12518,214,255,200 F,0,12185,12518,0.8,0
Sprite,Background,Centre,"StoryBoard\Dot.png",402,222 F,0,11852,12185,0,0.5 S,1,11852,12518,0.3,0.35 C,0,11852,12518,239,200,255 F,0,12185,12518,0.5,0
Sprite,Background,Centre,"StoryBoard\Dot.png",181,184 F,0,11852,12185,0,0.7 S,1,11852,12518,0.173,0.223 C,0,11852,12518,214,255,200 F,0,12185,12518,0.7,0
Sprite,Background,Centre,"StoryBoard\Dot.png",186,177 F,0,11852,12185,0,0.7 S,1,11852,12518,0.192,0.242 C,0,11852,12518,240,255,200 F,0,12185,12518,0.7,0
Sprite,Background,Centre,"StoryBoard\Dot.png",27,374 F,0,11852,12185,0,0.6 S,1,11852,12518,0.196,0.246 C,0,11852,12518,239,200,255 F,0,12185,12518,0.6,0
Sprite,Background,Centre,"StoryBoard\Dot.png",27,355 F,0,12185,12518,0,0.7 S,1,12185,12851,0.18,0.23 C,0,12185,12851,255,200,215 F,0,12518,12851,0.7,0
Sprite,Background,Centre,"StoryBoard\Dot.png",624,93 F,0,12185,12518,0,0.7 S,1,12185,12851,0.183,0.233 C,0,12185,12851,200,232,255 F,0,12518,12851,0.7,0
Sprite,Background,Centre,"StoryBoard\Dot.png",468,144 F,0,12185,12518,0,0.7 S,1,12185,12851,0.181,0.231 C,0,12185,12851,255,216,200 F,0,12518,12851,0.7,0
Sprite,Background,Centre,"StoryBoard\Dot.png",135,301 F,0,12185,12518,0,0.6 S,1,12185,12851,0.114,0.164 C,0,12185,12851,255,200,215 F,0,12518,12851,0.6,0
Sprite,Background,Centre,"StoryBoard\Dot.png",137,329 F,0,12185,12518,0,0.7 S,1,12185,12851,0.238,0.288 C,0,12185,12851,240,255,200 F,0,12518,12851,0.7,0
Sprite,Background,Centre,"StoryBoard\Dot.png",128,216 F,0,12185,12518,0,0.5 S,1,12185,12851,0.275,0.325 C,0,12185,12851,200,255,228 F,0,12518,12851,0.5,0
Sprite,Background,Centre,"StoryBoard\Dot.png",229,254 F,0,12518,12851,0,0.6 S,1,12518,13184,0.27,0.32 C,0,12518,13184,200,255,228 F,0,12851,13184,0.6,0
Sprite,Background,Centre,"StoryBoard\Dot.png",276,140 F,0,12518,12851,0,0.8 S,1,12518,13184,0.216,0.266 C,0,12518,13184,239,200,255 F,0,12851,13184,0.8,0
Sprite,Background,Centre,"StoryBoard\Dot.png",530,239 F,0,12518,12851,0,0.5 S,1,12518,13184,0.213,0.263 C,0,12518,13184,255,200,235 F,0,12851,13184,0.5,0
Sprite,Background,Centre,"StoryBoard\Dot.png",282,149 F,0,12518,12851,0,0.8 S,1,12518,13184,0.142,0.192 C,0,12518,13184,200,232,255 F,0,12851,13184,0.8,0
Sprite,Background,Centre,"StoryBoard\Dot.png",398,168 F,0,12518,12851,0,0.6 S,1,12518,13184,0.287,0.337 C,0,12518,13184,255,200,235 F,0,12851,13184,0.6,0
Sprite,Background,Centre,"StoryBoard\Dot.png",470,205 F,0,12518,12851,0,0.5 S,1,12518,13184,0.288,0.338 C,0,12518,13184,255,200,235 F,0,12851,13184,0.5,0
Sprite,Background,Centre,"StoryBoard\Dot.png",348,404 F,0,12518,12851,0,0.6 S,1,12518,13184,0.109,0.159 C,0,12518,13184,203,200,255 F,0,12851,13184,0.6,0
Sprite,Background,Centre,"StoryBoard\Dot.png",601,328 F,0,12518,12851,0,0.7 S,1,12518,13184,0.23,0.28 C,0,12518,13184,203,200,255 F,0,12851,13184,0.7,0
Sprite,Background,Centre,"StoryBoard\Dot.png",231,62 F,0,12518,12851,0,0.7 S,1,12518,13184,0.176,0.226 C,0,12518,13184,255,216,200 F,0,12851,13184,0.7,0
Sprite,Background,Centre,"StoryBoard\Dot.png",237,407 F,0,12518,12851,0,0.6 S,1,12518,13184,0.103,0.153 C,0,12518,13184,200,232,255 F,0,12851,13184,0.6,0
Sprite,Background,Centre,"StoryBoard\Dot.png",502,394 F,0,12851,13184,0,0.8 S,1,12851,13517,0.194,0.244 C,0,12851,13517,203,200,255 F,0,13184,13517,0.8,0
Sprite,Background,Centre,"StoryBoard\Dot.png",131,122 F,0,12851,13184,0,0.6 S,1,12851,13517,0.197,0.247 C,0,12851,13517,255,200,215 F,0,13184,13517,0.6,0
Sprite,Background,Centre,"StoryBoard\Dot.png",435,100 F,0,12851,13184,0,0.6 S,1,12851,13517,0.185,0.235 C,0,12851,13517,255,236,200 F,0,13184,13517,0.6,0
Sprite,Background,Centre,"StoryBoard\Dot.png",586,101 F,0,12851,13184,0,0.6 S,1,12851,13517,0.111,0.161 C,0,12851,13517,255,216,200 F,0,13184,13517,0.6,0
Sprite,Background,Centre,"StoryBoard\Dot.png",366,106 F,0,12851,13184,0,0.7 S,1,12851,13517,0.221,0.271 C,0,12851,13517,240,255,200 F,0,13184,13517,0.7,0
Sprite,Background,Centre,"StoryBoard\Dot.png",545,82 F,0,12851,13184,0,0.8 S,1,12851,13517,0.14,0.19 C,0,12851,13517,255,236,200 F,0,13184,13517,0.8,0
Sprite,Background,Centre,"StoryBoard\Dot.png",296,145 F,0,12851,13184,0,0.8 S,1,12851,13517,0.284,0.334 C,0,12851,13517,200,255,228 F,0,13184,13517,0.8,0
Sprite,Background,Centre,"StoryBoard\Dot.png",125,332 F,0,12851,13184,0,0.8 S,1,12851,13517,0.196,0.246 C,0,12851,13517,255,216,200 F,0,13184,13517,0.8,0
Sprite,Background,Centre,"StoryBoard\Dot.png",-10,286 F,2,2528,3028,0.81,0 S,0,2528,3028,0.097 C,0,2528,3028,240,255,200 MX,1,2528,3028,-10,89
Sprite,Background,Centre,"StoryBoard\Dot.png",-10,363 F,2,2528,3028,0.75,0 S,0,2528,3028,0.19 C,0,2528,3028,200,232,255 MX,1,2528,3028,-10,68
Sprite,Background,Centre,"StoryBoard\Dot.png",-10,34 F,2,2528,3028,0.88,0 S,0,2528,3028,0.145 C,0,2528,3028,200,232,255 MX,1,2528,3028,-10,80
Sprite,Background,Centre,"StoryBoard\Dot.png",-10,330 F,2,2528,3028,0.79,0 S,0,2528,3028,0.174 C,0,2528,3028,240,255,200 MX,1,2528,3028,-10,55
Sprite,Background,Centre,"StoryBoard\Dot.png",-10,251 F,2,2528,3028,0.91,0 S,0,2528,3028,0.137 C,0,2528,3028,255,200,235 MX,1,2528,3028,-10,31
Sprite,Background,Centre,"StoryBoard\Dot.png",-10,386 F,2,2528,3028,0.71,0 S,0,2528,3028,0.148 C,0,2528,3028,200,232,255 MX,1,2528,3028,-10,93
Sprite,Background,Centre,"StoryBoard\Dot.png",-10,425 F,2,2528,3028,0.68,0 S,0,2528,3028,0.053 C,0,2528,3028,200,232,255 MX,1,2528,3028,-10,26
Sprite,Background,Centre,"StoryBoard\Dot.png",-10,222 F,2,2528,3028,0.67,0 S,0,2528,3028,0.161 C,0,2528,3028,255,236,200 MX,1,2528,3028,-10,48
Sprite,Background,Centre,"StoryBoard\Dot.png",-10,205 F,2,2528,3028,0.82,0 S,0,2528,3028,0.128 C,0,2528,3028,214,255,200 MX,1,2528,3028,-10,71
Sprite,Background,Centre,"StoryBoard\Dot.png",-10,398 F,2,2528,3028,0.91,0 S,0,2528,3028,0.156 C,0,2528,3028,200,232,255 MX,1,2528,3028,-10,31
Sprite,Background,Centre,"StoryBoard\Dot.png",-10,160 F,2,2528,3028,0.88,0 S,0,2528,3028,0.176 C,0,2528,3028,239,200,255 MX,1,2528,3028,-10,53
Sprite,Background,Centre,"StoryBoard\Dot.png",-10,431 F,2,2528,3028,0.65,0 S,0,2528,3028,0.123 C,0,2528,3028,255,216,200 MX,1,2528,3028,-10,37
Sprite,Background,Centre,"StoryBoard\Dot.png",-10,247 F,2,2528,3028,0.89,0 S,0,2528,3028,0.199 C,0,2528,3028,255,216,200 MX,1,2528,3028,-10,84
Sprite,Background,Centre,"StoryBoard\Dot.png",-10,251 F,2,2528,3028,0.97,0 S,0,2528,3028,0.081 C,0,2528,3028,255,216,200 MX,1,2528,3028,-10,28
Sprite,Background,Centre,"StoryBoard\Dot.png",-10,195 F,2,2528,3028,0.69,0 S,0,2528,3028,0.064 C,0,2528,3028,255,236,200 MX,1,2528,3028,-10,71
Sprite,Background,Centre,"StoryBoard\Dot.png",-10,442 F,2,2528,3028,0.72,0 S,0,2528,3028,0.084 C,0,2528,3028,239,200,255 MX,1,2528,3028,-10,50
Sprite,Background,Centre,"StoryBoard\Dot.png",-10,76 F,2,2528,3028,0.74,0 S,0,2528,3028,0.091 C,0,2528,3028,214,255,200 MX,1,2528,3028,-10,54
Sprite,Background,Centre,"StoryBoard\Dot.png",-10,66 F,2,2528,3028,0.72,0 S,0,2528,3028,0.166 C,0,2528,3028,200,255,228 MX,1,2528,3028,-10,80
Sprite,Background,Centre,"StoryBoard\Dot.png",-10,158 F,2,2528,3028,0.81,0 S,0,2528,3028,0.197 C,0,2528,3028,255,200,235 MX,1,2528,3028,-10,33
Sprite,Background,Centre,"StoryBoard\Dot.png",-10,159 F,2,2528,3028,0.71,0 S,0,2528,3028,0.154 C,0,2528,3028,203,200,255 MX,1,2528,3028,-10,55
Sprite,Background,Centre,"StoryBoard\Dot.png",-10,387 F,2,2528,3028,0.71,0 S,0,2528,3028,0.123 C,0,2528,3028,240,255,200 MX,1,2528,3028,-10,88
Sprite,Background,Centre,"StoryBoard\Dot.png",-10,165 F,2,2528,3028,0.85,0 S,0,2528,3028,0.107 C,0,2528,3028,255,236,200 MX,1,2528,3028,-10,35
Sprite,Background,Centre,"StoryBoard\Dot.png",-10,474 F,2,2528,3028,0.83,0 S,0,2528,3028,0.068 C,0,2528,3028,203,200,255 MX,1,2528,3028,-10,64
Sprite,Background,Centre,"StoryBoard\Dot.png",-10,319 F,2,2528,3028,0.85,0 S,0,2528,3028,0.111 C,0,2528,3028,240,255,200 MX,1,2528,3028,-10,39
Sprite,Background,Centre,"StoryBoard\Dot.png",-10,318 F,2,2528,3028,0.68,0 S,0,2528,3028,0.052 C,0,2528,3028,255,200,215 MX,1,2528,3028,-10,44
Sprite,Background,Centre,"StoryBoard\Dot.png",-10,362 F,2,2528,3028,0.78,0 S,0,2528,3028,0.165 C,0,2528,3028,255,200,235 MX,1,2528,3028,-10,93
Sprite,Background,Centre,"StoryBoard\Dot.png",-10,237 F,2,2528,3028,0.95,0 S,0,2528,3028,0.069 C,0,2528,3028,200,232,255 MX,1,2528,3028,-10,28
Sprite,Background,Centre,"StoryBoard\Dot.png",-10,39 F,2,2528,3028,0.79,0 S,0,2528,3028,0.089 C,0,2528,3028,255,236,200 MX,1,2528,3028,-10,27
Sprite,Background,Centre,"StoryBoard\Dot.png",-10,280 F,2,2528,3028,0.6,0 S,0,2528,3028,0.054 C,0,2528,3028,239,200,255 MX,1,2528,3028,-10,27
Sprite,Background,Centre,"StoryBoard\Dot.png",-10,112 F,2,2528,3028,0.94,0 S,0,2528,3028,0.2 C,0,2528,3028,203,200,255 MX,1,2528,3028,-10,49
Sprite,Background,Centre,"StoryBoard\Dot.png",-10,256 F,2,2528,3028,0.76,0 S,0,2528,3028,0.116 C,0,2528,3028,255,200,235 MX,1,2528,3028,-10,76
Sprite,Background,Centre,"StoryBoard\Dot.png",-10,165 F,2,2528,3028,0.64,0 S,0,2528,3028,0.096 C,0,2528,3028,200,255,228 MX,1,2528,3028,-10,28
Sprite,Background,Centre,"StoryBoard\Dot.png",-10,394 F,2,2528,3028,0.96,0 S,0,2528,3028,0.087 C,0,2528,3028,203,200,255 MX,1,2528,3028,-10,67
Sprite,Background,Centre,"StoryBoard\Dot.png",-10,283 F,2,2528,3028,0.65,0 S,0,2528,3028,0.131 C,0,2528,3028,203,200,255 MX,1,2528,3028,-10,52
Sprite,Background,Centre,"StoryBoard\Dot.png",-10,215 F,2,2528,3028,0.8,0 S,0,2528,3028,0.085 C,0,2528,3028,200,255,228 MX,1,2528,3028,-10,94
Sprite,Background,Centre,"StoryBoard\Dot.png",-10,134 F,2,2528,3028,0.65,0 S,0,2528,3028,0.117 C,0,2528,3028,255,200,215 MX,1,2528,3028,-10,79
Sprite,Background,Centre,"StoryBoard\Dot.png",-10,91 F,2,2528,3028,0.83,0 S,0,2528,3028,0.067 C,0,2528,3028,240,255,200 MX,1,2528,3028,-10,95
Sprite,Background,Centre,"StoryBoard\Dot.png",-10,46 F,2,2528,3028,1,0 S,0,2528,3028,0.144 C,0,2528,3028,255,216,200 MX,1,2528,3028,-10,71
Sprite,Background,Centre,"StoryBoard\Dot.png",-10,339 F,2,2528,3028,0.71,0 S,0,2528,3028,0.125 C,0,2528,3028,255,236,200 MX,1,2528,3028,-10,69
Sprite,Background,Centre,"StoryBoard\Dot.png",-10,324 F,2,2528,3028,0.63,0 S,0,2528,3028,0.186 C,0,2528,3028,200,232,255 MX,1,2528,3028,-10,63
Sprite,Background,Centre,"StoryBoard\Dot.png",650,328 F,2,2528,3028,0.61,0 S,0,2528,3028,0.169 C,0,2528,3028,200,255,228 MX,1,2528,3028,650,615
Sprite,Background,Centre,"StoryBoard\Dot.png",650,66 F,2,2528,3028,0.66,0 S,0,2528,3028,0.094 C,0,2528,3028,214,255,200 MX,1,2528,3028,650,579
Sprite,Background,Centre,"StoryBoard\Dot.png",650,63 F,2,2528,3028,0.61,0 S,0,2528,3028,0.169 C,0,2528,3028,214,255,200 MX,1,2528,3028,650,607
Sprite,Background,Centre,"StoryBoard\Dot.png",650,164 F,2,2528,3028,0.81,0 S,0,2528,3028,0.178 C,0,2528,3028,239,200,255 MX,1,2528,3028,650,564
Sprite,Background,Centre,"StoryBoard\Dot.png",650,125 F,2,2528,3028,0.72,0 S,0,2528,3028,0.062 C,0,2528,3028,255,200,215 MX,1,2528,3028,650,558
Sprite,Background,Centre,"StoryBoard\Dot.png",650,345 F,2,2528,3028,0.8,0 S,0,2528,3028,0.09 C,0,2528,3028,200,232,255 MX,1,2528,3028,650,542
Sprite,Background,Centre,"StoryBoard\Dot.png",650,271 F,2,2528,3028,0.74,0 S,0,2528,3028,0.187 C,0,2528,3028,200,255,228 MX,1,2528,3028,650,591
Sprite,Background,Centre,"StoryBoard\Dot.png",650,168 F,2,2528,3028,0.6,0 S,0,2528,3028,0.111 C,0,2528,3028,203,200,255 MX,1,2528,3028,650,585
Sprite,Background,Centre,"StoryBoard\Dot.png",650,96 F,2,2528,3028,0.68,0 S,0,2528,3028,0.197 C,0,2528,3028,255,200,235 MX,1,2528,3028,650,620
Sprite,Background,Centre,"StoryBoard\Dot.png",650,451 F,2,2528,3028,0.98,0 S,0,2528,3028,0.108 C,0,2528,3028,200,232,255 MX,1,2528,3028,650,563
Sprite,Background,Centre,"StoryBoard\Dot.png",650,409 F,2,2528,3028,0.76,0 S,0,2528,3028,0.159 C,0,2528,3028,203,200,255 MX,1,2528,3028,650,541
Sprite,Background,Centre,"StoryBoard\Dot.png",650,403 F,2,2528,3028,0.75,0 S,0,2528,3028,0.13 C,0,2528,3028,203,200,255 MX,1,2528,3028,650,606
Sprite,Background,Centre,"StoryBoard\Dot.png",650,443 F,2,2528,3028,0.67,0 S,0,2528,3028,0.2 C,0,2528,3028,255,200,215 MX,1,2528,3028,650,551
Sprite,Background,Centre,"StoryBoard\Dot.png",650,28 F,2,2528,3028,0.86,0 S,0,2528,3028,0.084 C,0,2528,3028,255,200,235 MX,1,2528,3028,650,585
Sprite,Background,Centre,"StoryBoard\Dot.png",650,133 F,2,2528,3028,0.76,0 S,0,2528,3028,0.183 C,0,2528,3028,255,236,200 MX,1,2528,3028,650,569
Sprite,Background,Centre,"StoryBoard\Dot.png",650,70 F,2,2528,3028,0.78,0 S,0,2528,3028,0.191 C,0,2528,3028,255,216,200 MX,1,2528,3028,650,589
Sprite,Background,Centre,"StoryBoard\Dot.png",650,215 F,2,2528,3028,0.63,0 S,0,2528,3028,0.09 C,0,2528,3028,214,255,200 MX,1,2528,3028,650,591
Sprite,Background,Centre,"StoryBoard\Dot.png",650,83 F,2,2528,3028,0.71,0 S,0,2528,3028,0.079 C,0,2528,3028,255,236,200 MX,1,2528,3028,650,578
Sprite,Background,Centre,"StoryBoard\Dot.png",650,396 F,2,2528,3028,0.66,0 S,0,2528,3028,0.091 C,0,2528,3028,240,255,200 MX,1,2528,3028,650,560
Sprite,Background,Centre,"StoryBoard\Dot.png",650,42 F,2,2528,3028,0.65,0 S,0,2528,3028,0.185 C,0,2528,3028,255,236,200 MX,1,2528,3028,650,576
Sprite,Background,Centre,"StoryBoard\Dot.png",650,152 F,2,2528,3028,0.64,0 S,0,2528,3028,0.114 C,0,2528,3028,239,200,255 MX,1,2528,3028,650,579
Sprite,Background,Centre,"StoryBoard\Dot.png",650,67 F,2,2528,3028,0.64,0 S,0,2528,3028,0.175 C,0,2528,3028,200,232,255 MX,1,2528,3028,650,563
Sprite,Background,Centre,"StoryBoard\Dot.png",650,200 F,2,2528,3028,0.77,0 S,0,2528,3028,0.163 C,0,2528,3028,240,255,200 MX,1,2528,3028,650,567
Sprite,Background,Centre,"StoryBoard\Dot.png",650,329 F,2,2528,3028,0.88,0 S,0,2528,3028,0.081 C,0,2528,3028,255,216,200 MX,1,2528,3028,650,585
Sprite,Background,Centre,"StoryBoard\Dot.png",650,146 F,2,2528,3028,0.96,0 S,0,2528,3028,0.065 C,0,2528,3028,203,200,255 MX,1,2528,3028,650,543
Sprite,Background,Centre,"StoryBoard\Dot.png",650,345 F,2,2528,3028,0.78,0 S,0,2528,3028,0.061 C,0,2528,3028,255,200,215 MX,1,2528,3028,650,593
Sprite,Background,Centre,"StoryBoard\Dot.png",650,86 F,2,2528,3028,0.61,0 S,0,2528,3028,0.105 C,0,2528,3028,200,232,255 MX,1,2528,3028,650,559
Sprite,Background,Centre,"StoryBoard\Dot.png",650,181 F,2,2528,3028,0.91,0 S,0,2528,3028,0.079 C,0,2528,3028,214,255,200 MX,1,2528,3028,650,610
Sprite,Background,Centre,"StoryBoard\Dot.png",650,76 F,2,2528,3028,0.8,0 S,0,2528,3028,0.124 C,0,2528,3028,214,255,200 MX,1,2528,3028,650,604
Sprite,Background,Centre,"StoryBoard\Dot.png",650,125 F,2,2528,3028,0.91,0 S,0,2528,3028,0.189 C,0,2528,3028,214,255,200 MX,1,2528,3028,650,586
Sprite,Background,Centre,"StoryBoard\Dot.png",650,21 F,2,2528,3028,0.78,0 S,0,2528,3028,0.194 C,0,2528,3028,240,255,200 MX,1,2528,3028,650,549
Sprite,Background,Centre,"StoryBoard\Dot.png",650,424 F,2,2528,3028,0.81,0 S,0,2528,3028,0.161 C,0,2528,3028,200,255,228 MX,1,2528,3028,650,598
Sprite,Background,Centre,"StoryBoard\Dot.png",650,256 F,2,2528,3028,0.74,0 S,0,2528,3028,0.089 C,0,2528,3028,255,200,235 MX,1,2528,3028,650,596
Sprite,Background,Centre,"StoryBoard\Dot.png",650,450 F,2,2528,3028,0.65,0 S,0,2528,3028,0.147 C,0,2528,3028,240,255,200 MX,1,2528,3028,650,608
Sprite,Background,Centre,"StoryBoard\Dot.png",650,284 F,2,2528,3028,0.68,0 S,0,2528,3028,0.148 C,0,2528,3028,255,200,235 MX,1,2528,3028,650,550
Sprite,Background,Centre,"StoryBoard\Dot.png",650,334 F,2,2528,3028,0.73,0 S,0,2528,3028,0.105 C,0,2528,3028,240,255,200 MX,1,2528,3028,650,577
Sprite,Background,Centre,"StoryBoard\Dot.png",650,323 F,2,2528,3028,0.65,0 S,0,2528,3028,0.113 C,0,2528,3028,255,216,200 MX,1,2528,3028,650,563
Sprite,Background,Centre,"StoryBoard\Dot.png",650,446 F,2,2528,3028,0.92,0 S,0,2528,3028,0.195 C,0,2528,3028,200,232,255 MX,1,2528,3028,650,595
Sprite,Background,Centre,"StoryBoard\Dot.png",650,76 F,2,2528,3028,0.93,0 S,0,2528,3028,0.054 C,0,2528,3028,255,200,215 MX,1,2528,3028,650,577
Sprite,Background,Centre,"StoryBoard\Dot.png",650,420 F,2,2528,3028,0.83,0 S,0,2528,3028,0.117 C,0,2528,3028,255,200,215 MX,1,2528,3028,650,563
Sprite,Background,BottomLeft,"StoryBoard\Cover.png",0,460 L,2528,6 M,0,0,2000,-29,460,0,460 S,0,2528,,0.625 F,0,2528,3194,0,0.5 C,0,2528,4528,250,211,211,249,211,250 F,0,13194,13861,0.5,0
Sprite,Background,TopLeft,"StoryBoard\Cover.png",0,20 L,2528,6 M,0,0,2000,-29,20,0,20 S,0,2528,,0.625 F,0,2528,3194,0,0.5 C,0,2528,4528,250,211,211,249,211,250 P,0,2528,13861,V F,0,13194,13861,0.5,0
Sprite,Background,BottomLeft,"StoryBoard\Cover.png",0,480 L,2528,6 M,0,0,2000,0,480,-29,480 S,0,2528,,0.625 F,0,2528,3194,0,1 C,0,2528,4528,255,240,240,210,170,200 F,0,13194,13861,1,0
Sprite,Background,TopLeft,"StoryBoard\Cover.png",0,0 L,2528,6 M,0,0,2000,0,0,-29,0 S,0,2528,,0.625 F,0,2528,3194,0,1 C,0,2528,4528,255,240,240,210,170,200 P,0,2528,13861,V F,0,13194,13861,1,0
Sprite,Background,TopLeft,"StoryBoard\BG-S.png",0,0 L,13861,17 M,0,0,10000,0,0,-99,0 S,0,13861,,0.625 F,0,13861,14528,0,0.5 F,0,33861,34528,0.5,0 F,0,36861,37528,0,0.5 F,0,111194,111861,0.5,0 F,0,114528,115194,0,0.5 F,0,178528,179861,0.5,0
Sprite,Background,Centre,"StoryBoard\Dot.png",650,89 F,2,63861,64361,0.8,0 S,0,63861,64361,0.104 C,0,63861,64361,255,236,200 MX,1,63861,64361,650,573
Sprite,Background,Centre,"StoryBoard\Dot.png",650,62 F,2,63861,64361,0.66,0 S,0,63861,64361,0.175 C,0,63861,64361,255,216,200 MX,1,63861,64361,650,600
Sprite,Background,Centre,"StoryBoard\Dot.png",650,203 F,2,63861,64361,1,0 S,0,63861,64361,0.119 C,0,63861,64361,239,200,255 MX,1,63861,64361,650,551
Sprite,Background,Centre,"StoryBoard\Dot.png",650,103 F,2,63861,64361,0.8,0 S,0,63861,64361,0.126 C,0,63861,64361,214,255,200 MX,1,63861,64361,650,586
Sprite,Background,Centre,"StoryBoard\Dot.png",650,318 F,2,63861,64361,0.96,0 S,0,63861,64361,0.136 C,0,63861,64361,203,200,255 MX,1,63861,64361,650,579
Sprite,Background,Centre,"StoryBoard\Dot.png",650,209 F,2,63861,64361,0.89,0 S,0,63861,64361,0.163 C,0,63861,64361,255,236,200 MX,1,63861,64361,650,552
Sprite,Background,Centre,"StoryBoard\Dot.png",650,61 F,2,63861,64361,0.77,0 S,0,63861,64361,0.123 C,0,63861,64361,255,200,215 MX,1,63861,64361,650,587
Sprite,Background,Centre,"StoryBoard\Dot.png",650,104 F,2,63861,64361,0.77,0 S,0,63861,64361,0.094 C,0,63861,64361,255,200,235 MX,1,63861,64361,650,607
Sprite,Background,Centre,"StoryBoard\Dot.png",650,191 F,2,63861,64361,0.94,0 S,0,63861,64361,0.06 C,0,63861,64361,255,200,235 MX,1,63861,64361,650,612
Sprite,Background,Centre,"StoryBoard\Dot.png",650,337 F,2,63861,64361,0.91,0 S,0,63861,64361,0.141 C,0,63861,64361,255,236,200 MX,1,63861,64361,650,577
Sprite,Background,Centre,"StoryBoard\Dot.png",650,471 F,2,63861,64361,0.82,0 S,0,63861,64361,0.107 C,0,63861,64361,255,200,235 MX,1,63861,64361,650,580
Sprite,Background,Centre,"StoryBoard\Dot.png",650,254 F,2,63861,64361,0.72,0 S,0,63861,64361,0.179 C,0,63861,64361,203,200,255 MX,1,63861,64361,650,549
Sprite,Background,Centre,"StoryBoard\Dot.png",650,32 F,2,63861,64361,0.82,0 S,0,63861,64361,0.187 C,0,63861,64361,255,200,215 MX,1,63861,64361,650,555
Sprite,Background,Centre,"StoryBoard\Dot.png",650,421 F,2,63861,64361,0.87,0 S,0,63861,64361,0.186 C,0,63861,64361,203,200,255 MX,1,63861,64361,650,620
Sprite,Background,Centre,"StoryBoard\Dot.png",650,338 F,2,63861,64361,0.77,0 S,0,63861,64361,0.099 C,0,63861,64361,200,255,228 MX,1,63861,64361,650,616
Sprite,Background,Centre,"StoryBoard\Dot.png",650,390 F,2,63861,64361,0.76,0 S,0,63861,64361,0.116 C,0,63861,64361,240,255,200 MX,1,63861,64361,650,599
Sprite,Background,Centre,"StoryBoard\Dot.png",650,157 F,2,63861,64361,0.89,0 S,0,63861,64361,0.072 C,0,63861,64361,214,255,200 MX,1,63861,64361,650,569
Sprite,Background,Centre,"StoryBoard\Dot.png",650,359 F,2,63861,64361,0.62,0 S,0,63861,64361,0.189 C,0,63861,64361,200,232,255 MX,1,63861,64361,650,545
Sprite,Background,Centre,"StoryBoard\Dot.png",650,160 F,2,63861,64361,0.7,0 S,0,63861,64361,0.107 C,0,63861,64361,255,200,215 MX,1,63861,64361,650,563
Sprite,Background,Centre,"StoryBoard\Dot.png",650,277 F,2,63861,64361,0.9,0 S,0,63861,64361,0.19 C,0,63861,64361,200,255,228 MX,1,63861,64361,650,608
Sprite,Background,Centre,"StoryBoard\Dot.png",650,306 F,2,63861,64361,0.82,0 S,0,63861,64361,0.081 C,0,63861,64361,255,236,200 MX,1,63861,64361,650,541
Sprite,Background,Centre,"StoryBoard\Dot.png",650,356 F,2,63861,64361,0.61,0 S,0,63861,64361,0.082 C,0,63861,64361,203,200,255 MX,1,63861,64361,650,604
Sprite,Background,Centre,"StoryBoard\Dot.png",650,441 F,2,63861,64361,0.72,0 S,0,63861,64361,0.086 C,0,63861,64361,200,255,228 MX,1,63861,64361,650,611
Sprite,Background,Centre,"StoryBoard\Dot.png",650,282 F,2,63861,64361,0.71,0 S,0,63861,64361,0.097 C,0,63861,64361,255,200,235 MX,1,63861,64361,650,561
Sprite,Background,Centre,"StoryBoard\Dot.png",650,383 F,2,63861,64361,0.8,0 S,0,63861,64361,0.105 C,0,63861,64361,255,236,200 MX,1,63861,64361,650,568
Sprite,Background,Centre,"StoryBoard\Dot.png",650,164 F,2,63861,64361,0.69,0 S,0,63861,64361,0.113 C,0,63861,64361,200,255,228 MX,1,63861,64361,650,618
Sprite,Background,Centre,"StoryBoard\Dot.png",650,128 F,2,63861,64361,0.92,0 S,0,63861,64361,0.197 C,0,63861,64361,255,236,200 MX,1,63861,64361,650,593
Sprite,Background,Centre,"StoryBoard\Dot.png",650,185 F,2,63861,64361,0.91,0 S,0,63861,64361,0.097 C,0,63861,64361,255,200,235 MX,1,63861,64361,650,557
Sprite,Background,Centre,"StoryBoard\Dot.png",650,219 F,2,63861,64361,0.76,0 S,0,63861,64361,0.055 C,0,63861,64361,255,200,235 MX,1,63861,64361,650,556
Sprite,Background,Centre,"StoryBoard\Dot.png",650,25 F,2,63861,64361,0.84,0 S,0,63861,64361,0.138 C,0,63861,64361,255,216,200 MX,1,63861,64361,650,557
Sprite,Background,Centre,"StoryBoard\Dot.png",650,429 F,2,63861,64361,0.69,0 S,0,63861,64361,0.143 C,0,63861,64361,240,255,200 MX,1,63861,64361,650,574
Sprite,Background,Centre,"StoryBoard\Dot.png",650,24 F,2,63861,64361,0.65,0 S,0,63861,64361,0.112 C,0,63861,64361,203,200,255 MX,1,63861,64361,650,540
Sprite,Background,Centre,"StoryBoard\Dot.png",650,94 F,2,63861,64361,0.75,0 S,0,63861,64361,0.084 C,0,63861,64361,214,255,200 MX,1,63861,64361,650,576
Sprite,Background,Centre,"StoryBoard\Dot.png",650,270 F,2,63861,64361,0.81,0 S,0,63861,64361,0.145 C,0,63861,64361,255,200,235 MX,1,63861,64361,650,593
Sprite,Background,Centre,"StoryBoard\Dot.png",650,333 F,2,63861,64361,0.74,0 S,0,63861,64361,0.085 C,0,63861,64361,200,255,228 MX,1,63861,64361,650,545
Sprite,Background,Centre,"StoryBoard\Dot.png",650,35 F,2,63861,64361,0.79,0 S,0,63861,64361,0.115 C,0,63861,64361,255,200,235 MX,1,63861,64361,650,586
Sprite,Background,Centre,"StoryBoard\Dot.png",650,177 F,2,63861,64361,0.99,0 S,0,63861,64361,0.18 C,0,63861,64361,200,255,228 MX,1,63861,64361,650,551
Sprite,Background,Centre,"StoryBoard\Dot.png",650,54 F,2,63861,64361,0.66,0 S,0,63861,64361,0.07 C,0,63861,64361,255,236,200 MX,1,63861,64361,650,549
Sprite,Background,Centre,"StoryBoard\Dot.png",650,12 F,2,63861,64361,0.83,0 S,0,63861,64361,0.125 C,0,63861,64361,200,232,255 MX,1,63861,64361,650,574
Sprite,Background,Centre,"StoryBoard\Dot.png",650,310 F,2,63861,64361,0.93,0 S,0,63861,64361,0.174 C,0,63861,64361,255,200,215 MX,1,63861,64361,650,603
Sprite,Background,Centre,"StoryBoard\Dot.png",-10,173 F,2,63861,64361,0.81,0 S,0,63861,64361,0.097 C,0,63861,64361,203,200,255 MX,1,63861,64361,-10,49
Sprite,Background,Centre,"StoryBoard\Dot.png",-10,191 F,2,63861,64361,0.94,0 S,0,63861,64361,0.06 C,0,63861,64361,240,255,200 MX,1,63861,64361,-10,32
Sprite,Background,Centre,"StoryBoard\Dot.png",-10,309 F,2,63861,64361,0.71,0 S,0,63861,64361,0.086 C,0,63861,64361,239,200,255 MX,1,63861,64361,-10,44
Sprite,Background,Centre,"StoryBoard\Dot.png",-10,47 F,2,63861,64361,0.81,0 S,0,63861,64361,0.157 C,0,63861,64361,255,236,200 MX,1,63861,64361,-10,46
Sprite,Background,Centre,"StoryBoard\Dot.png",-10,166 F,2,63861,64361,0.99,0 S,0,63861,64361,0.189 C,0,63861,64361,203,200,255 MX,1,63861,64361,-10,63
Sprite,Background,Centre,"StoryBoard\Dot.png",-10,222 F,2,63861,64361,0.65,0 S,0,63861,64361,0.146 C,0,63861,64361,255,200,235 MX,1,63861,64361,-10,91
Sprite,Background,Centre,"StoryBoard\Dot.png",-10,364 F,2,63861,64361,0.71,0 S,0,63861,64361,0.063 C,0,63861,64361,203,200,255 MX,1,63861,64361,-10,26
Sprite,Background,Centre,"StoryBoard\Dot.png",-10,313 F,2,63861,64361,0.7,0 S,0,63861,64361,0.073 C,0,63861,64361,239,200,255 MX,1,63861,64361,-10,39
Sprite,Background,Centre,"StoryBoard\Dot.png",-10,148 F,2,63861,64361,0.85,0 S,0,63861,64361,0.16 C,0,63861,64361,255,200,235 MX,1,63861,64361,-10,20
Sprite,Background,Centre,"StoryBoard\Dot.png",-10,305 F,2,63861,64361,0.82,0 S,0,63861,64361,0.193 C,0,63861,64361,255,200,235 MX,1,63861,64361,-10,25
Sprite,Background,Centre,"StoryBoard\Dot.png",-10,418 F,2,63861,64361,0.66,0 S,0,63861,64361,0.151 C,0,63861,64361,255,216,200 MX,1,63861,64361,-10,63
Sprite,Background,Centre,"StoryBoard\Dot.png",-10,312 F,2,63861,64361,0.6,0 S,0,63861,64361,0.097 C,0,63861,64361,255,200,235 MX,1,63861,64361,-10,87
Sprite,Background,Centre,"StoryBoard\Dot.png",-10,195 F,2,63861,64361,0.98,0 S,0,63861,64361,0.088 C,0,63861,64361,255,200,235 MX,1,63861,64361,-10,66
Sprite,Background,Centre,"StoryBoard\Dot.png",-10,430 F,2,63861,64361,0.79,0 S,0,63861,64361,0.133 C,0,63861,64361,239,200,255 MX,1,63861,64361,-10,39
Sprite,Background,Centre,"StoryBoard\Dot.png",-10,92 F,2,63861,64361,0.61,0 S,0,63861,64361,0.113 C,0,63861,64361,255,200,235 MX,1,63861,64361,-10,59
Sprite,Background,Centre,"StoryBoard\Dot.png",-10,13 F,2,63861,64361,0.84,0 S,0,63861,64361,0.075 C,0,63861,64361,203,200,255 MX,1,63861,64361,-10,21
Sprite,Background,Centre,"StoryBoard\Dot.png",-10,187 F,2,63861,64361,0.73,0 S,0,63861,64361,0.144 C,0,63861,64361,255,200,235 MX,1,63861,64361,-10,90
Sprite,Background,Centre,"StoryBoard\Dot.png",-10,19 F,2,63861,64361,0.74,0 S,0,63861,64361,0.14 C,0,63861,64361,255,200,235 MX,1,63861,64361,-10,47
Sprite,Background,Centre,"StoryBoard\Dot.png",-10,88 F,2,63861,64361,0.9,0 S,0,63861,64361,0.131 C,0,63861,64361,200,232,255 MX,1,63861,64361,-10,60
Sprite,Background,Centre,"StoryBoard\Dot.png",-10,88 F,2,63861,64361,0.67,0 S,0,63861,64361,0.133 C,0,63861,64361,240,255,200 MX,1,63861,64361,-10,92
Sprite,Background,Centre,"StoryBoard\Dot.png",-10,78 F,2,63861,64361,0.9,0 S,0,63861,64361,0.166 C,0,63861,64361,239,200,255 MX,1,63861,64361,-10,43
Sprite,Background,Centre,"StoryBoard\Dot.png",-10,295 F,2,63861,64361,0.85,0 S,0,63861,64361,0.16 C,0,63861,64361,200,232,255 MX,1,63861,64361,-10,87
Sprite,Background,Centre,"StoryBoard\Dot.png",-10,462 F,2,63861,64361,0.88,0 S,0,63861,64361,0.07 C,0,63861,64361,214,255,200 MX,1,63861,64361,-10,61
Sprite,Background,Centre,"StoryBoard\Dot.png",-10,228 F,2,63861,64361,0.84,0 S,0,63861,64361,0.191 C,0,63861,64361,203,200,255 MX,1,63861,64361,-10,63
Sprite,Background,Centre,"StoryBoard\Dot.png",-10,95 F,2,63861,64361,0.62,0 S,0,63861,64361,0.194 C,0,63861,64361,200,232,255 MX,1,63861,64361,-10,48
Sprite,Background,Centre,"StoryBoard\Dot.png",-10,228 F,2,63861,64361,0.76,0 S,0,63861,64361,0.11 C,0,63861,64361,239,200,255 MX,1,63861,64361,-10,65
Sprite,Background,Centre,"StoryBoard\Dot.png",-10,118 F,2,63861,64361,0.74,0 S,0,63861,64361,0.056 C,0,63861,64361,214,255,200 MX,1,63861,64361,-10,83
Sprite,Background,Centre,"StoryBoard\Dot.png",-10,452 F,2,63861,64361,0.78,0 S,0,63861,64361,0.187 C,0,63861,64361,255,216,200 MX,1,63861,64361,-10,87
Sprite,Background,Centre,"StoryBoard\Dot.png",-10,462 F,2,63861,64361,1,0 S,0,63861,64361,0.134 C,0,63861,64361,255,200,215 MX,1,63861,64361,-10,25
Sprite,Background,Centre,"StoryBoard\Dot.png",-10,234 F,2,63861,64361,0.85,0 S,0,63861,64361,0.155 C,0,63861,64361,255,236,200 MX,1,63861,64361,-10,50
Sprite,Background,Centre,"StoryBoard\Dot.png",-10,75 F,2,63861,64361,0.9,0 S,0,63861,64361,0.111 C,0,63861,64361,255,216,200 MX,1,63861,64361,-10,66
Sprite,Background,Centre,"StoryBoard\Dot.png",-10,351 F,2,63861,64361,0.69,0 S,0,63861,64361,0.155 C,0,63861,64361,255,200,215 MX,1,63861,64361,-10,52
Sprite,Background,Centre,"StoryBoard\Dot.png",-10,14 F,2,63861,64361,0.87,0 S,0,63861,64361,0.083 C,0,63861,64361,255,216,200 MX,1,63861,64361,-10,50
Sprite,Background,Centre,"StoryBoard\Dot.png",-10,183 F,2,63861,64361,0.76,0 S,0,63861,64361,0.115 C,0,63861,64361,200,232,255 MX,1,63861,64361,-10,94
Sprite,Background,Centre,"StoryBoard\Dot.png",-10,101 F,2,63861,64361,1,0 S,0,63861,64361,0.129 C,0,63861,64361,255,236,200 MX,1,63861,64361,-10,46
Sprite,Background,Centre,"StoryBoard\Dot.png",-10,414 F,2,63861,64361,0.74,0 S,0,63861,64361,0.154 C,0,63861,64361,255,236,200 MX,1,63861,64361,-10,42
Sprite,Background,Centre,"StoryBoard\Dot.png",-10,378 F,2,63861,64361,0.88,0 S,0,63861,64361,0.087 C,0,63861,64361,203,200,255 MX,1,63861,64361,-10,35
Sprite,Background,Centre,"StoryBoard\Dot.png",-10,241 F,2,63861,64361,0.74,0 S,0,63861,64361,0.136 C,0,63861,64361,239,200,255 MX,1,63861,64361,-10,50
Sprite,Background,Centre,"StoryBoard\Dot.png",-10,208 F,2,63861,64361,0.63,0 S,0,63861,64361,0.197 C,0,63861,64361,240,255,200 MX,1,63861,64361,-10,75
Sprite,Background,Centre,"StoryBoard\Dot.png",-10,378 F,2,63861,64361,0.66,0 S,0,63861,64361,0.098 C,0,63861,64361,239,200,255 MX,1,63861,64361,-10,63
Sprite,Background,Centre,"StoryBoard\Dot.png",364,266 F,2,79611,80277,1,0 S,0,79611,80277,0.171,0.221 C,0,79611,80277,214,255,200
Sprite,Background,Centre,"StoryBoard\Dot.png",28,438 F,2,79611,80277,0.88,0 S,0,79611,80277,0.101,0.151 C,0,79611,80277,255,200,215
Sprite,Background,Centre,"StoryBoard\Dot.png",221,462 F,2,79611,80277,0.65,0 S,0,79611,80277,0.141,0.191 C,0,79611,80277,255,236,200
Sprite,Background,Centre,"StoryBoard\Dot.png",236,101 F,2,79611,80277,0.61,0 S,0,79611,80277,0.177,0.227 C,0,79611,80277,200,255,228
Sprite,Background,Centre,"StoryBoard\Dot.png",466,95 F,2,79611,80277,0.93,0 S,0,79611,80277,0.094,0.144 C,0,79611,80277,214,255,200
Sprite,Background,Centre,"StoryBoard\Dot.png",636,314 F,2,79944,80610,0.92,0 S,0,79944,80610,0.198,0.248 C,0,79944,80610,239,200,255
Sprite,Background,Centre,"StoryBoard\Dot.png",112,464 F,2,79944,80610,0.83,0 S,0,79944,80610,0.166,0.216 C,0,79944,80610,255,200,235
Sprite,Background,Centre,"StoryBoard\Dot.png",633,145 F,2,79944,80610,0.68,0 S,0,79944,80610,0.126,0.176 C,0,79944,80610,255,200,235
Sprite,Background,Centre,"StoryBoard\Dot.png",549,127 F,2,79944,80610,0.84,0 S,0,79944,80610,0.052,0.102 C,0,79944,80610,214,255,200
Sprite,Background,Centre,"StoryBoard\Dot.png",411,275 F,2,79944,80610,0.71,0 S,0,79944,80610,0.088,0.138 C,0,79944,80610,240,255,200
Sprite,Background,Centre,"StoryBoard\Dot.png",85,311 F,2,80277,80943,0.76,0 S,0,80277,80943,0.106,0.156 C,0,80277,80943,255,236,200
Sprite,Background,Centre,"StoryBoard\Dot.png",52,80 F,2,80277,80943,0.75,0 S,0,80277,80943,0.132,0.182 C,0,80277,80943,240,255,200
Sprite,Background,Centre,"StoryBoard\Dot.png",166,133 F,2,80277,80943,0.71,0 S,0,80277,80943,0.191,0.241 C,0,80277,80943,203,200,255
Sprite,Background,Centre,"StoryBoard\Dot.png",553,5 F,2,80277,80943,0.85,0 S,0,80277,80943,0.071,0.121 C,0,80277,80943,255,200,235
Sprite,Background,Centre,"StoryBoard\Dot.png",159,175 F,2,80277,80943,0.83,0 S,0,80277,80943,0.08,0.13 C,0,80277,80943,255,216,200
Sprite,Background,Centre,"StoryBoard\Dot.png",116,211 F,2,80610,81276,0.79,0 S,0,80610,81276,0.071,0.121 C,0,80610,81276,239,200,255
Sprite,Background,Centre,"StoryBoard\Dot.png",599,472 F,2,80610,81276,1,0 S,0,80610,81276,0.166,0.216 C,0,80610,81276,214,255,200
Sprite,Background,Centre,"StoryBoard\Dot.png",120,249 F,2,80610,81276,0.72,0 S,0,80610,81276,0.119,0.169 C,0,80610,81276,255,236,200
Sprite,Background,Centre,"StoryBoard\Dot.png",454,69 F,2,80610,81276,0.66,0 S,0,80610,81276,0.125,0.175 C,0,80610,81276,255,200,215
Sprite,Background,Centre,"StoryBoard\Dot.png",144,116 F,2,80610,81276,0.76,0 S,0,80610,81276,0.198,0.248 C,0,80610,81276,255,216,200
Sprite,Background,Centre,"StoryBoard\Dot.png",61,451 F,2,80943,81609,0.88,0 S,0,80943,81609,0.14,0.19 C,0,80943,81609,255,236,200
Sprite,Background,Centre,"StoryBoard\Dot.png",328,150 F,2,80943,81609,0.95,0 S,0,80943,81609,0.088,0.138 C,0,80943,81609,255,216,200
Sprite,Background,Centre,"StoryBoard\Dot.png",295,472 F,2,80943,81609,0.66,0 S,0,80943,81609,0.179,0.229 C,0,80943,81609,239,200,255
Sprite,Background,Centre,"StoryBoard\Dot.png",206,267 F,2,80943,81609,0.79,0 S,0,80943,81609,0.165,0.215 C,0,80943,81609,200,232,255
Sprite,Background,Centre,"StoryBoard\Dot.png",602,152 F,2,80943,81609,0.9,0 S,0,80943,81609,0.085,0.135 C,0,80943,81609,214,255,200
Sprite,Background,Centre,"StoryBoard\Dot.png",522,388 F,2,81276,81942,0.65,0 S,0,81276,81942,0.16,0.21 C,0,81276,81942,214,255,200
Sprite,Background,Centre,"StoryBoard\Dot.png",27,234 F,2,81276,81942,0.65,0 S,0,81276,81942,0.09,0.14 C,0,81276,81942,200,255,228
Sprite,Background,Centre,"StoryBoard\Dot.png",556,223 F,2,81276,81942,0.62,0 S,0,81276,81942,0.157,0.207 C,0,81276,81942,203,200,255
Sprite,Background,Centre,"StoryBoard\Dot.png",468,381 F,2,81276,81942,0.83,0 S,0,81276,81942,0.133,0.183 C,0,81276,81942,255,200,235
Sprite,Background,Centre,"StoryBoard\Dot.png",147,464 F,2,81276,81942,0.9,0 S,0,81276,81942,0.173,0.223 C,0,81276,81942,214,255,200
Sprite,Background,Centre,"StoryBoard\Dot.png",588,1 F,2,81609,82275,0.81,0 S,0,81609,82275,0.123,0.173 C,0,81609,82275,255,200,235
Sprite,Background,Centre,"StoryBoard\Dot.png",448,161 F,2,81609,82275,0.64,0 S,0,81609,82275,0.116,0.166 C,0,81609,82275,239,200,255
Sprite,Background,Centre,"StoryBoard\Dot.png",449,456 F,2,81609,82275,0.83,0 S,0,81609,82275,0.11,0.16 C,0,81609,82275,239,200,255
Sprite,Background,Centre,"StoryBoard\Dot.png",273,391 F,2,81609,82275,0.6,0 S,0,81609,82275,0.187,0.237 C,0,81609,82275,255,200,215
Sprite,Background,Centre,"StoryBoard\Dot.png",53,431 F,2,81609,82275,0.99,0 S,0,81609,82275,0.18,0.23 C,0,81609,82275,203,200,255
Sprite,Background,Centre,"StoryBoard\Dot.png",270,221 F,2,81942,82608,0.78,0 S,0,81942,82608,0.189,0.239 C,0,81942,82608,200,255,228
Sprite,Background,Centre,"StoryBoard\Dot.png",524,51 F,2,81942,82608,0.9,0 S,0,81942,82608,0.081,0.131 C,0,81942,82608,240,255,200
Sprite,Background,Centre,"StoryBoard\Dot.png",442,399 F,2,81942,82608,0.81,0 S,0,81942,82608,0.154,0.204 C,0,81942,82608,255,200,215
Sprite,Background,Centre,"StoryBoard\Dot.png",163,71 F,2,81942,82608,0.69,0 S,0,81942,82608,0.184,0.234 C,0,81942,82608,203,200,255
Sprite,Background,Centre,"StoryBoard\Dot.png",370,77 F,2,81942,82608,0.96,0 S,0,81942,82608,0.165,0.215 C,0,81942,82608,255,236,200
Sprite,Background,Centre,"StoryBoard\Dot.png",610,460 F,2,82275,82941,0.71,0 S,0,82275,82941,0.062,0.112 C,0,82275,82941,239,200,255
Sprite,Background,Centre,"StoryBoard\Dot.png",378,262 F,2,82275,82941,0.79,0 S,0,82275,82941,0.167,0.217 C,0,82275,82941,240,255,200
Sprite,Background,Centre,"StoryBoard\Dot.png",248,430 F,2,82275,82941,0.68,0 S,0,82275,82941,0.109,0.159 C,0,82275,82941,203,200,255
Sprite,Background,Centre,"StoryBoard\Dot.png",522,449 F,2,82275,82941,0.6,0 S,0,82275,82941,0.16,0.21 C,0,82275,82941,255,216,200
Sprite,Background,Centre,"StoryBoard\Dot.png",290,454 F,2,82275,82941,0.72,0 S,0,82275,82941,0.107,0.157 C,0,82275,82941,200,232,255
Sprite,Background,Centre,"StoryBoard\Dot.png",429,49 F,2,82608,83274,0.92,0 S,0,82608,83274,0.05,0.1 C,0,82608,83274,255,236,200
Sprite,Background,Centre,"StoryBoard\Dot.png",530,50 F,2,82608,83274,0.9,0 S,0,82608,83274,0.173,0.223 C,0,82608,83274,255,236,200
Sprite,Background,Centre,"StoryBoard\Dot.png",441,308 F,2,82608,83274,0.78,0 S,0,82608,83274,0.146,0.196 C,0,82608,83274,255,200,235
Sprite,Background,Centre,"StoryBoard\Dot.png",442,369 F,2,82608,83274,0.62,0 S,0,82608,83274,0.131,0.181 C,0,82608,83274,239,200,255
Sprite,Background,Centre,"StoryBoard\Dot.png",35,38 F,2,82608,83274,0.82,0 S,0,82608,83274,0.053,0.103 C,0,82608,83274,200,232,255
Sprite,Background,Centre,"StoryBoard\Dot.png",561,13 F,2,82941,83607,0.73,0 S,0,82941,83607,0.128,0.178 C,0,82941,83607,255,200,215
Sprite,Background,Centre,"StoryBoard\Dot.png",188,125 F,2,82941,83607,0.82,0 S,0,82941,83607,0.13,0.18 C,0,82941,83607,255,200,235
Sprite,Background,Centre,"StoryBoard\Dot.png",372,450 F,2,82941,83607,0.99,0 S,0,82941,83607,0.089,0.139 C,0,82941,83607,255,236,200
Sprite,Background,Centre,"StoryBoard\Dot.png",238,156 F,2,82941,83607,0.73,0 S,0,82941,83607,0.079,0.129 C,0,82941,83607,239,200,255
Sprite,Background,Centre,"StoryBoard\Dot.png",20,273 F,2,82941,83607,1,0 S,0,82941,83607,0.106,0.156 C,0,82941,83607,214,255,200
Sprite,Background,Centre,"StoryBoard\Dot.png",216,134 F,2,83274,83940,0.88,0 S,0,83274,83940,0.091,0.141 C,0,83274,83940,239,200,255
Sprite,Background,Centre,"StoryBoard\Dot.png",406,361 F,2,83274,83940,0.86,0 S,0,83274,83940,0.156,0.206 C,0,83274,83940,200,232,255
Sprite,Background,Centre,"StoryBoard\Dot.png",578,64 F,2,83274,83940,0.73,0 S,0,83274,83940,0.097,0.147 C,0,83274,83940,239,200,255
Sprite,Background,Centre,"StoryBoard\Dot.png",458,120 F,2,83274,83940,0.96,0 S,0,83274,83940,0.161,0.211 C,0,83274,83940,255,200,235
Sprite,Background,Centre,"StoryBoard\Dot.png",544,97 F,2,83274,83940,0.8,0 S,0,83274,83940,0.128,0.178 C,0,83274,83940,200,255,228
Sprite,Background,Centre,"StoryBoard\Dot.png",345,323 F,2,83607,84273,0.73,0 S,0,83607,84273,0.189,0.239 C,0,83607,84273,200,255,228
Sprite,Background,Centre,"StoryBoard\Dot.png",243,240 F,2,83607,84273,0.85,0 S,0,83607,84273,0.077,0.127 C,0,83607,84273,214,255,200
Sprite,Background,Centre,"StoryBoard\Dot.png",473,446 F,2,83607,84273,0.68,0 S,0,83607,84273,0.064,0.114 C,0,83607,84273,214,255,200
Sprite,Background,Centre,"StoryBoard\Dot.png",95,123 F,2,83607,84273,0.85,0 S,0,83607,84273,0.079,0.129 C,0,83607,84273,200,232,255
Sprite,Background,Centre,"StoryBoard\Dot.png",536,199 F,2,83607,84273,0.93,0 S,0,83607,84273,0.057,0.107 C,0,83607,84273,203,200,255
Sprite,Background,Centre,"StoryBoard\Dot.png",199,362 F,2,83940,84606,0.77,0 S,0,83940,84606,0.135,0.185 C,0,83940,84606,239,200,255
Sprite,Background,Centre,"StoryBoard\Dot.png",199,431 F,2,83940,84606,0.98,0 S,0,83940,84606,0.092,0.142 C,0,83940,84606,255,200,215
Sprite,Background,Centre,"StoryBoard\Dot.png",170,371 F,2,83940,84606,0.7,0 S,0,83940,84606,0.097,0.147 C,0,83940,84606,255,200,215
Sprite,Background,Centre,"StoryBoard\Dot.png",454,350 F,2,83940,84606,0.75,0 S,0,83940,84606,0.132,0.182 C,0,83940,84606,200,232,255
Sprite,Background,Centre,"StoryBoard\Dot.png",162,172 F,2,83940,84606,1,0 S,0,83940,84606,0.144,0.194 C,0,83940,84606,255,236,200
Sprite,Background,Centre,"StoryBoard\Dot.png",553,269 F,2,84273,84939,0.92,0 S,0,84273,84939,0.157,0.207 C,0,84273,84939,200,232,255
Sprite,Background,Centre,"StoryBoard\Dot.png",272,163 F,2,84273,84939,0.94,0 S,0,84273,84939,0.121,0.171 C,0,84273,84939,200,232,255
Sprite,Background,Centre,"StoryBoard\Dot.png",254,117 F,2,84273,84939,0.95,0 S,0,84273,84939,0.06,0.11 C,0,84273,84939,239,200,255
Sprite,Background,Centre,"StoryBoard\Dot.png",609,65 F,2,84273,84939,0.92,0 S,0,84273,84939,0.087,0.137 C,0,84273,84939,239,200,255
Sprite,Background,Centre,"StoryBoard\Dot.png",290,146 F,2,84273,84939,0.75,0 S,0,84273,84939,0.141,0.191 C,0,84273,84939,200,255,228
Sprite,Background,Centre,"StoryBoard\Dot.png",512,91 F,2,84606,85272,0.89,0 S,0,84606,85272,0.156,0.206 C,0,84606,85272,255,200,215
Sprite,Background,Centre,"StoryBoard\Dot.png",197,145 F,2,84606,85272,0.64,0 S,0,84606,85272,0.075,0.125 C,0,84606,85272,200,255,228
Sprite,Background,Centre,"StoryBoard\Dot.png",460,352 F,2,84606,85272,0.78,0 S,0,84606,85272,0.105,0.155 C,0,84606,85272,239,200,255
Sprite,Background,Centre,"StoryBoard\Dot.png",40,363 F,2,84606,85272,0.7,0 S,0,84606,85272,0.114,0.164 C,0,84606,85272,203,200,255
Sprite,Background,Centre,"StoryBoard\Dot.png",88,441 F,2,84606,85272,0.77,0 S,0,84606,85272,0.054,0.104 C,0,84606,85272,255,200,235
Sprite,Background,Centre,"StoryBoard\Dot.png",200,75 F,2,84939,85605,0.72,0 S,0,84939,85605,0.111,0.161 C,0,84939,85605,200,232,255
Sprite,Background,Centre,"StoryBoard\Dot.png",2,270 F,2,84939,85605,0.78,0 S,0,84939,85605,0.181,0.231 C,0,84939,85605,255,236,200
Sprite,Background,Centre,"StoryBoard\Dot.png",353,22 F,2,84939,85605,0.83,0 S,0,84939,85605,0.139,0.189 C,0,84939,85605,214,255,200
Sprite,Background,Centre,"StoryBoard\Dot.png",304,477 F,2,84939,85605,0.93,0 S,0,84939,85605,0.129,0.179 C,0,84939,85605,255,200,215
Sprite,Background,Centre,"StoryBoard\Dot.png",189,233 F,2,84939,85605,0.68,0 S,0,84939,85605,0.071,0.121 C,0,84939,85605,200,255,228
Sprite,Background,Centre,"StoryBoard\Dot.png",328,27 F,2,85272,85938,0.99,0 S,0,85272,85938,0.191,0.241 C,0,85272,85938,214,255,200
Sprite,Background,Centre,"StoryBoard\Dot.png",347,132 F,2,85272,85938,0.78,0 S,0,85272,85938,0.183,0.233 C,0,85272,85938,255,236,200
Sprite,Background,Centre,"StoryBoard\Dot.png",344,78 F,2,85272,85938,0.91,0 S,0,85272,85938,0.061,0.111 C,0,85272,85938,203,200,255
Sprite,Background,Centre,"StoryBoard\Dot.png",289,280 F,2,85272,85938,0.86,0 S,0,85272,85938,0.135,0.185 C,0,85272,85938,240,255,200
Sprite,Background,Centre,"StoryBoard\Dot.png",521,224 F,2,85272,85938,0.83,0 S,0,85272,85938,0.138,0.188 C,0,85272,85938,200,232,255
Sprite,Background,Centre,"StoryBoard\Dot.png",19,384 F,2,85605,86271,0.62,0 S,0,85605,86271,0.089,0.139 C,0,85605,86271,239,200,255
Sprite,Background,Centre,"StoryBoard\Dot.png",11,117 F,2,85605,86271,0.76,0 S,0,85605,86271,0.155,0.205 C,0,85605,86271,239,200,255
Sprite,Background,Centre,"StoryBoard\Dot.png",262,79 F,2,85605,86271,0.95,0 S,0,85605,86271,0.076,0.126 C,0,85605,86271,214,255,200
Sprite,Background,Centre,"StoryBoard\Dot.png",535,2 F,2,85605,86271,0.83,0 S,0,85605,86271,0.083,0.133 C,0,85605,86271,255,200,215
Sprite,Background,Centre,"StoryBoard\Dot.png",1,250 F,2,85605,86271,0.87,0 S,0,85605,86271,0.165,0.215 C,0,85605,86271,239,200,255
Sprite,Background,Centre,"StoryBoard\Dot.png",251,152 F,2,85938,86604,0.91,0 S,0,85938,86604,0.152,0.202 C,0,85938,86604,200,255,228
Sprite,Background,Centre,"StoryBoard\Dot.png",417,85 F,2,85938,86604,0.72,0 S,0,85938,86604,0.097,0.147 C,0,85938,86604,214,255,200
Sprite,Background,Centre,"StoryBoard\Dot.png",93,304 F,2,85938,86604,0.77,0 S,0,85938,86604,0.187,0.237 C,0,85938,86604,203,200,255
Sprite,Background,Centre,"StoryBoard\Dot.png",528,398 F,2,85938,86604,0.71,0 S,0,85938,86604,0.077,0.127 C,0,85938,86604,214,255,200
Sprite,Background,Centre,"StoryBoard\Dot.png",255,432 F,2,85938,86604,0.96,0 S,0,85938,86604,0.095,0.145 C,0,85938,86604,255,200,215
Sprite,Background,Centre,"StoryBoard\Dot.png",208,255 F,2,86271,86937,0.97,0 S,0,86271,86937,0.051,0.101 C,0,86271,86937,200,232,255
Sprite,Background,Centre,"StoryBoard\Dot.png",276,113 F,2,86271,86937,0.62,0 S,0,86271,86937,0.089,0.139 C,0,86271,86937,255,200,215
Sprite,Background,Centre,"StoryBoard\Dot.png",452,161 F,2,86271,86937,0.69,0 S,0,86271,86937,0.2,0.25 C,0,86271,86937,239,200,255
Sprite,Background,Centre,"StoryBoard\Dot.png",551,44 F,2,86271,86937,0.95,0 S,0,86271,86937,0.117,0.167 C,0,86271,86937,255,200,235
Sprite,Background,Centre,"StoryBoard\Dot.png",599,69 F,2,86271,86937,0.84,0 S,0,86271,86937,0.146,0.196 C,0,86271,86937,214,255,200
Sprite,Background,Centre,"StoryBoard\Dot.png",54,243 F,2,86604,87270,0.89,0 S,0,86604,87270,0.136,0.186 C,0,86604,87270,255,200,235
Sprite,Background,Centre,"StoryBoard\Dot.png",3,48 F,2,86604,87270,0.85,0 S,0,86604,87270,0.127,0.177 C,0,86604,87270,255,200,235
Sprite,Background,Centre,"StoryBoard\Dot.png",6,124 F,2,86604,87270,0.79,0 S,0,86604,87270,0.181,0.231 C,0,86604,87270,255,200,235
Sprite,Background,Centre,"StoryBoard\Dot.png",606,110 F,2,86604,87270,0.87,0 S,0,86604,87270,0.158,0.208 C,0,86604,87270,255,200,215
Sprite,Background,Centre,"StoryBoard\Dot.png",190,133 F,2,86604,87270,0.62,0 S,0,86604,87270,0.073,0.123 C,0,86604,87270,203,200,255
Sprite,Background,Centre,"StoryBoard\Dot.png",425,208 F,2,86937,87603,0.91,0 S,0,86937,87603,0.134,0.184 C,0,86937,87603,203,200,255
Sprite,Background,Centre,"StoryBoard\Dot.png",615,106 F,2,86937,87603,0.8,0 S,0,86937,87603,0.106,0.156 C,0,86937,87603,214,255,200
Sprite,Background,Centre,"StoryBoard\Dot.png",557,96 F,2,86937,87603,0.99,0 S,0,86937,87603,0.105,0.155 C,0,86937,87603,203,200,255
Sprite,Background,Centre,"StoryBoard\Dot.png",361,304 F,2,86937,87603,0.92,0 S,0,86937,87603,0.123,0.173 C,0,86937,87603,239,200,255
Sprite,Background,Centre,"StoryBoard\Dot.png",348,11 F,2,86937,87603,0.76,0 S,0,86937,87603,0.146,0.196 C,0,86937,87603,200,255,228
Sprite,Background,Centre,"StoryBoard\Dot.png",303,279 F,2,87270,87936,0.63,0 S,0,87270,87936,0.164,0.214 C,0,87270,87936,200,255,228
Sprite,Background,Centre,"StoryBoard\Dot.png",516,63 F,2,87270,87936,0.77,0 S,0,87270,87936,0.147,0.197 C,0,87270,87936,200,232,255
Sprite,Background,Centre,"StoryBoard\Dot.png",11,252 F,2,87270,87936,0.65,0 S,0,87270,87936,0.063,0.113 C,0,87270,87936,203,200,255
Sprite,Background,Centre,"StoryBoard\Dot.png",615,215 F,2,87270,87936,0.61,0 S,0,87270,87936,0.197,0.247 C,0,87270,87936,255,200,215
Sprite,Background,Centre,"StoryBoard\Dot.png",450,51 F,2,87270,87936,0.7,0 S,0,87270,87936,0.162,0.212 C,0,87270,87936,203,200,255
Sprite,Background,Centre,"StoryBoard\Dot.png",18,75 F,2,87603,88269,0.68,0 S,0,87603,88269,0.112,0.162 C,0,87603,88269,240,255,200
Sprite,Background,Centre,"StoryBoard\Dot.png",315,110 F,2,87603,88269,0.68,0 S,0,87603,88269,0.175,0.225 C,0,87603,88269,255,200,215
Sprite,Background,Centre,"StoryBoard\Dot.png",117,390 F,2,87603,88269,0.65,0 S,0,87603,88269,0.111,0.161 C,0,87603,88269,255,200,235
Sprite,Background,Centre,"StoryBoard\Dot.png",35,385 F,2,87603,88269,0.89,0 S,0,87603,88269,0.148,0.198 C,0,87603,88269,255,200,215
Sprite,Background,Centre,"StoryBoard\Dot.png",388,348 F,2,87603,88269,0.84,0 S,0,87603,88269,0.189,0.239 C,0,87603,88269,203,200,255
Sprite,Background,Centre,"StoryBoard\Dot.png",457,182 F,2,87936,88602,0.68,0 S,0,87936,88602,0.124,0.174 C,0,87936,88602,200,255,228
Sprite,Background,Centre,"StoryBoard\Dot.png",120,290 F,2,87936,88602,0.82,0 S,0,87936,88602,0.104,0.154 C,0,87936,88602,214,255,200
Sprite,Background,Centre,"StoryBoard\Dot.png",524,293 F,2,87936,88602,0.93,0 S,0,87936,88602,0.082,0.132 C,0,87936,88602,214,255,200
Sprite,Background,Centre,"StoryBoard\Dot.png",383,57 F,2,87936,88602,0.99,0 S,0,87936,88602,0.147,0.197 C,0,87936,88602,200,255,228
Sprite,Background,Centre,"StoryBoard\Dot.png",344,423 F,2,87936,88602,0.67,0 S,0,87936,88602,0.095,0.145 C,0,87936,88602,255,200,235
Sprite,Background,Centre,"StoryBoard\Dot.png",284,225 F,2,88269,88935,0.92,0 S,0,88269,88935,0.059,0.109 C,0,88269,88935,255,216,200
Sprite,Background,Centre,"StoryBoard\Dot.png",465,178 F,2,88269,88935,0.88,0 S,0,88269,88935,0.076,0.126 C,0,88269,88935,239,200,255
Sprite,Background,Centre,"StoryBoard\Dot.png",563,64 F,2,88269,88935,0.7,0 S,0,88269,88935,0.154,0.204 C,0,88269,88935,239,200,255
Sprite,Background,Centre,"StoryBoard\Dot.png",405,236 F,2,88269,88935,0.88,0 S,0,88269,88935,0.102,0.152 C,0,88269,88935,240,255,200
Sprite,Background,Centre,"StoryBoard\Dot.png",8,12 F,2,88269,88935,0.82,0 S,0,88269,88935,0.073,0.123 C,0,88269,88935,203,200,255
Sprite,Background,Centre,"StoryBoard\Dot.png",76,461 F,2,88602,89268,0.7,0 S,0,88602,89268,0.052,0.102 C,0,88602,89268,255,236,200
Sprite,Background,Centre,"StoryBoard\Dot.png",58,158 F,2,88602,89268,0.64,0 S,0,88602,89268,0.1,0.15 C,0,88602,89268,240,255,200
Sprite,Background,Centre,"StoryBoard\Dot.png",331,163 F,2,88602,89268,0.79,0 S,0,88602,89268,0.117,0.167 C,0,88602,89268,200,255,228
Sprite,Background,Centre,"StoryBoard\Dot.png",481,196 F,2,88602,89268,0.69,0 S,0,88602,89268,0.166,0.216 C,0,88602,89268,255,236,200
Sprite,Background,Centre,"StoryBoard\Dot.png",533,115 F,2,88602,89268,0.71,0 S,0,88602,89268,0.15,0.2 C,0,88602,89268,203,200,255
Sprite,Background,Centre,"StoryBoard\Dot.png",496,367 F,2,88935,89601,0.92,0 S,0,88935,89601,0.18,0.23 C,0,88935,89601,203,200,255
Sprite,Background,Centre,"StoryBoard\Dot.png",227,71 F,2,88935,89601,0.73,0 S,0,88935,89601,0.134,0.184 C,0,88935,89601,255,200,235
Sprite,Background,Centre,"StoryBoard\Dot.png",560,319 F,2,88935,89601,0.95,0 S,0,88935,89601,0.116,0.166 C,0,88935,89601,200,255,228
Sprite,Background,Centre,"StoryBoard\Dot.png",318,378 F,2,88935,89601,0.64,0 S,0,88935,89601,0.089,0.139 C,0,88935,89601,255,200,215
Sprite,Background,Centre,"StoryBoard\Dot.png",130,295 F,2,88935,89601,0.83,0 S,0,88935,89601,0.101,0.151 C,0,88935,89601,255,216,200
Sprite,Background,Centre,"StoryBoard\Dot.png",267,233 F,2,89268,89934,0.62,0 S,0,89268,89934,0.069,0.119 C,0,89268,89934,239,200,255
Sprite,Background,Centre,"StoryBoard\Dot.png",444,330 F,2,89268,89934,0.95,0 S,0,89268,89934,0.157,0.207 C,0,89268,89934,255,200,215
Sprite,Background,Centre,"StoryBoard\Dot.png",254,458 F,2,89268,89934,0.67,0 S,0,89268,89934,0.056,0.106 C,0,89268,89934,255,216,200
Sprite,Background,Centre,"StoryBoard\Dot.png",617,276 F,2,89268,89934,0.81,0 S,0,89268,89934,0.135,0.185 C,0,89268,89934,255,236,200
Sprite,Background,Centre,"StoryBoard\Dot.png",397,370 F,2,89268,89934,0.79,0 S,0,89268,89934,0.131,0.181 C,0,89268,89934,200,255,228
Sprite,Background,Centre,"StoryBoard\Dot.png",505,400 F,2,89601,90267,0.71,0 S,0,89601,90267,0.186,0.236 C,0,89601,90267,239,200,255
Sprite,Background,Centre,"StoryBoard\Dot.png",338,139 F,2,89601,90267,0.64,0 S,0,89601,90267,0.106,0.156 C,0,89601,90267,255,200,215
Sprite,Background,Centre,"StoryBoard\Dot.png",500,227 F,2,89601,90267,0.62,0 S,0,89601,90267,0.166,0.216 C,0,89601,90267,240,255,200
Sprite,Background,Centre,"StoryBoard\Dot.png",21,181 F,2,89601,90267,0.69,0 S,0,89601,90267,0.07,0.12 C,0,89601,90267,214,255,200
Sprite,Background,Centre,"StoryBoard\Dot.png",253,415 F,2,89601,90267,0.67,0 S,0,89601,90267,0.186,0.236 C,0,89601,90267,255,200,235
Sprite,Background,Centre,"StoryBoard\Dot.png",29,416 F,2,89934,90600,0.76,0 S,0,89934,90600,0.176,0.226 C,0,89934,90600,255,200,235
Sprite,Background,Centre,"StoryBoard\Dot.png",432,466 F,2,89934,90600,0.86,0 S,0,89934,90600,0.08,0.13 C,0,89934,90600,255,200,235
Sprite,Background,Centre,"StoryBoard\Dot.png",504,263 F,2,89934,90600,0.7,0 S,0,89934,90600,0.175,0.225 C,0,89934,90600,200,232,255
Sprite,Background,Centre,"StoryBoard\Dot.png",194,192 F,2,89934,90600,0.8,0 S,0,89934,90600,0.113,0.163 C,0,89934,90600,203,200,255
Sprite,Background,Centre,"StoryBoard\Dot.png",458,245 F,2,89934,90600,0.76,0 S,0,89934,90600,0.151,0.201 C,0,89934,90600,255,236,200
Sprite,Background,Centre,"StoryBoard\Dot.png",586,376 F,2,90267,90933,0.96,0 S,0,90267,90933,0.11,0.16 C,0,90267,90933,255,236,200
Sprite,Background,Centre,"StoryBoard\Dot.png",160,220 F,2,90267,90933,0.78,0 S,0,90267,90933,0.185,0.235 C,0,90267,90933,255,200,215
Sprite,Background,Centre,"StoryBoard\Dot.png",17,241 F,2,90267,90933,0.91,0 S,0,90267,90933,0.136,0.186 C,0,90267,90933,239,200,255
Sprite,Background,Centre,"StoryBoard\Dot.png",359,242 F,2,90267,90933,0.97,0 S,0,90267,90933,0.09,0.14 C,0,90267,90933,255,236,200
Sprite,Background,Centre,"StoryBoard\Dot.png",551,152 F,2,90267,90933,0.67,0 S,0,90267,90933,0.064,0.114 C,0,90267,90933,240,255,200
Sprite,Background,Centre,"StoryBoard\Dot.png",590,88 F,2,90600,91266,0.63,0 S,0,90600,91266,0.185,0.235 C,0,90600,91266,255,200,235
Sprite,Background,Centre,"StoryBoard\Dot.png",356,280 F,2,90600,91266,0.91,0 S,0,90600,91266,0.089,0.139 C,0,90600,91266,255,200,235
Sprite,Background,Centre,"StoryBoard\Dot.png",222,364 F,2,90600,91266,0.84,0 S,0,90600,91266,0.058,0.108 C,0,90600,91266,239,200,255
Sprite,Background,Centre,"StoryBoard\Dot.png",112,61 F,2,90600,91266,0.68,0 S,0,90600,91266,0.145,0.195 C,0,90600,91266,255,236,200
Sprite,Background,Centre,"StoryBoard\Dot.png",591,412 F,2,90600,91266,0.96,0 S,0,90600,91266,0.101,0.151 C,0,90600,91266,255,200,235
Sprite,Background,Centre,"StoryBoard\Dot.png",275,127 F,2,90933,91599,0.62,0 S,0,90933,91599,0.076,0.126 C,0,90933,91599,255,236,200
Sprite,Background,Centre,"StoryBoard\Dot.png",33,10 F,2,90933,91599,0.99,0 S,0,90933,91599,0.132,0.182 C,0,90933,91599,255,200,235
Sprite,Background,Centre,"StoryBoard\Dot.png",306,47 F,2,90933,91599,0.99,0 S,0,90933,91599,0.175,0.225 C,0,90933,91599,255,236,200
Sprite,Background,Centre,"StoryBoard\Dot.png",315,379 F,2,90933,91599,0.62,0 S,0,90933,91599,0.057,0.107 C,0,90933,91599,214,255,200
Sprite,Background,Centre,"StoryBoard\Dot.png",298,178 F,2,90933,91599,0.7,0 S,0,90933,91599,0.188,0.238 C,0,90933,91599,200,255,228
Sprite,Background,Centre,"StoryBoard\Dot.png",636,60 F,2,91266,91932,0.65,0 S,0,91266,91932,0.174,0.224 C,0,91266,91932,203,200,255
Sprite,Background,Centre,"StoryBoard\Dot.png",605,367 F,2,91266,91932,0.97,0 S,0,91266,91932,0.07,0.12 C,0,91266,91932,200,255,228
Sprite,Background,Centre,"StoryBoard\Dot.png",260,406 F,2,91266,91932,0.76,0 S,0,91266,91932,0.177,0.227 C,0,91266,91932,255,200,215
Sprite,Background,Centre,"StoryBoard\Dot.png",558,323 F,2,91266,91932,0.81,0 S,0,91266,91932,0.056,0.106 C,0,91266,91932,239,200,255
Sprite,Background,Centre,"StoryBoard\Dot.png",487,389 F,2,91266,91932,0.92,0 S,0,91266,91932,0.084,0.134 C,0,91266,91932,200,232,255
Sprite,Background,Centre,"StoryBoard\Dot.png",575,322 F,2,91599,92265,0.63,0 S,0,91599,92265,0.069,0.119 C,0,91599,92265,239,200,255
Sprite,Background,Centre,"StoryBoard\Dot.png",456,417 F,2,91599,92265,0.88,0 S,0,91599,92265,0.12,0.17 C,0,91599,92265,255,200,235
Sprite,Background,Centre,"StoryBoard\Dot.png",35,281 F,2,91599,92265,0.88,0 S,0,91599,92265,0.134,0.184 C,0,91599,92265,203,200,255
Sprite,Background,Centre,"StoryBoard\Dot.png",390,80 F,2,91599,92265,0.86,0 S,0,91599,92265,0.14,0.19 C,0,91599,92265,239,200,255
Sprite,Background,Centre,"StoryBoard\Dot.png",579,91 F,2,91599,92265,0.66,0 S,0,91599,92265,0.056,0.106 C,0,91599,92265,255,216,200
Sprite,Background,Centre,"StoryBoard\Dot.png",446,188 F,2,91932,92598,0.73,0 S,0,91932,92598,0.105,0.155 C,0,91932,92598,255,236,200
Sprite,Background,Centre,"StoryBoard\Dot.png",590,215 F,2,91932,92598,0.93,0 S,0,91932,92598,0.147,0.197 C,0,91932,92598,255,200,235
Sprite,Background,Centre,"StoryBoard\Dot.png",308,104 F,2,91932,92598,0.68,0 S,0,91932,92598,0.16,0.21 C,0,91932,92598,200,255,228
Sprite,Background,Centre,"StoryBoard\Dot.png",282,321 F,2,91932,92598,1,0 S,0,91932,92598,0.118,0.168 C,0,91932,92598,255,216,200
Sprite,Background,Centre,"StoryBoard\Dot.png",314,223 F,2,91932,92598,0.84,0 S,0,91932,92598,0.103,0.153 C,0,91932,92598,255,200,235
Sprite,Background,Centre,"StoryBoard\Dot.png",568,260 F,2,92265,92931,0.67,0 S,0,92265,92931,0.069,0.119 C,0,92265,92931,240,255,200
Sprite,Background,Centre,"StoryBoard\Dot.png",182,323 F,2,92265,92931,0.86,0 S,0,92265,92931,0.115,0.165 C,0,92265,92931,200,255,228
Sprite,Background,Centre,"StoryBoard\Dot.png",397,174 F,2,92265,92931,0.84,0 S,0,92265,92931,0.178,0.228 C,0,92265,92931,239,200,255
Sprite,Background,Centre,"StoryBoard\Dot.png",129,411 F,2,92265,92931,0.89,0 S,0,92265,92931,0.144,0.194 C,0,92265,92931,255,216,200
Sprite,Background,Centre,"StoryBoard\Dot.png",296,247 F,2,92265,92931,0.63,0 S,0,92265,92931,0.126,0.176 C,0,92265,92931,255,200,215
Sprite,Background,Centre,"StoryBoard\Dot.png",397,189 F,2,92598,93264,0.9,0 S,0,92598,93264,0.193,0.243 C,0,92598,93264,255,216,200
Sprite,Background,Centre,"StoryBoard\Dot.png",25,8 F,2,92598,93264,0.66,0 S,0,92598,93264,0.072,0.122 C,0,92598,93264,239,200,255
Sprite,Background,Centre,"StoryBoard\Dot.png",11,193 F,2,92598,93264,0.82,0 S,0,92598,93264,0.086,0.136 C,0,92598,93264,255,200,215
Sprite,Background,Centre,"StoryBoard\Dot.png",402,173 F,2,92598,93264,1,0 S,0,92598,93264,0.056,0.106 C,0,92598,93264,255,236,200
Sprite,Background,Centre,"StoryBoard\Dot.png",380,282 F,2,92598,93264,1,0 S,0,92598,93264,0.194,0.244 C,0,92598,93264,239,200,255
Sprite,Background,Centre,"StoryBoard\Dot.png",174,253 F,2,92931,93597,0.62,0 S,0,92931,93597,0.185,0.235 C,0,92931,93597,239,200,255
Sprite,Background,Centre,"StoryBoard\Dot.png",85,389 F,2,92931,93597,0.77,0 S,0,92931,93597,0.125,0.175 C,0,92931,93597,255,236,200
Sprite,Background,Centre,"StoryBoard\Dot.png",520,294 F,2,92931,93597,0.77,0 S,0,92931,93597,0.156,0.206 C,0,92931,93597,200,255,228
Sprite,Background,Centre,"StoryBoard\Dot.png",554,129 F,2,92931,93597,0.72,0 S,0,92931,93597,0.052,0.102 C,0,92931,93597,240,255,200
Sprite,Background,Centre,"StoryBoard\Dot.png",14,279 F,2,92931,93597,0.83,0 S,0,92931,93597,0.089,0.139 C,0,92931,93597,255,216,200
Sprite,Background,Centre,"StoryBoard\Dot.png",621,321 F,2,93264,93930,0.69,0 S,0,93264,93930,0.108,0.158 C,0,93264,93930,214,255,200
Sprite,Background,Centre,"StoryBoard\Dot.png",478,430 F,2,93264,93930,0.85,0 S,0,93264,93930,0.126,0.176 C,0,93264,93930,203,200,255
Sprite,Background,Centre,"StoryBoard\Dot.png",383,15 F,2,93264,93930,0.96,0 S,0,93264,93930,0.157,0.207 C,0,93264,93930,255,200,235
Sprite,Background,Centre,"StoryBoard\Dot.png",321,324 F,2,93264,93930,0.63,0 S,0,93264,93930,0.121,0.171 C,0,93264,93930,239,200,255
Sprite,Background,Centre,"StoryBoard\Dot.png",338,468 F,2,93264,93930,0.83,0 S,0,93264,93930,0.118,0.168 C,0,93264,93930,255,216,200
Sprite,Background,Centre,"StoryBoard\Dot.png",627,252 F,2,93597,94263,0.8,0 S,0,93597,94263,0.051,0.101 C,0,93597,94263,255,216,200
Sprite,Background,Centre,"StoryBoard\Dot.png",310,308 F,2,93597,94263,0.81,0 S,0,93597,94263,0.079,0.129 C,0,93597,94263,255,216,200
Sprite,Background,Centre,"StoryBoard\Dot.png",14,208 F,2,93597,94263,0.8,0 S,0,93597,94263,0.191,0.241 C,0,93597,94263,255,236,200
Sprite,Background,Centre,"StoryBoard\Dot.png",219,444 F,2,93597,94263,0.88,0 S,0,93597,94263,0.096,0.146 C,0,93597,94263,239,200,255
Sprite,Background,Centre,"StoryBoard\Dot.png",209,129 F,2,93597,94263,0.97,0 S,0,93597,94263,0.125,0.175 C,0,93597,94263,255,236,200
Sprite,Background,Centre,"StoryBoard\Dot.png",287,231 F,2,93930,94596,0.87,0 S,0,93930,94596,0.139,0.189 C,0,93930,94596,255,200,215
Sprite,Background,Centre,"StoryBoard\Dot.png",243,298 F,2,93930,94596,0.92,0 S,0,93930,94596,0.133,0.183 C,0,93930,94596,240,255,200
Sprite,Background,Centre,"StoryBoard\Dot.png",571,139 F,2,93930,94596,0.92,0 S,0,93930,94596,0.073,0.123 C,0,93930,94596,255,200,215
Sprite,Background,Centre,"StoryBoard\Dot.png",29,459 F,2,93930,94596,0.64,0 S,0,93930,94596,0.152,0.202 C,0,93930,94596,239,200,255
Sprite,Background,Centre,"StoryBoard\Dot.png",165,197 F,2,93930,94596,0.97,0 S,0,93930,94596,0.178,0.228 C,0,93930,94596,255,236,200
Sprite,Background,Centre,"StoryBoard\Dot.png",8,360 F,2,94263,94929,0.73,0 S,0,94263,94929,0.127,0.177 C,0,94263,94929,239,200,255
Sprite,Background,Centre,"StoryBoard\Dot.png",582,58 F,2,94263,94929,0.73,0 S,0,94263,94929,0.118,0.168 C,0,94263,94929,255,200,215
Sprite,Background,Centre,"StoryBoard\Dot.png",6,32 F,2,94263,94929,0.73,0 S,0,94263,94929,0.1,0.15 C,0,94263,94929,255,216,200
Sprite,Background,Centre,"StoryBoard\Dot.png",403,15 F,2,94263,94929,0.6,0 S,0,94263,94929,0.115,0.165 C,0,94263,94929,255,216,200
Sprite,Background,Centre,"StoryBoard\Dot.png",327,342 F,2,94263,94929,0.91,0 S,0,94263,94929,0.076,0.126 C,0,94263,94929,239,200,255
Sprite,Background,Centre,"StoryBoard\Dot.png",301,47 F,2,94596,95262,0.64,0 S,0,94596,95262,0.081,0.131 C,0,94596,95262,255,216,200
Sprite,Background,Centre,"StoryBoard\Dot.png",426,2 F,2,94596,95262,0.63,0 S,0,94596,95262,0.175,0.225 C,0,94596,95262,255,200,215
Sprite,Background,Centre,"StoryBoard\Dot.png",18,442 F,2,94596,95262,0.69,0 S,0,94596,95262,0.142,0.192 C,0,94596,95262,255,200,215
Sprite,Background,Centre,"StoryBoard\Dot.png",301,155 F,2,94596,95262,0.8,0 S,0,94596,95262,0.074,0.124 C,0,94596,95262,255,216,200
Sprite,Background,Centre,"StoryBoard\Dot.png",189,128 F,2,94596,95262,0.82,0 S,0,94596,95262,0.195,0.245 C,0,94596,95262,200,232,255
Sprite,Background,Centre,"StoryBoard\Dot.png",37,62 F,2,94929,95595,0.71,0 S,0,94929,95595,0.183,0.233 C,0,94929,95595,203,200,255
Sprite,Background,Centre,"StoryBoard\Dot.png",523,398 F,2,94929,95595,0.95,0 S,0,94929,95595,0.148,0.198 C,0,94929,95595,255,216,200
Sprite,Background,Centre,"StoryBoard\Dot.png",161,81 F,2,94929,95595,0.63,0 S,0,94929,95595,0.111,0.161 C,0,94929,95595,255,200,235
Sprite,Background,Centre,"StoryBoard\Dot.png",90,229 F,2,94929,95595,0.71,0 S,0,94929,95595,0.196,0.246 C,0,94929,95595,255,200,235
Sprite,Background,Centre,"StoryBoard\Dot.png",446,140 F,2,94929,95595,0.7,0 S,0,94929,95595,0.121,0.171 C,0,94929,95595,240,255,200
Sprite,Background,Centre,"StoryBoard\Dot.png",558,206 F,2,95262,95928,0.98,0 S,0,95262,95928,0.141,0.191 C,0,95262,95928,239,200,255
Sprite,Background,Centre,"StoryBoard\Dot.png",421,345 F,2,95262,95928,0.88,0 S,0,95262,95928,0.08,0.13 C,0,95262,95928,203,200,255
Sprite,Background,Centre,"StoryBoard\Dot.png",449,141 F,2,95262,95928,1,0 S,0,95262,95928,0.141,0.191 C,0,95262,95928,255,216,200
Sprite,Background,Centre,"StoryBoard\Dot.png",352,468 F,2,95262,95928,0.87,0 S,0,95262,95928,0.108,0.158 C,0,95262,95928,255,200,235
Sprite,Background,Centre,"StoryBoard\Dot.png",239,281 F,2,95262,95928,0.61,0 S,0,95262,95928,0.066,0.116 C,0,95262,95928,200,255,228
Sprite,Background,Centre,"StoryBoard\Dot.png",38,13 F,2,95595,96261,0.78,0 S,0,95595,96261,0.199,0.249 C,0,95595,96261,239,200,255
Sprite,Background,Centre,"StoryBoard\Dot.png",600,317 F,2,95595,96261,0.61,0 S,0,95595,96261,0.134,0.184 C,0,95595,96261,255,200,215
Sprite,Background,Centre,"StoryBoard\Dot.png",610,332 F,2,95595,96261,0.78,0 S,0,95595,96261,0.072,0.122 C,0,95595,96261,255,216,200
Sprite,Background,Centre,"StoryBoard\Dot.png",574,342 F,2,95595,96261,0.98,0 S,0,95595,96261,0.178,0.228 C,0,95595,96261,240,255,200
Sprite,Background,Centre,"StoryBoard\Dot.png",19,15 F,2,95595,96261,0.99,0 S,0,95595,96261,0.053,0.103 C,0,95595,96261,214,255,200
Sprite,Background,Centre,"StoryBoard\Dot.png",138,36 F,2,95928,96594,0.81,0 S,0,95928,96594,0.172,0.222 C,0,95928,96594,200,255,228
Sprite,Background,Centre,"StoryBoard\Dot.png",445,409 F,2,95928,96594,0.81,0 S,0,95928,96594,0.191,0.241 C,0,95928,96594,255,200,215
Sprite,Background,Centre,"StoryBoard\Dot.png",292,121 F,2,95928,96594,0.73,0 S,0,95928,96594,0.056,0.106 C,0,95928,96594,200,255,228
Sprite,Background,Centre,"StoryBoard\Dot.png",619,353 F,2,95928,96594,0.82,0 S,0,95928,96594,0.131,0.181 C,0,95928,96594,200,232,255
Sprite,Background,Centre,"StoryBoard\Dot.png",119,296 F,2,95928,96594,0.86,0 S,0,95928,96594,0.191,0.241 C,0,95928,96594,240,255,200
Sprite,Background,Centre,"StoryBoard\Dot.png",55,330 F,2,96261,96927,0.89,0 S,0,96261,96927,0.079,0.129 C,0,96261,96927,255,236,200
Sprite,Background,Centre,"StoryBoard\Dot.png",437,376 F,2,96261,96927,0.63,0 S,0,96261,96927,0.161,0.211 C,0,96261,96927,239,200,255
Sprite,Background,Centre,"StoryBoard\Dot.png",500,141 F,2,96261,96927,0.66,0 S,0,96261,96927,0.146,0.196 C,0,96261,96927,255,216,200
Sprite,Background,Centre,"StoryBoard\Dot.png",502,258 F,2,96261,96927,0.86,0 S,0,96261,96927,0.171,0.221 C,0,96261,96927,239,200,255
Sprite,Background,Centre,"StoryBoard\Dot.png",175,203 F,2,96261,96927,0.88,0 S,0,96261,96927,0.13,0.18 C,0,96261,96927,255,216,200
Sprite,Background,Centre,"StoryBoard\Dot.png",487,387 F,2,96594,97260,0.75,0 S,0,96594,97260,0.066,0.116 C,0,96594,97260,255,236,200
Sprite,Background,Centre,"StoryBoard\Dot.png",108,164 F,2,96594,97260,0.77,0 S,0,96594,97260,0.117,0.167 C,0,96594,97260,214,255,200
Sprite,Background,Centre,"StoryBoard\Dot.png",182,357 F,2,96594,97260,0.74,0 S,0,96594,97260,0.068,0.118 C,0,96594,97260,200,255,228
Sprite,Background,Centre,"StoryBoard\Dot.png",376,179 F,2,96594,97260,0.88,0 S,0,96594,97260,0.148,0.198 C,0,96594,97260,203,200,255
Sprite,Background,Centre,"StoryBoard\Dot.png",203,354 F,2,96594,97260,0.73,0 S,0,96594,97260,0.152,0.202 C,0,96594,97260,200,255,228
Sprite,Background,Centre,"StoryBoard\Dot.png",312,231 F,2,96927,97593,0.71,0 S,0,96927,97593,0.179,0.229 C,0,96927,97593,239,200,255
Sprite,Background,Centre,"StoryBoard\Dot.png",506,448 F,2,96927,97593,0.89,0 S,0,96927,97593,0.19,0.24 C,0,96927,97593,255,200,215
Sprite,Background,Centre,"StoryBoard\Dot.png",132,27 F,2,96927,97593,0.92,0 S,0,96927,97593,0.173,0.223 C,0,96927,97593,200,232,255
Sprite,Background,Centre,"StoryBoard\Dot.png",561,69 F,2,96927,97593,0.64,0 S,0,96927,97593,0.14,0.19 C,0,96927,97593,240,255,200
Sprite,Background,Centre,"StoryBoard\Dot.png",491,168 F,2,96927,97593,0.99,0 S,0,96927,97593,0.101,0.151 C,0,96927,97593,255,200,215
Sprite,Background,Centre,"StoryBoard\Dot.png",57,323 F,2,97260,97926,0.69,0 S,0,97260,97926,0.133,0.183 C,0,97260,97926,240,255,200
Sprite,Background,Centre,"StoryBoard\Dot.png",587,30 F,2,97260,97926,0.97,0 S,0,97260,97926,0.166,0.216 C,0,97260,97926,200,232,255
Sprite,Background,Centre,"StoryBoard\Dot.png",49,351 F,2,97260,97926,0.78,0 S,0,97260,97926,0.181,0.231 C,0,97260,97926,255,200,215
Sprite,Background,Centre,"StoryBoard\Dot.png",584,81 F,2,97260,97926,0.69,0 S,0,97260,97926,0.065,0.115 C,0,97260,97926,239,200,255
Sprite,Background,Centre,"StoryBoard\Dot.png",166,96 F,2,97260,97926,0.86,0 S,0,97260,97926,0.053,0.103 C,0,97260,97926,255,200,215
Sprite,Background,Centre,"StoryBoard\Dot.png",156,363 F,2,97593,98259,0.68,0 S,0,97593,98259,0.108,0.158 C,0,97593,98259,240,255,200
Sprite,Background,Centre,"StoryBoard\Dot.png",179,67 F,2,97593,98259,0.86,0 S,0,97593,98259,0.163,0.213 C,0,97593,98259,240,255,200
Sprite,Background,Centre,"StoryBoard\Dot.png",381,78 F,2,97593,98259,0.86,0 S,0,97593,98259,0.081,0.131 C,0,97593,98259,240,255,200
Sprite,Background,Centre,"StoryBoard\Dot.png",603,106 F,2,97593,98259,0.95,0 S,0,97593,98259,0.132,0.182 C,0,97593,98259,200,232,255
Sprite,Background,Centre,"StoryBoard\Dot.png",484,252 F,2,97593,98259,0.81,0 S,0,97593,98259,0.073,0.123 C,0,97593,98259,200,255,228
Sprite,Background,Centre,"StoryBoard\Dot.png",469,35 F,2,97926,98592,0.76,0 S,0,97926,98592,0.07,0.12 C,0,97926,98592,255,216,200
Sprite,Background,Centre,"StoryBoard\Dot.png",575,380 F,2,97926,98592,0.78,0 S,0,97926,98592,0.171,0.221 C,0,97926,98592,214,255,200
Sprite,Background,Centre,"StoryBoard\Dot.png",443,234 F,2,97926,98592,0.76,0 S,0,97926,98592,0.197,0.247 C,0,97926,98592,255,236,200
Sprite,Background,Centre,"StoryBoard\Dot.png",502,340 F,2,97926,98592,0.66,0 S,0,97926,98592,0.161,0.211 C,0,97926,98592,255,200,235
Sprite,Background,Centre,"StoryBoard\Dot.png",608,378 F,2,97926,98592,0.66,0 S,0,97926,98592,0.077,0.127 C,0,97926,98592,255,200,215
Sprite,Background,Centre,"StoryBoard\Dot.png",131,76 F,2,98259,98925,0.7,0 S,0,98259,98925,0.07,0.12 C,0,98259,98925,203,200,255
Sprite,Background,Centre,"StoryBoard\Dot.png",194,218 F,2,98259,98925,0.8,0 S,0,98259,98925,0.187,0.237 C,0,98259,98925,255,200,215
Sprite,Background,Centre,"StoryBoard\Dot.png",249,407 F,2,98259,98925,0.94,0 S,0,98259,98925,0.134,0.184 C,0,98259,98925,203,200,255
Sprite,Background,Centre,"StoryBoard\Dot.png",296,219 F,2,98259,98925,0.7,0 S,0,98259,98925,0.195,0.245 C,0,98259,98925,214,255,200
Sprite,Background,Centre,"StoryBoard\Dot.png",264,261 F,2,98259,98925,0.91,0 S,0,98259,98925,0.121,0.171 C,0,98259,98925,214,255,200
Sprite,Background,Centre,"StoryBoard\Dot.png",332,367 F,2,98592,99258,0.98,0 S,0,98592,99258,0.107,0.157 C,0,98592,99258,255,236,200
Sprite,Background,Centre,"StoryBoard\Dot.png",519,220 F,2,98592,99258,0.61,0 S,0,98592,99258,0.184,0.234 C,0,98592,99258,200,232,255
Sprite,Background,Centre,"StoryBoard\Dot.png",383,236 F,2,98592,99258,0.62,0 S,0,98592,99258,0.118,0.168 C,0,98592,99258,255,236,200
Sprite,Background,Centre,"StoryBoard\Dot.png",613,199 F,2,98592,99258,0.94,0 S,0,98592,99258,0.15,0.2 C,0,98592,99258,239,200,255
Sprite,Background,Centre,"StoryBoard\Dot.png",21,420 F,2,98592,99258,0.95,0 S,0,98592,99258,0.149,0.199 C,0,98592,99258,255,236,200
Sprite,Background,Centre,"StoryBoard\Dot.png",133,445 F,2,98925,99591,0.73,0 S,0,98925,99591,0.087,0.137 C,0,98925,99591,255,200,235
Sprite,Background,Centre,"StoryBoard\Dot.png",269,139 F,2,98925,99591,0.98,0 S,0,98925,99591,0.142,0.192 C,0,98925,99591,239,200,255
Sprite,Background,Centre,"StoryBoard\Dot.png",452,431 F,2,98925,99591,0.74,0 S,0,98925,99591,0.107,0.157 C,0,98925,99591,255,200,235
Sprite,Background,Centre,"StoryBoard\Dot.png",121,279 F,2,98925,99591,0.94,0 S,0,98925,99591,0.096,0.146 C,0,98925,99591,214,255,200
Sprite,Background,Centre,"StoryBoard\Dot.png",617,347 F,2,98925,99591,0.87,0 S,0,98925,99591,0.134,0.184 C,0,98925,99591,214,255,200
Sprite,Background,Centre,"StoryBoard\Dot.png",347,230 F,2,99258,99924,1,0 S,0,99258,99924,0.17,0.22 C,0,99258,99924,255,216,200
Sprite,Background,Centre,"StoryBoard\Dot.png",159,12 F,2,99258,99924,0.88,0 S,0,99258,99924,0.169,0.219 C,0,99258,99924,203,200,255
Sprite,Background,Centre,"StoryBoard\Dot.png",181,356 F,2,99258,99924,0.89,0 S,0,99258,99924,0.178,0.228 C,0,99258,99924,255,216,200
Sprite,Background,Centre,"StoryBoard\Dot.png",215,279 F,2,99258,99924,0.75,0 S,0,99258,99924,0.052,0.102 C,0,99258,99924,255,236,200
Sprite,Background,Centre,"StoryBoard\Dot.png",575,89 F,2,99258,99924,0.74,0 S,0,99258,99924,0.109,0.159 C,0,99258,99924,203,200,255
Sprite,Background,Centre,"StoryBoard\Dot.png",382,361 F,2,99591,100257,0.95,0 S,0,99591,100257,0.175,0.225 C,0,99591,100257,200,232,255
Sprite,Background,Centre,"StoryBoard\Dot.png",558,459 F,2,99591,100257,0.86,0 S,0,99591,100257,0.087,0.137 C,0,99591,100257,200,255,228
Sprite,Background,Centre,"StoryBoard\Dot.png",467,383 F,2,99591,100257,0.6,0 S,0,99591,100257,0.199,0.249 C,0,99591,100257,214,255,200
Sprite,Background,Centre,"StoryBoard\Dot.png",121,162 F,2,99591,100257,0.7,0 S,0,99591,100257,0.181,0.231 C,0,99591,100257,255,200,215
Sprite,Background,Centre,"StoryBoard\Dot.png",549,33 F,2,99591,100257,0.85,0 S,0,99591,100257,0.137,0.187 C,0,99591,100257,255,200,215
Sprite,Background,Centre,"StoryBoard\Dot.png",5,246 F,2,99924,100590,0.93,0 S,0,99924,100590,0.138,0.188 C,0,99924,100590,255,216,200
Sprite,Background,Centre,"StoryBoard\Dot.png",246,139 F,2,99924,100590,0.77,0 S,0,99924,100590,0.182,0.232 C,0,99924,100590,255,200,215
Sprite,Background,Centre,"StoryBoard\Dot.png",82,268 F,2,99924,100590,0.71,0 S,0,99924,100590,0.053,0.103 C,0,99924,100590,200,232,255
Sprite,Background,Centre,"StoryBoard\Dot.png",563,92 F,2,99924,100590,0.88,0 S,0,99924,100590,0.069,0.119 C,0,99924,100590,255,236,200
Sprite,Background,Centre,"StoryBoard\Dot.png",504,175 F,2,99924,100590,0.88,0 S,0,99924,100590,0.066,0.116 C,0,99924,100590,255,236,200
Sprite,Background,Centre,"StoryBoard\Dot.png",482,296 F,2,100257,100923,0.81,0 S,0,100257,100923,0.115,0.165 C,0,100257,100923,255,216,200
Sprite,Background,Centre,"StoryBoard\Dot.png",93,320 F,2,100257,100923,0.67,0 S,0,100257,100923,0.164,0.214 C,0,100257,100923,239,200,255
Sprite,Background,Centre,"StoryBoard\Dot.png",268,84 F,2,100257,100923,0.61,0 S,0,100257,100923,0.107,0.157 C,0,100257,100923,255,216,200
Sprite,Background,Centre,"StoryBoard\Dot.png",79,197 F,2,100257,100923,0.85,0 S,0,100257,100923,0.06,0.11 C,0,100257,100923,239,200,255
Sprite,Background,Centre,"StoryBoard\Dot.png",215,265 F,2,100257,100923,0.68,0 S,0,100257,100923,0.092,0.142 C,0,100257,100923,255,236,200
Sprite,Background,Centre,"StoryBoard\Dot.png",459,158 F,2,100590,101256,0.96,0 S,0,100590,101256,0.069,0.119 C,0,100590,101256,214,255,200
Sprite,Background,Centre,"StoryBoard\Dot.png",551,428 F,2,100590,101256,0.69,0 S,0,100590,101256,0.063,0.113 C,0,100590,101256,200,232,255
Sprite,Background,Centre,"StoryBoard\Dot.png",107,424 F,2,100590,101256,0.89,0 S,0,100590,101256,0.111,0.161 C,0,100590,101256,255,236,200
Sprite,Background,Centre,"StoryBoard\Dot.png",183,207 F,2,100590,101256,0.66,0 S,0,100590,101256,0.082,0.132 C,0,100590,101256,255,236,200
Sprite,Background,Centre,"StoryBoard\Dot.png",616,417 F,2,100590,101256,0.91,0 S,0,100590,101256,0.199,0.249 C,0,100590,101256,255,200,215
Sprite,Background,Centre,"StoryBoard\Dot.png",9,363 F,2,100923,101589,0.84,0 S,0,100923,101589,0.157,0.207 C,0,100923,101589,255,236,200
Sprite,Background,Centre,"StoryBoard\Dot.png",167,52 F,2,100923,101589,0.92,0 S,0,100923,101589,0.181,0.231 C,0,100923,101589,239,200,255
Sprite,Background,Centre,"StoryBoard\Dot.png",346,423 F,2,100923,101589,1,0 S,0,100923,101589,0.055,0.105 C,0,100923,101589,239,200,255
Sprite,Background,Centre,"StoryBoard\Dot.png",438,381 F,2,100923,101589,0.94,0 S,0,100923,101589,0.185,0.235 C,0,100923,101589,240,255,200
Sprite,Background,Centre,"StoryBoard\Dot.png",14,63 F,2,100923,101589,0.73,0 S,0,100923,101589,0.088,0.138 C,0,100923,101589,203,200,255
Sprite,Background,Centre,"StoryBoard\Dot-Small.png",320,240 M,1,101278,102277,320,240,201,89 F,2,101278,102277,0.63,0 S,0,101278,102277,0.418,0.268 C,0,101278,102277,240,255,200
Sprite,Background,Centre,"StoryBoard\Dot-Small.png",320,240 M,1,101278,102277,320,240,417,433 F,2,101278,102277,0.59,0 S,0,101278,102277,0.451,0.301 C,0,101278,102277,239,200,255
Sprite,Background,Centre,"StoryBoard\Dot-Small.png",320,240 M,1,101308,102307,320,240,502,314 F,2,101308,102307,0.65,0 S,0,101308,102307,0.355,0.205 C,0,101308,102307,239,200,255
Sprite,Background,Centre,"StoryBoard\Dot-Small.png",320,240 M,1,101308,102307,320,240,127,150 F,2,101308,102307,0.5,0 S,0,101308,102307,0.338,0.188 C,0,101308,102307,200,232,255
Sprite,Background,Centre,"StoryBoard\Dot-Small.png",320,240 M,1,101338,102337,320,240,216,313 F,2,101338,102337,0.74,0 S,0,101338,102337,0.447,0.297 C,0,101338,102337,255,216,200
Sprite,Background,Centre,"StoryBoard\Dot-Small.png",320,240 M,1,101338,102337,320,240,274,241 F,2,101338,102337,0.62,0 S,0,101338,102337,0.428,0.278 C,0,101338,102337,239,200,255
Sprite,Background,Centre,"StoryBoard\Dot-Small.png",320,240 M,1,101368,102367,320,240,236,384 F,2,101368,102367,0.56,0 S,0,101368,102367,0.389,0.239 C,0,101368,102367,214,255,200
Sprite,Background,Centre,"StoryBoard\Dot-Small.png",320,240 M,1,101368,102367,320,240,153,68 F,2,101368,102367,0.78,0 S,0,101368,102367,0.352,0.202 C,0,101368,102367,200,232,255
Sprite,Background,Centre,"StoryBoard\Dot-Small.png",320,240 M,1,101398,102397,320,240,280,240 F,2,101398,102397,0.51,0 S,0,101398,102397,0.378,0.228 C,0,101398,102397,203,200,255
Sprite,Background,Centre,"StoryBoard\Dot-Small.png",320,240 M,1,101398,102397,320,240,383,353 F,2,101398,102397,0.75,0 S,0,101398,102397,0.446,0.296 C,0,101398,102397,255,216,200
Sprite,Background,Centre,"StoryBoard\Dot-Small.png",320,240 M,1,101428,102427,320,240,458,136 F,2,101428,102427,0.68,0 S,0,101428,102427,0.386,0.236 C,0,101428,102427,255,200,235
Sprite,Background,Centre,"StoryBoard\Dot-Small.png",320,240 M,1,101428,102427,320,240,273,396 F,2,101428,102427,0.63,0 S,0,101428,102427,0.349,0.199 C,0,101428,102427,255,200,235
Sprite,Background,Centre,"StoryBoard\Dot-Small.png",320,240 M,1,101458,102457,320,240,414,119 F,2,101458,102457,0.51,0 S,0,101458,102457,0.404,0.254 C,0,101458,102457,203,200,255
Sprite,Background,Centre,"StoryBoard\Dot-Small.png",320,240 M,1,101458,102457,320,240,152,78 F,2,101458,102457,0.57,0 S,0,101458,102457,0.41,0.26 C,0,101458,102457,203,200,255
Sprite,Background,Centre,"StoryBoard\Dot-Small.png",320,240 M,1,101488,102487,320,240,182,341 F,2,101488,102487,0.79,0 S,0,101488,102487,0.303,0.153 C,0,101488,102487,200,255,228
Sprite,Background,Centre,"StoryBoard\Dot-Small.png",320,240 M,1,101488,102487,320,240,120,254 F,2,101488,102487,0.64,0 S,0,101488,102487,0.314,0.164 C,0,101488,102487,214,255,200
Sprite,Background,Centre,"StoryBoard\Dot-Small.png",320,240 M,1,101518,102517,320,240,485,47 F,2,101518,102517,0.68,0 S,0,101518,102517,0.333,0.183 C,0,101518,102517,255,216,200
Sprite,Background,Centre,"StoryBoard\Dot-Small.png",320,240 M,1,101518,102517,320,240,192,413 F,2,101518,102517,0.55,0 S,0,101518,102517,0.489,0.339 C,0,101518,102517,239,200,255
Sprite,Background,Centre,"StoryBoard\Dot-Small.png",320,240 M,1,101548,102547,320,240,204,253 F,2,101548,102547,0.79,0 S,0,101548,102547,0.424,0.274 C,0,101548,102547,255,216,200
Sprite,Background,Centre,"StoryBoard\Dot-Small.png",320,240 M,1,101548,102547,320,240,210,130 F,2,101548,102547,0.54,0 S,0,101548,102547,0.408,0.258 C,0,101548,102547,203,200,255
Sprite,Background,Centre,"StoryBoard\Dot-Small.png",320,240 M,1,101578,102577,320,240,414,394 F,2,101578,102577,0.69,0 S,0,101578,102577,0.379,0.229 C,0,101578,102577,255,236,200
Sprite,Background,Centre,"StoryBoard\Dot-Small.png",320,240 M,1,101578,102577,320,240,184,61 F,2,101578,102577,0.64,0 S,0,101578,102577,0.314,0.164 C,0,101578,102577,255,236,200
Sprite,Background,Centre,"StoryBoard\Dot-Small.png",320,240 M,1,101608,102607,320,240,466,149 F,2,101608,102607,0.57,0 S,0,101608,102607,0.411,0.261 C,0,101608,102607,240,255,200
Sprite,Background,Centre,"StoryBoard\Dot-Small.png",320,240 M,1,101608,102607,320,240,467,336 F,2,101608,102607,0.66,0 S,0,101608,102607,0.484,0.334 C,0,101608,102607,255,200,215
Sprite,Background,Centre,"StoryBoard\Dot-Small.png",320,240 M,1,101638,102637,320,240,409,166 F,2,101638,102637,0.55,0 S,0,101638,102637,0.442,0.292 C,0,101638,102637,240,255,200
Sprite,Background,Centre,"StoryBoard\Dot-Small.png",320,240 M,1,101638,102637,320,240,448,398 F,2,101638,102637,0.51,0 S,0,101638,102637,0.316,0.166 C,0,101638,102637,240,255,200
Sprite,Background,Centre,"StoryBoard\Dot-Small.png",320,240 M,1,101668,102667,320,240,460,369 F,2,101668,102667,0.57,0 S,0,101668,102667,0.459,0.309 C,0,101668,102667,255,236,200
Sprite,Background,Centre,"StoryBoard\Dot-Small.png",320,240 M,1,101668,102667,320,240,328,342 F,2,101668,102667,0.71,0 S,0,101668,102667,0.332,0.182 C,0,101668,102667,200,255,228
Sprite,Background,Centre,"StoryBoard\Dot-Small.png",320,240 M,1,101698,102697,320,240,275,120 F,2,101698,102697,0.5,0 S,0,101698,102697,0.34,0.19 C,0,101698,102697,239,200,255
Sprite,Background,Centre,"StoryBoard\Dot-Small.png",320,240 M,1,101698,102697,320,240,211,287 F,2,101698,102697,0.73,0 S,0,101698,102697,0.5,0.35 C,0,101698,102697,255,216,200
Sprite,Background,Centre,"StoryBoard\Dot-Small.png",320,240 M,1,101728,102727,320,240,221,189 F,2,101728,102727,0.66,0 S,0,101728,102727,0.465,0.315 C,0,101728,102727,255,216,200
Sprite,Background,Centre,"StoryBoard\Dot-Small.png",320,240 M,1,101728,102727,320,240,341,43 F,2,101728,102727,0.8,0 S,0,101728,102727,0.439,0.289 C,0,101728,102727,240,255,200
Sprite,Background,Centre,"StoryBoard\Dot-Small.png",320,240 M,1,101758,102757,320,240,279,418 F,2,101758,102757,0.7,0 S,0,101758,102757,0.35,0.2 C,0,101758,102757,200,232,255
Sprite,Background,Centre,"StoryBoard\Dot-Small.png",320,240 M,1,101758,102757,320,240,210,361 F,2,101758,102757,0.8,0 S,0,101758,102757,0.314,0.164 C,0,101758,102757,255,236,200
Sprite,Background,Centre,"StoryBoard\Dot-Small.png",320,240 M,1,101788,102787,320,240,477,432 F,2,101788,102787,0.55,0 S,0,101788,102787,0.427,0.277 C,0,101788,102787,214,255,200
Sprite,Background,Centre,"StoryBoard\Dot-Small.png",320,240 M,1,101788,102787,320,240,159,227 F,2,101788,102787,0.65,0 S,0,101788,102787,0.32,0.17 C,0,101788,102787,255,200,235
Sprite,Background,Centre,"StoryBoard\Dot-Small.png",320,240 M,1,101818,102817,320,240,219,63 F,2,101818,102817,0.51,0 S,0,101818,102817,0.304,0.154 C,0,101818,102817,239,200,255
Sprite,Background,Centre,"StoryBoard\Dot-Small.png",320,240 M,1,101818,102817,320,240,208,90 F,2,101818,102817,0.5,0 S,0,101818,102817,0.347,0.197 C,0,101818,102817,255,200,235
Sprite,Background,Centre,"StoryBoard\Dot-Small.png",320,240 M,1,101848,102847,320,240,304,327 F,2,101848,102847,0.51,0 S,0,101848,102847,0.363,0.213 C,0,101848,102847,255,236,200
Sprite,Background,Centre,"StoryBoard\Dot-Small.png",320,240 M,1,101848,102847,320,240,447,94 F,2,101848,102847,0.52,0 S,0,101848,102847,0.444,0.294 C,0,101848,102847,239,200,255
Sprite,Background,Centre,"StoryBoard\Dot-Small.png",320,240 M,1,101878,102877,320,240,371,323 F,2,101878,102877,0.6,0 S,0,101878,102877,0.416,0.266 C,0,101878,102877,255,200,215
Sprite,Background,Centre,"StoryBoard\Dot-Small.png",320,240 M,1,101878,102877,320,240,267,427 F,2,101878,102877,0.66,0 S,0,101878,102877,0.45,0.3 C,0,101878,102877,255,236,200
Sprite,Background,Centre,"StoryBoard\Dot-Small.png",320,240 M,1,101908,102907,320,240,478,135 F,2,101908,102907,0.8,0 S,0,101908,102907,0.37,0.22 C,0,101908,102907,240,255,200
Sprite,Background,Centre,"StoryBoard\Dot-Small.png",320,240 M,1,101908,102907,320,240,415,311 F,2,101908,102907,0.59,0 S,0,101908,102907,0.391,0.241 C,0,101908,102907,203,200,255
Sprite,Background,Centre,"StoryBoard\Dot-Small.png",320,240 M,1,101938,102937,320,240,166,127 F,2,101938,102937,0.51,0 S,0,101938,102937,0.473,0.323 C,0,101938,102937,255,216,200
Sprite,Background,Centre,"StoryBoard\Dot-Small.png",320,240 M,1,101938,102937,320,240,378,175 F,2,101938,102937,0.66,0 S,0,101938,102937,0.461,0.311 C,0,101938,102937,200,232,255
Sprite,Background,Centre,"StoryBoard\Dot-Small.png",320,240 M,1,101968,102967,320,240,448,46 F,2,101968,102967,0.65,0 S,0,101968,102967,0.322,0.172 C,0,101968,102967,203,200,255
Sprite,Background,Centre,"StoryBoard\Dot-Small.png",320,240 M,1,101968,102967,320,240,493,237 F,2,101968,102967,0.59,0 S,0,101968,102967,0.456,0.306 C,0,101968,102967,240,255,200
Sprite,Background,Centre,"StoryBoard\Dot-Small.png",320,240 M,1,101998,102997,320,240,276,96 F,2,101998,102997,0.57,0 S,0,101998,102997,0.361,0.211 C,0,101998,102997,203,200,255
Sprite,Background,Centre,"StoryBoard\Dot-Small.png",320,240 M,1,101998,102997,320,240,448,52 F,2,101998,102997,0.54,0 S,0,101998,102997,0.329,0.179 C,0,101998,102997,240,255,200
Sprite,Background,Centre,"StoryBoard\Dot-Small.png",320,240 M,1,102028,103027,320,240,334,69 F,2,102028,103027,0.72,0 S,0,102028,103027,0.416,0.266 C,0,102028,103027,203,200,255
Sprite,Background,Centre,"StoryBoard\Dot-Small.png",320,240 M,1,102028,103027,320,240,253,213 F,2,102028,103027,0.67,0 S,0,102028,103027,0.356,0.206 C,0,102028,103027,240,255,200
Sprite,Background,Centre,"StoryBoard\Dot-Small.png",320,240 M,1,102058,103057,320,240,339,371 F,2,102058,103057,0.52,0 S,0,102058,103057,0.391,0.241 C,0,102058,103057,200,255,228
Sprite,Background,Centre,"StoryBoard\Dot-Small.png",320,240 M,1,102058,103057,320,240,489,204 F,2,102058,103057,0.51,0 S,0,102058,103057,0.387,0.237 C,0,102058,103057,255,216,200
Sprite,Background,Centre,"StoryBoard\Dot-Small.png",320,240 M,1,102088,103087,320,240,272,220 F,2,102088,103087,0.8,0 S,0,102088,103087,0.471,0.321 C,0,102088,103087,255,236,200
Sprite,Background,Centre,"StoryBoard\Dot-Small.png",320,240 M,1,102088,103087,320,240,297,345 F,2,102088,103087,0.66,0 S,0,102088,103087,0.447,0.297 C,0,102088,103087,200,232,255
Sprite,Background,Centre,"StoryBoard\Dot-Small.png",320,240 M,1,102118,103117,320,240,429,83 F,2,102118,103117,0.77,0 S,0,102118,103117,0.346,0.196 C,0,102118,103117,200,255,228
Sprite,Background,Centre,"StoryBoard\Dot-Small.png",320,240 M,1,102118,103117,320,240,181,335 F,2,102118,103117,0.67,0 S,0,102118,103117,0.389,0.239 C,0,102118,103117,255,200,215
Sprite,Background,Centre,"StoryBoard\Dot-Small.png",320,240 M,1,102148,103147,320,240,503,123 F,2,102148,103147,0.54,0 S,0,102148,103147,0.385,0.235 C,0,102148,103147,214,255,200
Sprite,Background,Centre,"StoryBoard\Dot-Small.png",320,240 M,1,102148,103147,320,240,214,273 F,2,102148,103147,0.57,0 S,0,102148,103147,0.302,0.152 C,0,102148,103147,255,200,235
Sprite,Background,Centre,"StoryBoard\Dot-Small.png",320,240 M,1,102178,103177,320,240,499,71 F,2,102178,103177,0.63,0 S,0,102178,103177,0.348,0.198 C,0,102178,103177,239,200,255
Sprite,Background,Centre,"StoryBoard\Dot-Small.png",320,240 M,1,102178,103177,320,240,463,222 F,2,102178,103177,0.8,0 S,0,102178,103177,0.465,0.315 C,0,102178,103177,255,236,200
Sprite,Background,Centre,"StoryBoard\Dot-Small.png",320,240 M,1,102208,103207,320,240,141,140 F,2,102208,103207,0.74,0 S,0,102208,103207,0.467,0.317 C,0,102208,103207,240,255,200
Sprite,Background,Centre,"StoryBoard\Dot-Small.png",320,240 M,1,102208,103207,320,240,135,165 F,2,102208,103207,0.53,0 S,0,102208,103207,0.464,0.314 C,0,102208,103207,240,255,200
Sprite,Background,Centre,"StoryBoard\Dot-Small.png",320,240 M,1,102238,103237,320,240,273,248 F,2,102238,103237,0.75,0 S,0,102238,103237,0.472,0.322 C,0,102238,103237,214,255,200
Sprite,Background,Centre,"StoryBoard\Dot-Small.png",320,240 M,1,102238,103237,320,240,318,167 F,2,102238,103237,0.51,0 S,0,102238,103237,0.4,0.25 C,0,102238,103237,239,200,255
Sprite,Background,Centre,"StoryBoard\Dot-Small.png",320,240 M,1,102268,103267,320,240,407,337 F,2,102268,103267,0.6,0 S,0,102268,103267,0.424,0.274 C,0,102268,103267,255,200,235
Sprite,Background,Centre,"StoryBoard\Dot-Small.png",320,240 M,1,102268,103267,320,240,387,218 F,2,102268,103267,0.63,0 S,0,102268,103267,0.419,0.269 C,0,102268,103267,214,255,200
Sprite,Background,Centre,"StoryBoard\Dot-Small.png",320,240 M,1,102298,103297,320,240,250,41 F,2,102298,103297,0.55,0 S,0,102298,103297,0.376,0.226 C,0,102298,103297,214,255,200
Sprite,Background,Centre,"StoryBoard\Dot-Small.png",320,240 M,1,102298,103297,320,240,216,348 F,2,102298,103297,0.51,0 S,0,102298,103297,0.395,0.245 C,0,102298,103297,239,200,255
Sprite,Background,Centre,"StoryBoard\Dot-Small.png",320,240 M,1,102328,103327,320,240,269,195 F,2,102328,103327,0.7,0 S,0,102328,103327,0.345,0.195 C,0,102328,103327,200,232,255
Sprite,Background,Centre,"StoryBoard\Dot-Small.png",320,240 M,1,102328,103327,320,240,348,110 F,2,102328,103327,0.58,0 S,0,102328,103327,0.407,0.257 C,0,102328,103327,255,216,200
Sprite,Background,Centre,"StoryBoard\Dot-Small.png",320,240 M,1,102358,103357,320,240,282,115 F,2,102358,103357,0.74,0 S,0,102358,103357,0.302,0.152 C,0,102358,103357,255,200,215
Sprite,Background,Centre,"StoryBoard\Dot-Small.png",320,240 M,1,102358,103357,320,240,186,247 F,2,102358,103357,0.78,0 S,0,102358,103357,0.307,0.157 C,0,102358,103357,240,255,200
Sprite,Background,Centre,"StoryBoard\Dot-Small.png",320,240 M,1,102388,103387,320,240,268,199 F,2,102388,103387,0.71,0 S,0,102388,103387,0.46,0.31 C,0,102388,103387,200,255,228
Sprite,Background,Centre,"StoryBoard\Dot-Small.png",320,240 M,1,102388,103387,320,240,245,83 F,2,102388,103387,0.59,0 S,0,102388,103387,0.327,0.177 C,0,102388,103387,200,255,228
Sprite,Background,Centre,"StoryBoard\Dot-Small.png",320,240 M,1,102418,103417,320,240,380,189 F,2,102418,103417,0.73,0 S,0,102418,103417,0.499,0.349 C,0,102418,103417,200,232,255
Sprite,Background,Centre,"StoryBoard\Dot-Small.png",320,240 M,1,102418,103417,320,240,347,299 F,2,102418,103417,0.66,0 S,0,102418,103417,0.341,0.191 C,0,102418,103417,255,216,200
Sprite,Background,Centre,"StoryBoard\Dot-Small.png",320,240 M,1,102448,103447,320,240,482,190 F,2,102448,103447,0.75,0 S,0,102448,103447,0.386,0.236 C,0,102448,103447,240,255,200
Sprite,Background,Centre,"StoryBoard\Dot-Small.png",320,240 M,1,102448,103447,320,240,182,306 F,2,102448,103447,0.68,0 S,0,102448,103447,0.327,0.177 C,0,102448,103447,255,200,215
Sprite,Background,Centre,"StoryBoard\Dot-Small.png",320,240 M,1,102478,103477,320,240,229,358 F,2,102478,103477,0.59,0 S,0,102478,103477,0.423,0.273 C,0,102478,103477,255,216,200
Sprite,Background,Centre,"StoryBoard\Dot-Small.png",320,240 M,1,102478,103477,320,240,313,135 F,2,102478,103477,0.55,0 S,0,102478,103477,0.386,0.236 C,0,102478,103477,200,232,255
Sprite,Background,Centre,"StoryBoard\Dot-Small.png",320,240 M,1,102508,103507,320,240,392,406 F,2,102508,103507,0.75,0 S,0,102508,103507,0.485,0.335 C,0,102508,103507,200,255,228
Sprite,Background,Centre,"StoryBoard\Dot-Small.png",320,240 M,1,102508,103507,320,240,518,184 F,2,102508,103507,0.5,0 S,0,102508,103507,0.357,0.207 C,0,102508,103507,240,255,200
Sprite,Background,Centre,"StoryBoard\Dot-Small.png",320,240 M,1,102538,103537,320,240,455,336 F,2,102538,103537,0.79,0 S,0,102538,103537,0.389,0.239 C,0,102538,103537,255,200,235
Sprite,Background,Centre,"StoryBoard\Dot-Small.png",320,240 M,1,102538,103537,320,240,475,381 F,2,102538,103537,0.56,0 S,0,102538,103537,0.352,0.202 C,0,102538,103537,240,255,200
Sprite,Background,Centre,"StoryBoard\Dot-Small.png",320,240 M,1,102568,103567,320,240,222,131 F,2,102568,103567,0.67,0 S,0,102568,103567,0.409,0.259 C,0,102568,103567,255,200,235
Sprite,Background,Centre,"StoryBoard\Dot-Small.png",320,240 M,1,102568,103567,320,240,305,285 F,2,102568,103567,0.62,0 S,0,102568,103567,0.466,0.316 C,0,102568,103567,255,216,200
Sprite,Background,Centre,"StoryBoard\Dot-Small.png",320,240 M,1,102598,103597,320,240,513,434 F,2,102598,103597,0.57,0 S,0,102598,103597,0.406,0.256 C,0,102598,103597,203,200,255
Sprite,Background,Centre,"StoryBoard\Dot-Small.png",320,240 M,1,102598,103597,320,240,383,365 F,2,102598,103597,0.54,0 S,0,102598,103597,0.331,0.181 C,0,102598,103597,200,232,255
Sprite,Background,Centre,"StoryBoard\Dot-Small.png",320,240 M,1,102628,103627,320,240,298,254 F,2,102628,103627,0.75,0 S,0,102628,103627,0.464,0.314 C,0,102628,103627,203,200,255
Sprite,Background,Centre,"StoryBoard\Dot-Small.png",320,240 M,1,102628,103627,320,240,316,132 F,2,102628,103627,0.51,0 S,0,102628,103627,0.332,0.182 C,0,102628,103627,255,216,200
Sprite,Background,Centre,"StoryBoard\Dot-Small.png",320,240 M,1,102658,103657,320,240,266,276 F,2,102658,103657,0.65,0 S,0,102658,103657,0.462,0.312 C,0,102658,103657,200,255,228
Sprite,Background,Centre,"StoryBoard\Dot-Small.png",320,240 M,1,102658,103657,320,240,431,317 F,2,102658,103657,0.76,0 S,0,102658,103657,0.307,0.157 C,0,102658,103657,255,236,200
Sprite,Background,Centre,"StoryBoard\Dot-Small.png",320,240 M,1,102688,103687,320,240,407,248 F,2,102688,103687,0.58,0 S,0,102688,103687,0.492,0.342 C,0,102688,103687,200,232,255
Sprite,Background,Centre,"StoryBoard\Dot-Small.png",320,240 M,1,102688,103687,320,240,144,134 F,2,102688,103687,0.69,0 S,0,102688,103687,0.398,0.248 C,0,102688,103687,203,200,255
Sprite,Background,Centre,"StoryBoard\Dot-Small.png",320,240 M,1,102718,103717,320,240,516,279 F,2,102718,103717,0.68,0 S,0,102718,103717,0.421,0.271 C,0,102718,103717,255,200,235
Sprite,Background,Centre,"StoryBoard\Dot-Small.png",320,240 M,1,102718,103717,320,240,458,396 F,2,102718,103717,0.6,0 S,0,102718,103717,0.464,0.314 C,0,102718,103717,200,255,228
Sprite,Background,Centre,"StoryBoard\Dot-Small.png",320,240 M,1,102748,103747,320,240,504,299 F,2,102748,103747,0.64,0 S,0,102748,103747,0.464,0.314 C,0,102748,103747,255,200,235
Sprite,Background,Centre,"StoryBoard\Dot-Small.png",320,240 M,1,102748,103747,320,240,314,112 F,2,102748,103747,0.56,0 S,0,102748,103747,0.491,0.341 C,0,102748,103747,203,200,255
Sprite,Background,Centre,"StoryBoard\Dot-Small.png",320,240 M,1,102778,103777,320,240,326,295 F,2,102778,103777,0.69,0 S,0,102778,103777,0.382,0.232 C,0,102778,103777,255,236,200
Sprite,Background,Centre,"StoryBoard\Dot-Small.png",320,240 M,1,102778,103777,320,240,293,330 F,2,102778,103777,0.62,0 S,0,102778,103777,0.393,0.243 C,0,102778,103777,255,216,200
Sprite,Background,Centre,"StoryBoard\Dot-Small.png",320,240 M,1,102808,103807,320,240,337,272 F,2,102808,103807,0.68,0 S,0,102808,103807,0.316,0.166 C,0,102808,103807,214,255,200
Sprite,Background,Centre,"StoryBoard\Dot-Small.png",320,240 M,1,102808,103807,320,240,500,288 F,2,102808,103807,0.68,0 S,0,102808,103807,0.318,0.168 C,0,102808,103807,214,255,200
Sprite,Background,Centre,"StoryBoard\Dot-Small.png",320,240 M,1,102838,103837,320,240,439,44 F,2,102838,103837,0.6,0 S,0,102838,103837,0.454,0.304 C,0,102838,103837,200,255,228
Sprite,Background,Centre,"StoryBoard\Dot-Small.png",320,240 M,1,102838,103837,320,240,233,423 F,2,102838,103837,0.65,0 S,0,102838,103837,0.469,0.319 C,0,102838,103837,200,232,255
Sprite,Background,Centre,"StoryBoard\Dot-Small.png",320,240 M,1,102868,103867,320,240,156,253 F,2,102868,103867,0.7,0 S,0,102868,103867,0.411,0.261 C,0,102868,103867,203,200,255
Sprite,Background,Centre,"StoryBoard\Dot-Small.png",320,240 M,1,102868,103867,320,240,372,396 F,2,102868,103867,0.55,0 S,0,102868,103867,0.32,0.17 C,0,102868,103867,255,200,215
Sprite,Background,Centre,"StoryBoard\Dot-Small.png",320,240 M,1,102898,103897,320,240,211,132 F,2,102898,103897,0.7,0 S,0,102898,103897,0.407,0.257 C,0,102898,103897,203,200,255
Sprite,Background,Centre,"StoryBoard\Dot-Small.png",320,240 M,1,102898,103897,320,240,483,79 F,2,102898,103897,0.76,0 S,0,102898,103897,0.494,0.344 C,0,102898,103897,240,255,200
Sprite,Background,Centre,"StoryBoard\Dot-Small.png",320,240 M,1,102928,103927,320,240,455,360 F,2,102928,103927,0.66,0 S,0,102928,103927,0.339,0.189 C,0,102928,103927,255,200,235
Sprite,Background,Centre,"StoryBoard\Dot-Small.png",320,240 M,1,102928,103927,320,240,185,374 F,2,102928,103927,0.77,0 S,0,102928,103927,0.443,0.293 C,0,102928,103927,255,200,235
Sprite,Background,Centre,"StoryBoard\Dot-Small.png",320,240 M,1,102958,103957,320,240,160,285 F,2,102958,103957,0.61,0 S,0,102958,103957,0.359,0.209 C,0,102958,103957,255,200,215
Sprite,Background,Centre,"StoryBoard\Dot-Small.png",320,240 M,1,102958,103957,320,240,361,237 F,2,102958,103957,0.69,0 S,0,102958,103957,0.454,0.304 C,0,102958,103957,240,255,200
Sprite,Background,Centre,"StoryBoard\Dot-Small.png",320,240 M,1,102988,103987,320,240,520,139 F,2,102988,103987,0.75,0 S,0,102988,103987,0.476,0.326 C,0,102988,103987,239,200,255
Sprite,Background,Centre,"StoryBoard\Dot-Small.png",320,240 M,1,102988,103987,320,240,411,315 F,2,102988,103987,0.78,0 S,0,102988,103987,0.333,0.183 C,0,102988,103987,214,255,200
Sprite,Background,Centre,"StoryBoard\Dot-Small.png",320,240 M,1,103018,104017,320,240,360,394 F,2,103018,104017,0.75,0 S,0,103018,104017,0.348,0.198 C,0,103018,104017,255,200,235
Sprite,Background,Centre,"StoryBoard\Dot-Small.png",320,240 M,1,103018,104017,320,240,295,239 F,2,103018,104017,0.65,0 S,0,103018,104017,0.321,0.171 C,0,103018,104017,255,200,235
Sprite,Background,Centre,"StoryBoard\Dot-Small.png",320,240 M,1,103048,104047,320,240,149,72 F,2,103048,104047,0.75,0 S,0,103048,104047,0.384,0.234 C,0,103048,104047,200,232,255
Sprite,Background,Centre,"StoryBoard\Dot-Small.png",320,240 M,1,103048,104047,320,240,339,310 F,2,103048,104047,0.65,0 S,0,103048,104047,0.335,0.185 C,0,103048,104047,200,255,228
Sprite,Background,Centre,"StoryBoard\Dot-Small.png",320,240 M,1,103078,104077,320,240,364,200 F,2,103078,104077,0.7,0 S,0,103078,104077,0.341,0.191 C,0,103078,104077,255,200,235
Sprite,Background,Centre,"StoryBoard\Dot-Small.png",320,240 M,1,103078,104077,320,240,204,331 F,2,103078,104077,0.56,0 S,0,103078,104077,0.333,0.183 C,0,103078,104077,200,232,255
Sprite,Background,Centre,"StoryBoard\Dot-Small.png",320,240 M,1,103108,104107,320,240,300,290 F,2,103108,104107,0.74,0 S,0,103108,104107,0.479,0.329 C,0,103108,104107,255,236,200
Sprite,Background,Centre,"StoryBoard\Dot-Small.png",320,240 M,1,103108,104107,320,240,146,283 F,2,103108,104107,0.62,0 S,0,103108,104107,0.351,0.201 C,0,103108,104107,200,255,228
Sprite,Background,Centre,"StoryBoard\Dot-Small.png",320,240 M,1,103138,104137,320,240,517,418 F,2,103138,104137,0.6,0 S,0,103138,104137,0.359,0.209 C,0,103138,104137,255,200,215
Sprite,Background,Centre,"StoryBoard\Dot-Small.png",320,240 M,1,103138,104137,320,240,494,333 F,2,103138,104137,0.51,0 S,0,103138,104137,0.463,0.313 C,0,103138,104137,255,236,200
Sprite,Background,Centre,"StoryBoard\Dot-Small.png",320,240 M,1,103168,104167,320,240,219,205 F,2,103168,104167,0.63,0 S,0,103168,104167,0.461,0.311 C,0,103168,104167,214,255,200
Sprite,Background,Centre,"StoryBoard\Dot-Small.png",320,240 M,1,103168,104167,320,240,368,45 F,2,103168,104167,0.78,0 S,0,103168,104167,0.367,0.217 C,0,103168,104167,255,236,200
Sprite,Background,Centre,"StoryBoard\Dot-Small.png",320,240 M,1,103198,104197,320,240,304,320 F,2,103198,104197,0.67,0 S,0,103198,104197,0.445,0.295 C,0,103198,104197,240,255,200
Sprite,Background,Centre,"StoryBoard\Dot-Small.png",320,240 M,1,103198,104197,320,240,461,54 F,2,103198,104197,0.69,0 S,0,103198,104197,0.342,0.192 C,0,103198,104197,200,232,255
Sprite,Background,Centre,"StoryBoard\Dot-Small.png",320,240 M,1,103228,104227,320,240,437,201 F,2,103228,104227,0.57,0 S,0,103228,104227,0.318,0.168 C,0,103228,104227,240,255,200
Sprite,Background,Centre,"StoryBoard\Dot-Small.png",320,240 M,1,103228,104227,320,240,456,62 F,2,103228,104227,0.58,0 S,0,103228,104227,0.322,0.172 C,0,103228,104227,200,232,255
Sprite,Background,Centre,"StoryBoard\Dot-Small.png",320,240 M,1,103258,104257,320,240,426,187 F,2,103258,104257,0.55,0 S,0,103258,104257,0.35,0.2 C,0,103258,104257,255,236,200
Sprite,Background,Centre,"StoryBoard\Dot-Small.png",320,240 M,1,103258,104257,320,240,347,417 F,2,103258,104257,0.58,0 S,0,103258,104257,0.345,0.195 C,0,103258,104257,200,255,228
Sprite,Background,Centre,"StoryBoard\Dot-Small.png",320,240 M,1,103288,104287,320,240,375,254 F,2,103288,104287,0.51,0 S,0,103288,104287,0.412,0.262 C,0,103288,104287,255,236,200
Sprite,Background,Centre,"StoryBoard\Dot-Small.png",320,240 M,1,103288,104287,320,240,356,364 F,2,103288,104287,0.69,0 S,0,103288,104287,0.491,0.341 C,0,103288,104287,200,255,228
Sprite,Background,Centre,"StoryBoard\Dot-Small.png",320,240 M,1,103318,104317,320,240,228,46 F,2,103318,104317,0.79,0 S,0,103318,104317,0.492,0.342 C,0,103318,104317,239,200,255
Sprite,Background,Centre,"StoryBoard\Dot-Small.png",320,240 M,1,103318,104317,320,240,219,429 F,2,103318,104317,0.66,0 S,0,103318,104317,0.468,0.318 C,0,103318,104317,255,200,215
Sprite,Background,Centre,"StoryBoard\Dot-Small.png",320,240 M,1,103348,104347,320,240,329,232 F,2,103348,104347,0.78,0 S,0,103348,104347,0.436,0.286 C,0,103348,104347,255,236,200
Sprite,Background,Centre,"StoryBoard\Dot-Small.png",320,240 M,1,103348,104347,320,240,413,89 F,2,103348,104347,0.73,0 S,0,103348,104347,0.468,0.318 C,0,103348,104347,240,255,200
Sprite,Background,Centre,"StoryBoard\Dot-Small.png",320,240 M,1,103378,104377,320,240,381,297 F,2,103378,104377,0.65,0 S,0,103378,104377,0.426,0.276 C,0,103378,104377,239,200,255
Sprite,Background,Centre,"StoryBoard\Dot-Small.png",320,240 M,1,103378,104377,320,240,320,212 F,2,103378,104377,0.62,0 S,0,103378,104377,0.342,0.192 C,0,103378,104377,255,200,235
Sprite,Background,Centre,"StoryBoard\Dot-Small.png",320,240 M,1,103408,104407,320,240,198,355 F,2,103408,104407,0.76,0 S,0,103408,104407,0.382,0.232 C,0,103408,104407,203,200,255
Sprite,Background,Centre,"StoryBoard\Dot-Small.png",320,240 M,1,103408,104407,320,240,308,319 F,2,103408,104407,0.59,0 S,0,103408,104407,0.344,0.194 C,0,103408,104407,200,255,228
Sprite,Background,Centre,"StoryBoard\Dot-Small.png",320,240 M,1,103438,104437,320,240,447,44 F,2,103438,104437,0.8,0 S,0,103438,104437,0.422,0.272 C,0,103438,104437,214,255,200
Sprite,Background,Centre,"StoryBoard\Dot-Small.png",320,240 M,1,103438,104437,320,240,480,398 F,2,103438,104437,0.66,0 S,0,103438,104437,0.41,0.26 C,0,103438,104437,214,255,200
Sprite,Background,Centre,"StoryBoard\Dot-Small.png",320,240 M,1,103468,104467,320,240,319,158 F,2,103468,104467,0.64,0 S,0,103468,104467,0.491,0.341 C,0,103468,104467,255,200,215
Sprite,Background,Centre,"StoryBoard\Dot-Small.png",320,240 M,1,103468,104467,320,240,358,239 F,2,103468,104467,0.71,0 S,0,103468,104467,0.339,0.189 C,0,103468,104467,200,255,228
Sprite,Background,Centre,"StoryBoard\Dot-Small.png",320,240 M,1,103498,104497,320,240,415,363 F,2,103498,104497,0.74,0 S,0,103498,104497,0.348,0.198 C,0,103498,104497,255,200,215
Sprite,Background,Centre,"StoryBoard\Dot-Small.png",320,240 M,1,103498,104497,320,240,412,88 F,2,103498,104497,0.73,0 S,0,103498,104497,0.391,0.241 C,0,103498,104497,255,236,200
Sprite,Background,Centre,"StoryBoard\Dot-Small.png",320,240 M,1,103528,104527,320,240,355,49 F,2,103528,104527,0.6,0 S,0,103528,104527,0.31,0.16 C,0,103528,104527,255,200,215
Sprite,Background,Centre,"StoryBoard\Dot-Small.png",320,240 M,1,103528,104527,320,240,259,136 F,2,103528,104527,0.7,0 S,0,103528,104527,0.483,0.333 C,0,103528,104527,240,255,200
Sprite,Background,Centre,"StoryBoard\Dot-Small.png",320,240 M,1,103558,104557,320,240,254,276 F,2,103558,104557,0.67,0 S,0,103558,104557,0.477,0.327 C,0,103558,104557,200,232,255
Sprite,Background,Centre,"StoryBoard\Dot-Small.png",320,240 M,1,103558,104557,320,240,511,136 F,2,103558,104557,0.77,0 S,0,103558,104557,0.47,0.32 C,0,103558,104557,255,236,200
Sprite,Background,Centre,"StoryBoard\Dot-Small.png",320,240 M,1,103588,104587,320,240,430,173 F,2,103588,104587,0.69,0 S,0,103588,104587,0.469,0.319 C,0,103588,104587,240,255,200
Sprite,Background,Centre,"StoryBoard\Dot-Small.png",320,240 M,1,103588,104587,320,240,230,47 F,2,103588,104587,0.69,0 S,0,103588,104587,0.421,0.271 C,0,103588,104587,255,200,235
Sprite,Background,Centre,"StoryBoard\Dot-Small.png",320,240 M,1,103618,104617,320,240,150,292 F,2,103618,104617,0.63,0 S,0,103618,104617,0.423,0.273 C,0,103618,104617,203,200,255
Sprite,Background,Centre,"StoryBoard\Dot-Small.png",320,240 M,1,103618,104617,320,240,142,296 F,2,103618,104617,0.69,0 S,0,103618,104617,0.343,0.193 C,0,103618,104617,255,216,200
Sprite,Background,Centre,"StoryBoard\Dot-Small.png",320,240 M,1,103648,104647,320,240,444,317 F,2,103648,104647,0.6,0 S,0,103648,104647,0.453,0.303 C,0,103648,104647,239,200,255
Sprite,Background,Centre,"StoryBoard\Dot-Small.png",320,240 M,1,103648,104647,320,240,422,358 F,2,103648,104647,0.75,0 S,0,103648,104647,0.332,0.182 C,0,103648,104647,239,200,255
Sprite,Background,Centre,"StoryBoard\Dot-Small.png",320,240 M,1,103678,104677,320,240,298,92 F,2,103678,104677,0.54,0 S,0,103678,104677,0.396,0.246 C,0,103678,104677,240,255,200
Sprite,Background,Centre,"StoryBoard\Dot-Small.png",320,240 M,1,103678,104677,320,240,269,216 F,2,103678,104677,0.59,0 S,0,103678,104677,0.354,0.204 C,0,103678,104677,239,200,255
Sprite,Background,Centre,"StoryBoard\Dot-Small.png",320,240 M,1,103708,104707,320,240,143,339 F,2,103708,104707,0.63,0 S,0,103708,104707,0.419,0.269 C,0,103708,104707,255,236,200
Sprite,Background,Centre,"StoryBoard\Dot-Small.png",320,240 M,1,103708,104707,320,240,341,385 F,2,103708,104707,0.52,0 S,0,103708,104707,0.436,0.286 C,0,103708,104707,240,255,200
Sprite,Background,Centre,"StoryBoard\Dot-Small.png",320,240 M,1,103738,104737,320,240,492,392 F,2,103738,104737,0.52,0 S,0,103738,104737,0.417,0.267 C,0,103738,104737,255,200,215
Sprite,Background,Centre,"StoryBoard\Dot-Small.png",320,240 M,1,103738,104737,320,240,196,47 F,2,103738,104737,0.54,0 S,0,103738,104737,0.437,0.287 C,0,103738,104737,214,255,200
Sprite,Background,Centre,"StoryBoard\Dot-Small.png",320,240 M,1,103768,104767,320,240,313,52 F,2,103768,104767,0.76,0 S,0,103768,104767,0.325,0.175 C,0,103768,104767,255,200,215
Sprite,Background,Centre,"StoryBoard\Dot-Small.png",320,240 M,1,103768,104767,320,240,184,436 F,2,103768,104767,0.64,0 S,0,103768,104767,0.465,0.315 C,0,103768,104767,255,200,215
Sprite,Background,Centre,"StoryBoard\Dot-Small.png",320,240 M,1,103798,104797,320,240,400,374 F,2,103798,104797,0.62,0 S,0,103798,104797,0.445,0.295 C,0,103798,104797,200,232,255
Sprite,Background,Centre,"StoryBoard\Dot-Small.png",320,240 M,1,103798,104797,320,240,465,202 F,2,103798,104797,0.5,0 S,0,103798,104797,0.317,0.167 C,0,103798,104797,203,200,255
Sprite,Background,Centre,"StoryBoard\Dot-Small.png",320,240 M,1,103828,104827,320,240,436,84 F,2,103828,104827,0.73,0 S,0,103828,104827,0.404,0.254 C,0,103828,104827,240,255,200
Sprite,Background,Centre,"StoryBoard\Dot-Small.png",320,240 M,1,103828,104827,320,240,199,172 F,2,103828,104827,0.78,0 S,0,103828,104827,0.395,0.245 C,0,103828,104827,239,200,255
Sprite,Background,Centre,"StoryBoard\Dot-Small.png",320,240 M,1,103858,104857,320,240,370,334 F,2,103858,104857,0.65,0 S,0,103858,104857,0.494,0.344 C,0,103858,104857,255,200,235
Sprite,Background,Centre,"StoryBoard\Dot-Small.png",320,240 M,1,103858,104857,320,240,508,52 F,2,103858,104857,0.59,0 S,0,103858,104857,0.492,0.342 C,0,103858,104857,255,216,200
Sprite,Background,Centre,"StoryBoard\Dot-Small.png",320,240 M,1,103888,104887,320,240,411,189 F,2,103888,104887,0.71,0 S,0,103888,104887,0.471,0.321 C,0,103888,104887,203,200,255
Sprite,Background,Centre,"StoryBoard\Dot-Small.png",320,240 M,1,103888,104887,320,240,373,378 F,2,103888,104887,0.65,0 S,0,103888,104887,0.406,0.256 C,0,103888,104887,200,232,255
Sprite,Background,Centre,"StoryBoard\Dot-Small.png",320,240 M,1,103918,104917,320,240,428,115 F,2,103918,104917,0.67,0 S,0,103918,104917,0.464,0.314 C,0,103918,104917,200,232,255
Sprite,Background,Centre,"StoryBoard\Dot-Small.png",320,240 M,1,103918,104917,320,240,267,318 F,2,103918,104917,0.73,0 S,0,103918,104917,0.416,0.266 C,0,103918,104917,200,232,255
Sprite,Background,Centre,"StoryBoard\Dot-Small.png",320,240 M,1,103948,104947,320,240,458,166 F,2,103948,104947,0.69,0 S,0,103948,104947,0.486,0.336 C,0,103948,104947,203,200,255
Sprite,Background,Centre,"StoryBoard\Dot-Small.png",320,240 M,1,103948,104947,320,240,191,153 F,2,103948,104947,0.76,0 S,0,103948,104947,0.359,0.209 C,0,103948,104947,255,200,215
Sprite,Background,Centre,"StoryBoard\Dot-Small.png",320,240 M,1,103978,104977,320,240,142,174 F,2,103978,104977,0.57,0 S,0,103978,104977,0.377,0.227 C,0,103978,104977,240,255,200
Sprite,Background,Centre,"StoryBoard\Dot-Small.png",320,240 M,1,103978,104977,320,240,401,101 F,2,103978,104977,0.53,0 S,0,103978,104977,0.435,0.285 C,0,103978,104977,255,200,215
Sprite,Background,Centre,"StoryBoard\Dot-Small.png",320,240 M,1,104008,105007,320,240,399,275 F,2,104008,105007,0.59,0 S,0,104008,105007,0.46,0.31 C,0,104008,105007,200,232,255
Sprite,Background,Centre,"StoryBoard\Dot-Small.png",320,240 M,1,104008,105007,320,240,342,243 F,2,104008,105007,0.58,0 S,0,104008,105007,0.364,0.214 C,0,104008,105007,255,200,215
Sprite,Background,Centre,"StoryBoard\Dot-Small.png",320,240 M,1,104038,105037,320,240,211,270 F,2,104038,105037,0.56,0 S,0,104038,105037,0.345,0.195 C,0,104038,105037,200,232,255
Sprite,Background,Centre,"StoryBoard\Dot-Small.png",320,240 M,1,104038,105037,320,240,278,151 F,2,104038,105037,0.52,0 S,0,104038,105037,0.495,0.345 C,0,104038,105037,239,200,255
Sprite,Background,Centre,"StoryBoard\Dot-Small.png",320,240 M,1,104068,105067,320,240,469,260 F,2,104068,105067,0.55,0 S,0,104068,105067,0.332,0.182 C,0,104068,105067,214,255,200
Sprite,Background,Centre,"StoryBoard\Dot-Small.png",320,240 M,1,104068,105067,320,240,506,115 F,2,104068,105067,0.53,0 S,0,104068,105067,0.332,0.182 C,0,104068,105067,255,200,215
Sprite,Background,Centre,"StoryBoard\Dot-Small.png",320,240 M,1,104098,105097,320,240,432,209 F,2,104098,105097,0.71,0 S,0,104098,105097,0.341,0.191 C,0,104098,105097,200,232,255
Sprite,Background,Centre,"StoryBoard\Dot-Small.png",320,240 M,1,104098,105097,320,240,382,94 F,2,104098,105097,0.77,0 S,0,104098,105097,0.347,0.197 C,0,104098,105097,255,200,235
Sprite,Background,Centre,"StoryBoard\Dot-Small.png",320,240 M,1,104128,105127,320,240,408,305 F,2,104128,105127,0.71,0 S,0,104128,105127,0.304,0.154 C,0,104128,105127,214,255,200
Sprite,Background,Centre,"StoryBoard\Dot-Small.png",320,240 M,1,104128,105127,320,240,331,289 F,2,104128,105127,0.73,0 S,0,104128,105127,0.481,0.331 C,0,104128,105127,200,255,228
Sprite,Background,Centre,"StoryBoard\Dot-Small.png",320,240 M,1,104158,105157,320,240,518,435 F,2,104158,105157,0.71,0 S,0,104158,105157,0.332,0.182 C,0,104158,105157,255,200,235
Sprite,Background,Centre,"StoryBoard\Dot-Small.png",320,240 M,1,104158,105157,320,240,340,413 F,2,104158,105157,0.7,0 S,0,104158,105157,0.3,0.15 C,0,104158,105157,200,255,228
Sprite,Background,Centre,"StoryBoard\Dot-Small.png",320,240 M,1,104188,105187,320,240,220,219 F,2,104188,105187,0.5,0 S,0,104188,105187,0.45,0.3 C,0,104188,105187,200,232,255
Sprite,Background,Centre,"StoryBoard\Dot-Small.png",320,240 M,1,104188,105187,320,240,509,357 F,2,104188,105187,0.54,0 S,0,104188,105187,0.479,0.329 C,0,104188,105187,255,236,200
Sprite,Background,Centre,"StoryBoard\Dot-Small.png",320,240 M,1,104218,105217,320,240,428,95 F,2,104218,105217,0.8,0 S,0,104218,105217,0.42,0.27 C,0,104218,105217,214,255,200
Sprite,Background,Centre,"StoryBoard\Dot-Small.png",320,240 M,1,104218,105217,320,240,373,126 F,2,104218,105217,0.73,0 S,0,104218,105217,0.435,0.285 C,0,104218,105217,214,255,200
Sprite,Background,Centre,"StoryBoard\Dot-Small.png",320,240 M,1,104248,105247,320,240,143,189 F,2,104248,105247,0.68,0 S,0,104248,105247,0.304,0.154 C,0,104248,105247,214,255,200
Sprite,Background,Centre,"StoryBoard\Dot-Small.png",320,240 M,1,104248,105247,320,240,266,164 F,2,104248,105247,0.74,0 S,0,104248,105247,0.413,0.263 C,0,104248,105247,255,200,215
Sprite,Background,Centre,"StoryBoard\Dot-Small.png",320,240 M,1,104278,105277,320,240,267,390 F,2,104278,105277,0.63,0 S,0,104278,105277,0.35,0.2 C,0,104278,105277,255,200,235
Sprite,Background,Centre,"StoryBoard\Dot-Small.png",320,240 M,1,104278,105277,320,240,202,140 F,2,104278,105277,0.74,0 S,0,104278,105277,0.314,0.164 C,0,104278,105277,200,255,228
Sprite,Background,Centre,"StoryBoard\Dot-Small.png",320,240 M,1,104308,105307,320,240,391,172 F,2,104308,105307,0.64,0 S,0,104308,105307,0.438,0.288 C,0,104308,105307,200,255,228
Sprite,Background,Centre,"StoryBoard\Dot-Small.png",320,240 M,1,104308,105307,320,240,175,212 F,2,104308,105307,0.65,0 S,0,104308,105307,0.46,0.31 C,0,104308,105307,239,200,255
Sprite,Background,Centre,"StoryBoard\Dot-Small.png",320,240 M,1,104338,105337,320,240,426,411 F,2,104338,105337,0.58,0 S,0,104338,105337,0.45,0.3 C,0,104338,105337,255,216,200
Sprite,Background,Centre,"StoryBoard\Dot-Small.png",320,240 M,1,104338,105337,320,240,404,422 F,2,104338,105337,0.5,0 S,0,104338,105337,0.33,0.18 C,0,104338,105337,203,200,255
Sprite,Background,Centre,"StoryBoard\Dot-Small.png",320,240 M,1,104368,105367,320,240,248,86 F,2,104368,105367,0.68,0 S,0,104368,105367,0.319,0.169 C,0,104368,105367,255,236,200
Sprite,Background,Centre,"StoryBoard\Dot-Small.png",320,240 M,1,104368,105367,320,240,211,353 F,2,104368,105367,0.68,0 S,0,104368,105367,0.435,0.285 C,0,104368,105367,240,255,200
Sprite,Background,Centre,"StoryBoard\Dot-Small.png",320,240 M,1,104398,105397,320,240,408,90 F,2,104398,105397,0.62,0 S,0,104398,105397,0.348,0.198 C,0,104398,105397,240,255,200
Sprite,Background,Centre,"StoryBoard\Dot-Small.png",320,240 M,1,104398,105397,320,240,237,164 F,2,104398,105397,0.79,0 S,0,104398,105397,0.31,0.16 C,0,104398,105397,203,200,255
Sprite,Background,Centre,"StoryBoard\Dot-Small.png",320,240 M,1,104428,105427,320,240,263,276 F,2,104428,105427,0.61,0 S,0,104428,105427,0.475,0.325 C,0,104428,105427,240,255,200
Sprite,Background,Centre,"StoryBoard\Dot-Small.png",320,240 M,1,104428,105427,320,240,358,418 F,2,104428,105427,0.77,0 S,0,104428,105427,0.307,0.157 C,0,104428,105427,255,236,200
Sprite,Background,Centre,"StoryBoard\Dot-Small.png",320,240 M,1,104458,105457,320,240,228,270 F,2,104458,105457,0.5,0 S,0,104458,105457,0.33,0.18 C,0,104458,105457,255,200,215
Sprite,Background,Centre,"StoryBoard\Dot-Small.png",320,240 M,1,104458,105457,320,240,152,313 F,2,104458,105457,0.79,0 S,0,104458,105457,0.31,0.16 C,0,104458,105457,214,255,200
Sprite,Background,Centre,"StoryBoard\Dot-Small.png",320,240 M,1,104488,105487,320,240,305,380 F,2,104488,105487,0.66,0 S,0,104488,105487,0.459,0.309 C,0,104488,105487,255,236,200
Sprite,Background,Centre,"StoryBoard\Dot-Small.png",320,240 M,1,104488,105487,320,240,471,274 F,2,104488,105487,0.59,0 S,0,104488,105487,0.469,0.319 C,0,104488,105487,200,232,255
Sprite,Background,Centre,"StoryBoard\Dot-Small.png",320,240 M,1,104518,105517,320,240,432,101 F,2,104518,105517,0.72,0 S,0,104518,105517,0.485,0.335 C,0,104518,105517,255,216,200
Sprite,Background,Centre,"StoryBoard\Dot-Small.png",320,240 M,1,104518,105517,320,240,197,405 F,2,104518,105517,0.66,0 S,0,104518,105517,0.444,0.294 C,0,104518,105517,214,255,200
Sprite,Background,Centre,"StoryBoard\Dot-Small.png",320,240 M,1,104548,105547,320,240,460,117 F,2,104548,105547,0.62,0 S,0,104548,105547,0.421,0.271 C,0,104548,105547,255,200,235
Sprite,Background,Centre,"StoryBoard\Dot-Small.png",320,240 M,1,104548,105547,320,240,322,135 F,2,104548,105547,0.56,0 S,0,104548,105547,0.411,0.261 C,0,104548,105547,255,236,200
Sprite,Background,Centre,"StoryBoard\Dot-Small.png",320,240 M,1,104578,105577,320,240,188,189 F,2,104578,105577,0.63,0 S,0,104578,105577,0.31,0.16 C,0,104578,105577,200,232,255
Sprite,Background,Centre,"StoryBoard\Dot-Small.png",320,240 M,1,104578,105577,320,240,129,279 F,2,104578,105577,0.64,0 S,0,104578,105577,0.45,0.3 C,0,104578,105577,240,255,200
Sprite,Background,Centre,"StoryBoard\Dot-Small.png",320,240 M,1,104608,105607,320,240,300,97 F,2,104608,105607,0.76,0 S,0,104608,105607,0.404,0.254 C,0,104608,105607,200,232,255
Sprite,Background,Centre,"StoryBoard\Dot-Small.png",320,240 M,1,104608,105607,320,240,134,224 F,2,104608,105607,0.69,0 S,0,104608,105607,0.436,0.286 C,0,104608,105607,239,200,255
Sprite,Background,Centre,"StoryBoard\Dot-Small.png",320,240 M,1,104638,105637,320,240,348,92 F,2,104638,105637,0.67,0 S,0,104638,105637,0.32,0.17 C,0,104638,105637,200,255,228
Sprite,Background,Centre,"StoryBoard\Dot-Small.png",320,240 M,1,104638,105637,320,240,440,240 F,2,104638,105637,0.72,0 S,0,104638,105637,0.462,0.312 C,0,104638,105637,255,236,200
Sprite,Background,Centre,"StoryBoard\Dot-Small.png",320,240 M,1,104668,105667,320,240,328,164 F,2,104668,105667,0.54,0 S,0,104668,105667,0.353,0.203 C,0,104668,105667,200,232,255
Sprite,Background,Centre,"StoryBoard\Dot-Small.png",320,240 M,1,104668,105667,320,240,515,219 F,2,104668,105667,0.79,0 S,0,104668,105667,0.433,0.283 C,0,104668,105667,203,200,255
Sprite,Background,Centre,"StoryBoard\Dot-Small.png",320,240 M,1,104698,105697,320,240,501,197 F,2,104698,105697,0.78,0 S,0,104698,105697,0.309,0.159 C,0,104698,105697,255,200,235
Sprite,Background,Centre,"StoryBoard\Dot-Small.png",320,240 M,1,104698,105697,320,240,122,220 F,2,104698,105697,0.55,0 S,0,104698,105697,0.486,0.336 C,0,104698,105697,255,200,215
Sprite,Background,Centre,"StoryBoard\Dot-Small.png",320,240 M,1,104728,105727,320,240,323,196 F,2,104728,105727,0.62,0 S,0,104728,105727,0.355,0.205 C,0,104728,105727,203,200,255
Sprite,Background,Centre,"StoryBoard\Dot-Small.png",320,240 M,1,104728,105727,320,240,492,372 F,2,104728,105727,0.74,0 S,0,104728,105727,0.34,0.19 C,0,104728,105727,214,255,200
Sprite,Background,Centre,"StoryBoard\Dot-Small.png",320,240 M,1,104758,105757,320,240,504,169 F,2,104758,105757,0.7,0 S,0,104758,105757,0.448,0.298 C,0,104758,105757,255,200,215
Sprite,Background,Centre,"StoryBoard\Dot-Small.png",320,240 M,1,104758,105757,320,240,380,307 F,2,104758,105757,0.65,0 S,0,104758,105757,0.433,0.283 C,0,104758,105757,200,232,255
Sprite,Background,Centre,"StoryBoard\Dot-Small.png",320,240 M,1,104788,105787,320,240,370,68 F,2,104788,105787,0.7,0 S,0,104788,105787,0.32,0.17 C,0,104788,105787,214,255,200
Sprite,Background,Centre,"StoryBoard\Dot-Small.png",320,240 M,1,104788,105787,320,240,197,340 F,2,104788,105787,0.63,0 S,0,104788,105787,0.353,0.203 C,0,104788,105787,255,236,200
Sprite,Background,Centre,"StoryBoard\Dot-Small.png",320,240 M,1,104818,105817,320,240,354,403 F,2,104818,105817,0.77,0 S,0,104818,105817,0.445,0.295 C,0,104818,105817,255,236,200
Sprite,Background,Centre,"StoryBoard\Dot-Small.png",320,240 M,1,104818,105817,320,240,484,400 F,2,104818,105817,0.59,0 S,0,104818,105817,0.425,0.275 C,0,104818,105817,200,255,228
Sprite,Background,Centre,"StoryBoard\Dot-Small.png",320,240 M,1,104848,105847,320,240,132,85 F,2,104848,105847,0.73,0 S,0,104848,105847,0.396,0.246 C,0,104848,105847,255,236,200
Sprite,Background,Centre,"StoryBoard\Dot-Small.png",320,240 M,1,104848,105847,320,240,470,408 F,2,104848,105847,0.59,0 S,0,104848,105847,0.467,0.317 C,0,104848,105847,203,200,255
Sprite,Background,Centre,"StoryBoard\Dot-Small.png",320,240 M,1,104878,105877,320,240,451,271 F,2,104878,105877,0.73,0 S,0,104878,105877,0.343,0.193 C,0,104878,105877,200,255,228
Sprite,Background,Centre,"StoryBoard\Dot-Small.png",320,240 M,1,104878,105877,320,240,212,162 F,2,104878,105877,0.66,0 S,0,104878,105877,0.415,0.265 C,0,104878,105877,255,236,200
Sprite,Background,Centre,"StoryBoard\Dot-Small.png",320,240 M,1,104908,105907,320,240,126,214 F,2,104908,105907,0.77,0 S,0,104908,105907,0.329,0.179 C,0,104908,105907,239,200,255
Sprite,Background,Centre,"StoryBoard\Dot-Small.png",320,240 M,1,104908,105907,320,240,318,354 F,2,104908,105907,0.6,0 S,0,104908,105907,0.434,0.284 C,0,104908,105907,239,200,255
Sprite,Background,Centre,"StoryBoard\Dot-Small.png",320,240 M,1,104938,105937,320,240,121,407 F,2,104938,105937,0.63,0 S,0,104938,105937,0.406,0.256 C,0,104938,105937,255,200,235
Sprite,Background,Centre,"StoryBoard\Dot-Small.png",320,240 M,1,104938,105937,320,240,265,221 F,2,104938,105937,0.79,0 S,0,104938,105937,0.457,0.307 C,0,104938,105937,214,255,200
Sprite,Background,Centre,"StoryBoard\Dot-Small.png",320,240 M,1,104968,105967,320,240,161,203 F,2,104968,105967,0.66,0 S,0,104968,105967,0.49,0.34 C,0,104968,105967,200,255,228
Sprite,Background,Centre,"StoryBoard\Dot-Small.png",320,240 M,1,104968,105967,320,240,144,231 F,2,104968,105967,0.54,0 S,0,104968,105967,0.314,0.164 C,0,104968,105967,255,200,235
Sprite,Background,Centre,"StoryBoard\Dot-Small.png",320,240 M,1,104998,105997,320,240,469,403 F,2,104998,105997,0.57,0 S,0,104998,105997,0.44,0.29 C,0,104998,105997,200,255,228
Sprite,Background,Centre,"StoryBoard\Dot-Small.png",320,240 M,1,104998,105997,320,240,272,189 F,2,104998,105997,0.73,0 S,0,104998,105997,0.435,0.285 C,0,104998,105997,200,255,228
Sprite,Background,Centre,"StoryBoard\Dot-Small.png",320,240 M,1,105028,106027,320,240,310,124 F,2,105028,106027,0.63,0 S,0,105028,106027,0.344,0.194 C,0,105028,106027,200,232,255
Sprite,Background,Centre,"StoryBoard\Dot-Small.png",320,240 M,1,105028,106027,320,240,442,319 F,2,105028,106027,0.62,0 S,0,105028,106027,0.311,0.161 C,0,105028,106027,200,232,255
Sprite,Background,Centre,"StoryBoard\Dot-Small.png",320,240 M,1,105058,106057,320,240,206,366 F,2,105058,106057,0.62,0 S,0,105058,106057,0.433,0.283 C,0,105058,106057,200,255,228
Sprite,Background,Centre,"StoryBoard\Dot-Small.png",320,240 M,1,105058,106057,320,240,212,61 F,2,105058,106057,0.55,0 S,0,105058,106057,0.41,0.26 C,0,105058,106057,240,255,200
Sprite,Background,Centre,"StoryBoard\Dot-Small.png",320,240 M,1,105088,106087,320,240,372,240 F,2,105088,106087,0.78,0 S,0,105088,106087,0.301,0.151 C,0,105088,106087,255,200,215
Sprite,Background,Centre,"StoryBoard\Dot-Small.png",320,240 M,1,105088,106087,320,240,286,105 F,2,105088,106087,0.78,0 S,0,105088,106087,0.45,0.3 C,0,105088,106087,255,236,200
Sprite,Background,Centre,"StoryBoard\Dot-Small.png",320,240 M,1,105118,106117,320,240,135,126 F,2,105118,106117,0.76,0 S,0,105118,106117,0.429,0.279 C,0,105118,106117,239,200,255
Sprite,Background,Centre,"StoryBoard\Dot-Small.png",320,240 M,1,105118,106117,320,240,450,156 F,2,105118,106117,0.6,0 S,0,105118,106117,0.399,0.249 C,0,105118,106117,240,255,200
Sprite,Background,Centre,"StoryBoard\Dot-Small.png",320,240 M,1,105148,106147,320,240,387,106 F,2,105148,106147,0.52,0 S,0,105148,106147,0.327,0.177 C,0,105148,106147,200,255,228
Sprite,Background,Centre,"StoryBoard\Dot-Small.png",320,240 M,1,105148,106147,320,240,122,374 F,2,105148,106147,0.53,0 S,0,105148,106147,0.412,0.262 C,0,105148,106147,203,200,255
Sprite,Background,Centre,"StoryBoard\Dot-Small.png",320,240 M,1,105178,106177,320,240,140,109 F,2,105178,106177,0.6,0 S,0,105178,106177,0.335,0.185 C,0,105178,106177,239,200,255
Sprite,Background,Centre,"StoryBoard\Dot-Small.png",320,240 M,1,105178,106177,320,240,202,157 F,2,105178,106177,0.71,0 S,0,105178,106177,0.319,0.169 C,0,105178,106177,203,200,255
Sprite,Background,Centre,"StoryBoard\Dot-Small.png",320,240 M,1,105208,106207,320,240,167,223 F,2,105208,106207,0.52,0 S,0,105208,106207,0.44,0.29 C,0,105208,106207,239,200,255
Sprite,Background,Centre,"StoryBoard\Dot-Small.png",320,240 M,1,105208,106207,320,240,367,246 F,2,105208,106207,0.55,0 S,0,105208,106207,0.482,0.332 C,0,105208,106207,255,200,215
Sprite,Background,Centre,"StoryBoard\Dot-Small.png",320,240 M,1,105238,106237,320,240,347,102 F,2,105238,106237,0.69,0 S,0,105238,106237,0.386,0.236 C,0,105238,106237,200,255,228
Sprite,Background,Centre,"StoryBoard\Dot-Small.png",320,240 M,1,105238,106237,320,240,455,424 F,2,105238,106237,0.64,0 S,0,105238,106237,0.332,0.182 C,0,105238,106237,200,232,255
Sprite,Background,Centre,"StoryBoard\Dot-Small.png",320,240 M,1,105268,106267,320,240,410,158 F,2,105268,106267,0.5,0 S,0,105268,106267,0.489,0.339 C,0,105268,106267,200,232,255
Sprite,Background,Centre,"StoryBoard\Dot-Small.png",320,240 M,1,105268,106267,320,240,334,49 F,2,105268,106267,0.69,0 S,0,105268,106267,0.495,0.345 C,0,105268,106267,255,200,235
Sprite,Background,Centre,"StoryBoard\Dot-Small.png",320,240 M,1,105298,106297,320,240,326,301 F,2,105298,106297,0.71,0 S,0,105298,106297,0.333,0.183 C,0,105298,106297,239,200,255
Sprite,Background,Centre,"StoryBoard\Dot-Small.png",320,240 M,1,105298,106297,320,240,331,131 F,2,105298,106297,0.55,0 S,0,105298,106297,0.323,0.173 C,0,105298,106297,214,255,200
Sprite,Background,Centre,"StoryBoard\Dot-Small.png",320,240 M,1,105328,106327,320,240,147,437 F,2,105328,106327,0.52,0 S,0,105328,106327,0.326,0.176 C,0,105328,106327,200,255,228
Sprite,Background,Centre,"StoryBoard\Dot-Small.png",320,240 M,1,105328,106327,320,240,205,268 F,2,105328,106327,0.76,0 S,0,105328,106327,0.37,0.22 C,0,105328,106327,214,255,200
Sprite,Background,Centre,"StoryBoard\Dot-Small.png",320,240 M,1,105358,106357,320,240,385,75 F,2,105358,106357,0.72,0 S,0,105358,106357,0.323,0.173 C,0,105358,106357,203,200,255
Sprite,Background,Centre,"StoryBoard\Dot-Small.png",320,240 M,1,105358,106357,320,240,129,202 F,2,105358,106357,0.72,0 S,0,105358,106357,0.334,0.184 C,0,105358,106357,255,216,200
Sprite,Background,Centre,"StoryBoard\Dot-Small.png",320,240 M,1,105388,106387,320,240,303,120 F,2,105388,106387,0.66,0 S,0,105388,106387,0.374,0.224 C,0,105388,106387,239,200,255
Sprite,Background,Centre,"StoryBoard\Dot-Small.png",320,240 M,1,105388,106387,320,240,143,244 F,2,105388,106387,0.73,0 S,0,105388,106387,0.314,0.164 C,0,105388,106387,203,200,255
Sprite,Background,Centre,"StoryBoard\Dot-Small.png",320,240 M,1,105418,106417,320,240,431,50 F,2,105418,106417,0.51,0 S,0,105418,106417,0.31,0.16 C,0,105418,106417,239,200,255
Sprite,Background,Centre,"StoryBoard\Dot-Small.png",320,240 M,1,105418,106417,320,240,453,385 F,2,105418,106417,0.51,0 S,0,105418,106417,0.493,0.343 C,0,105418,106417,255,200,215
Sprite,Background,Centre,"StoryBoard\Dot-Small.png",320,240 M,1,105448,106447,320,240,516,198 F,2,105448,106447,0.65,0 S,0,105448,106447,0.493,0.343 C,0,105448,106447,200,232,255
Sprite,Background,Centre,"StoryBoard\Dot-Small.png",320,240 M,1,105448,106447,320,240,475,83 F,2,105448,106447,0.75,0 S,0,105448,106447,0.455,0.305 C,0,105448,106447,240,255,200
Sprite,Background,Centre,"StoryBoard\Dot-Small.png",320,240 M,1,105478,106477,320,240,443,116 F,2,105478,106477,0.72,0 S,0,105478,106477,0.362,0.212 C,0,105478,106477,203,200,255
Sprite,Background,Centre,"StoryBoard\Dot-Small.png",320,240 M,1,105478,106477,320,240,215,60 F,2,105478,106477,0.8,0 S,0,105478,106477,0.466,0.316 C,0,105478,106477,255,200,235
Sprite,Background,Centre,"StoryBoard\Dot-Small.png",320,240 M,1,105508,106507,320,240,190,273 F,2,105508,106507,0.64,0 S,0,105508,106507,0.367,0.217 C,0,105508,106507,255,200,215
Sprite,Background,Centre,"StoryBoard\Dot-Small.png",320,240 M,1,105508,106507,320,240,241,242 F,2,105508,106507,0.52,0 S,0,105508,106507,0.419,0.269 C,0,105508,106507,255,200,235
Sprite,Background,Centre,"StoryBoard\Dot-Small.png",320,240 M,1,105538,106537,320,240,439,186 F,2,105538,106537,0.72,0 S,0,105538,106537,0.314,0.164 C,0,105538,106537,239,200,255
Sprite,Background,Centre,"StoryBoard\Dot-Small.png",320,240 M,1,105538,106537,320,240,172,119 F,2,105538,106537,0.56,0 S,0,105538,106537,0.368,0.218 C,0,105538,106537,200,232,255
Sprite,Background,Centre,"StoryBoard\Dot-Small.png",320,240 M,1,105568,106567,320,240,139,289 F,2,105568,106567,0.67,0 S,0,105568,106567,0.499,0.349 C,0,105568,106567,255,236,200
Sprite,Background,Centre,"StoryBoard\Dot-Small.png",320,240 M,1,105568,106567,320,240,449,242 F,2,105568,106567,0.69,0 S,0,105568,106567,0.406,0.256 C,0,105568,106567,200,232,255
Sprite,Background,Centre,"StoryBoard\Dot-Small.png",320,240 M,1,105598,106597,320,240,390,309 F,2,105598,106597,0.72,0 S,0,105598,106597,0.336,0.186 C,0,105598,106597,239,200,255
Sprite,Background,Centre,"StoryBoard\Dot-Small.png",320,240 M,1,105598,106597,320,240,363,283 F,2,105598,106597,0.51,0 S,0,105598,106597,0.358,0.208 C,0,105598,106597,214,255,200
Sprite,Background,Centre,"StoryBoard\Dot-Small.png",320,240 M,1,105628,106627,320,240,183,390 F,2,105628,106627,0.57,0 S,0,105628,106627,0.426,0.276 C,0,105628,106627,200,232,255
Sprite,Background,Centre,"StoryBoard\Dot-Small.png",320,240 M,1,105628,106627,320,240,512,186 F,2,105628,106627,0.55,0 S,0,105628,106627,0.46,0.31 C,0,105628,106627,255,216,200
Sprite,Background,Centre,"StoryBoard\Dot-Small.png",320,240 M,1,105658,106657,320,240,339,156 F,2,105658,106657,0.54,0 S,0,105658,106657,0.46,0.31 C,0,105658,106657,255,236,200
Sprite,Background,Centre,"StoryBoard\Dot-Small.png",320,240 M,1,105658,106657,320,240,481,428 F,2,105658,106657,0.78,0 S,0,105658,106657,0.445,0.295 C,0,105658,106657,255,200,235
Sprite,Background,Centre,"StoryBoard\Dot-Small.png",320,240 M,1,105688,106687,320,240,258,228 F,2,105688,106687,0.55,0 S,0,105688,106687,0.474,0.324 C,0,105688,106687,255,216,200
Sprite,Background,Centre,"StoryBoard\Dot-Small.png",320,240 M,1,105688,106687,320,240,208,133 F,2,105688,106687,0.56,0 S,0,105688,106687,0.303,0.153 C,0,105688,106687,255,200,235
Sprite,Background,Centre,"StoryBoard\Dot-Small.png",320,240 M,1,105718,106717,320,240,397,87 F,2,105718,106717,0.74,0 S,0,105718,106717,0.419,0.269 C,0,105718,106717,200,255,228
Sprite,Background,Centre,"StoryBoard\Dot-Small.png",320,240 M,1,105718,106717,320,240,399,278 F,2,105718,106717,0.77,0 S,0,105718,106717,0.351,0.201 C,0,105718,106717,239,200,255
Sprite,Background,Centre,"StoryBoard\Dot-Small.png",320,240 M,1,105748,106747,320,240,413,42 F,2,105748,106747,0.6,0 S,0,105748,106747,0.435,0.285 C,0,105748,106747,239,200,255
Sprite,Background,Centre,"StoryBoard\Dot-Small.png",320,240 M,1,105748,106747,320,240,467,195 F,2,105748,106747,0.53,0 S,0,105748,106747,0.435,0.285 C,0,105748,106747,255,216,200
Sprite,Background,Centre,"StoryBoard\Dot-Small.png",320,240 M,1,105778,106777,320,240,473,207 F,2,105778,106777,0.68,0 S,0,105778,106777,0.475,0.325 C,0,105778,106777,200,255,228
Sprite,Background,Centre,"StoryBoard\Dot-Small.png",320,240 M,1,105778,106777,320,240,243,424 F,2,105778,106777,0.78,0 S,0,105778,106777,0.358,0.208 C,0,105778,106777,255,236,200
Sprite,Background,Centre,"StoryBoard\Dot-Small.png",320,240 M,1,105808,106807,320,240,438,401 F,2,105808,106807,0.52,0 S,0,105808,106807,0.493,0.343 C,0,105808,106807,255,236,200
Sprite,Background,Centre,"StoryBoard\Dot-Small.png",320,240 M,1,105808,106807,320,240,489,424 F,2,105808,106807,0.5,0 S,0,105808,106807,0.446,0.296 C,0,105808,106807,255,200,235
Sprite,Background,Centre,"StoryBoard\Dot-Small.png",320,240 M,1,105838,106837,320,240,201,433 F,2,105838,106837,0.62,0 S,0,105838,106837,0.368,0.218 C,0,105838,106837,214,255,200
Sprite,Background,Centre,"StoryBoard\Dot-Small.png",320,240 M,1,105838,106837,320,240,440,236 F,2,105838,106837,0.65,0 S,0,105838,106837,0.351,0.201 C,0,105838,106837,203,200,255
Sprite,Background,Centre,"StoryBoard\Dot-Small.png",320,240 M,1,105868,106867,320,240,507,146 F,2,105868,106867,0.74,0 S,0,105868,106867,0.392,0.242 C,0,105868,106867,255,236,200
Sprite,Background,Centre,"StoryBoard\Dot-Small.png",320,240 M,1,105868,106867,320,240,519,135 F,2,105868,106867,0.75,0 S,0,105868,106867,0.46,0.31 C,0,105868,106867,255,200,215
Sprite,Background,Centre,"StoryBoard\Dot-Small.png",320,240 M,1,105898,106897,320,240,131,385 F,2,105898,106897,0.5,0 S,0,105898,106897,0.458,0.308 C,0,105898,106897,214,255,200
Sprite,Background,Centre,"StoryBoard\Dot-Small.png",320,240 M,1,105898,106897,320,240,342,427 F,2,105898,106897,0.66,0 S,0,105898,106897,0.418,0.268 C,0,105898,106897,255,200,215
Sprite,Background,Centre,"StoryBoard\Dot-Small.png",320,240 M,1,105928,106927,320,240,379,231 F,2,105928,106927,0.55,0 S,0,105928,106927,0.364,0.214 C,0,105928,106927,255,216,200
Sprite,Background,Centre,"StoryBoard\Dot-Small.png",320,240 M,1,105928,106927,320,240,184,158 F,2,105928,106927,0.76,0 S,0,105928,106927,0.472,0.322 C,0,105928,106927,255,236,200
Sprite,Background,Centre,"StoryBoard\Dot-Small.png",320,240 M,1,105958,106957,320,240,233,102 F,2,105958,106957,0.52,0 S,0,105958,106957,0.408,0.258 C,0,105958,106957,239,200,255
Sprite,Background,Centre,"StoryBoard\Dot-Small.png",320,240 M,1,105958,106957,320,240,256,235 F,2,105958,106957,0.58,0 S,0,105958,106957,0.415,0.265 C,0,105958,106957,255,200,215
Sprite,Background,Centre,"StoryBoard\Dot-Small.png",320,240 M,1,105988,106987,320,240,130,168 F,2,105988,106987,0.5,0 S,0,105988,106987,0.412,0.262 C,0,105988,106987,255,216,200
Sprite,Background,Centre,"StoryBoard\Dot-Small.png",320,240 M,1,105988,106987,320,240,507,41 F,2,105988,106987,0.74,0 S,0,105988,106987,0.452,0.302 C,0,105988,106987,255,200,235
Sprite,Background,Centre,"StoryBoard\Dot-Small.png",320,240 M,1,106018,107017,320,240,400,408 F,2,106018,107017,0.79,0 S,0,106018,107017,0.471,0.321 C,0,106018,107017,255,200,215
Sprite,Background,Centre,"StoryBoard\Dot-Small.png",320,240 M,1,106018,107017,320,240,265,189 F,2,106018,107017,0.8,0 S,0,106018,107017,0.445,0.295 C,0,106018,107017,255,216,200
Sprite,Background,Centre,"StoryBoard\Dot-Small.png",320,240 M,1,106048,107047,320,240,380,413 F,2,106048,107047,0.54,0 S,0,106048,107047,0.456,0.306 C,0,106048,107047,255,216,200
Sprite,Background,Centre,"StoryBoard\Dot-Small.png",320,240 M,1,106048,107047,320,240,299,104 F,2,106048,107047,0.57,0 S,0,106048,107047,0.42,0.27 C,0,106048,107047,255,200,235
Sprite,Background,Centre,"StoryBoard\Dot-Small.png",320,240 M,1,106078,107077,320,240,181,326 F,2,106078,107077,0.53,0 S,0,106078,107077,0.327,0.177 C,0,106078,107077,255,200,235
Sprite,Background,Centre,"StoryBoard\Dot-Small.png",320,240 M,1,106078,107077,320,240,285,403 F,2,106078,107077,0.58,0 S,0,106078,107077,0.463,0.313 C,0,106078,107077,200,255,228
Sprite,Background,Centre,"StoryBoard\Dot-Small.png",320,240 M,1,106108,107107,320,240,164,174 F,2,106108,107107,0.56,0 S,0,106108,107107,0.36,0.21 C,0,106108,107107,240,255,200
Sprite,Background,Centre,"StoryBoard\Dot-Small.png",320,240 M,1,106108,107107,320,240,272,385 F,2,106108,107107,0.74,0 S,0,106108,107107,0.35,0.2 C,0,106108,107107,255,236,200
Sprite,Background,Centre,"StoryBoard\Dot-Small.png",320,240 M,1,106138,107137,320,240,450,376 F,2,106138,107137,0.66,0 S,0,106138,107137,0.347,0.197 C,0,106138,107137,240,255,200
Sprite,Background,Centre,"StoryBoard\Dot-Small.png",320,240 M,1,106138,107137,320,240,341,186 F,2,106138,107137,0.72,0 S,0,106138,107137,0.353,0.203 C,0,106138,107137,255,200,215
Sprite,Background,Centre,"StoryBoard\Dot-Small.png",320,240 M,1,106168,107167,320,240,438,384 F,2,106168,107167,0.74,0 S,0,106168,107167,0.332,0.182 C,0,106168,107167,200,232,255
Sprite,Background,Centre,"StoryBoard\Dot-Small.png",320,240 M,1,106168,107167,320,240,346,345 F,2,106168,107167,0.71,0 S,0,106168,107167,0.304,0.154 C,0,106168,107167,214,255,200
Sprite,Background,Centre,"StoryBoard\Dot-Small.png",320,240 M,1,106198,107197,320,240,214,341 F,2,106198,107197,0.64,0 S,0,106198,107197,0.406,0.256 C,0,106198,107197,255,236,200
Sprite,Background,Centre,"StoryBoard\Dot-Small.png",320,240 M,1,106198,107197,320,240,295,118 F,2,106198,107197,0.72,0 S,0,106198,107197,0.309,0.159 C,0,106198,107197,203,200,255
Sprite,Background,Centre,"StoryBoard\Dot-Small.png",320,240 M,1,106228,107227,320,240,139,129 F,2,106228,107227,0.7,0 S,0,106228,107227,0.309,0.159 C,0,106228,107227,255,200,235
Sprite,Background,Centre,"StoryBoard\Dot-Small.png",320,240 M,1,106228,107227,320,240,290,198 F,2,106228,107227,0.76,0 S,0,106228,107227,0.46,0.31 C,0,106228,107227,255,216,200
Sprite,Background,Centre,"StoryBoard\Dot-Small.png",320,240 M,1,106258,107257,320,240,491,337 F,2,106258,107257,0.74,0 S,0,106258,107257,0.337,0.187 C,0,106258,107257,203,200,255
Sprite,Background,Centre,"StoryBoard\Dot-Small.png",320,240 M,1,106258,107257,320,240,432,346 F,2,106258,107257,0.53,0 S,0,106258,107257,0.44,0.29 C,0,106258,107257,200,232,255
Sprite,Background,Centre,"StoryBoard\Dot-Small.png",320,240 M,1,106288,107287,320,240,412,254 F,2,106288,107287,0.78,0 S,0,106288,107287,0.432,0.282 C,0,106288,107287,255,216,200
Sprite,Background,Centre,"StoryBoard\Dot-Small.png",320,240 M,1,106288,107287,320,240,403,125 F,2,106288,107287,0.51,0 S,0,106288,107287,0.422,0.272 C,0,106288,107287,255,236,200
Sprite,Background,Centre,"StoryBoard\Dot-Small.png",320,240 M,1,106318,107317,320,240,453,184 F,2,106318,107317,0.71,0 S,0,106318,107317,0.364,0.214 C,0,106318,107317,255,200,235
Sprite,Background,Centre,"StoryBoard\Dot-Small.png",320,240 M,1,106318,107317,320,240,504,278 F,2,106318,107317,0.7,0 S,0,106318,107317,0.432,0.282 C,0,106318,107317,255,200,235
Sprite,Background,Centre,"StoryBoard\Dot-Small.png",320,240 M,1,106348,107347,320,240,317,56 F,2,106348,107347,0.61,0 S,0,106348,107347,0.422,0.272 C,0,106348,107347,255,200,215
Sprite,Background,Centre,"StoryBoard\Dot-Small.png",320,240 M,1,106348,107347,320,240,341,239 F,2,106348,107347,0.53,0 S,0,106348,107347,0.31,0.16 C,0,106348,107347,255,216,200
Sprite,Background,Centre,"StoryBoard\Dot-Small.png",320,240 M,1,106378,107377,320,240,157,301 F,2,106378,107377,0.72,0 S,0,106378,107377,0.366,0.216 C,0,106378,107377,255,200,215
Sprite,Background,Centre,"StoryBoard\Dot-Small.png",320,240 M,1,106378,107377,320,240,271,231 F,2,106378,107377,0.78,0 S,0,106378,107377,0.415,0.265 C,0,106378,107377,240,255,200
Sprite,Background,Centre,"StoryBoard\Dot-Small.png",320,240 M,1,106408,107407,320,240,426,380 F,2,106408,107407,0.52,0 S,0,106408,107407,0.355,0.205 C,0,106408,107407,200,232,255
Sprite,Background,Centre,"StoryBoard\Dot-Small.png",320,240 M,1,106408,107407,320,240,411,350 F,2,106408,107407,0.58,0 S,0,106408,107407,0.377,0.227 C,0,106408,107407,240,255,200
Sprite,Background,Centre,"StoryBoard\Dot-Small.png",320,240 M,1,106438,107437,320,240,285,329 F,2,106438,107437,0.53,0 S,0,106438,107437,0.34,0.19 C,0,106438,107437,214,255,200
Sprite,Background,Centre,"StoryBoard\Dot-Small.png",320,240 M,1,106438,107437,320,240,333,194 F,2,106438,107437,0.65,0 S,0,106438,107437,0.445,0.295 C,0,106438,107437,203,200,255
Sprite,Background,Centre,"StoryBoard\Dot-Small.png",320,240 M,1,106468,107467,320,240,426,228 F,2,106468,107467,0.69,0 S,0,106468,107467,0.455,0.305 C,0,106468,107467,200,255,228
Sprite,Background,Centre,"StoryBoard\Dot-Small.png",320,240 M,1,106468,107467,320,240,238,417 F,2,106468,107467,0.5,0 S,0,106468,107467,0.458,0.308 C,0,106468,107467,200,255,228
Sprite,Background,Centre,"StoryBoard\Dot-Small.png",320,240 M,1,106498,107497,320,240,364,302 F,2,106498,107497,0.8,0 S,0,106498,107497,0.32,0.17 C,0,106498,107497,214,255,200
Sprite,Background,Centre,"StoryBoard\Dot-Small.png",320,240 M,1,106498,107497,320,240,255,271 F,2,106498,107497,0.56,0 S,0,106498,107497,0.342,0.192 C,0,106498,107497,200,255,228
Sprite,Background,Centre,"StoryBoard\Dot-Small.png",320,240 M,1,106528,107527,320,240,331,193 F,2,106528,107527,0.7,0 S,0,106528,107527,0.388,0.238 C,0,106528,107527,214,255,200
Sprite,Background,Centre,"StoryBoard\Dot-Small.png",320,240 M,1,106528,107527,320,240,326,324 F,2,106528,107527,0.76,0 S,0,106528,107527,0.437,0.287 C,0,106528,107527,200,255,228
Sprite,Background,Centre,"StoryBoard\Dot-Small.png",320,240 M,1,106558,107557,320,240,346,174 F,2,106558,107557,0.79,0 S,0,106558,107557,0.491,0.341 C,0,106558,107557,255,200,235
Sprite,Background,Centre,"StoryBoard\Dot-Small.png",320,240 M,1,106558,107557,320,240,434,361 F,2,106558,107557,0.54,0 S,0,106558,107557,0.318,0.168 C,0,106558,107557,240,255,200
Sprite,Background,Centre,"StoryBoard\Dot-Small.png",320,240 M,1,106588,107587,320,240,240,228 F,2,106588,107587,0.74,0 S,0,106588,107587,0.497,0.347 C,0,106588,107587,240,255,200
Sprite,Background,Centre,"StoryBoard\Dot-Small.png",320,240 M,1,106588,107587,320,240,207,260 F,2,106588,107587,0.69,0 S,0,106588,107587,0.392,0.242 C,0,106588,107587,214,255,200
Sprite,Background,Centre,"StoryBoard\Dot-Small.png",320,240 M,1,106618,107617,320,240,191,114 F,2,106618,107617,0.57,0 S,0,106618,107617,0.369,0.219 C,0,106618,107617,255,200,235
Sprite,Background,Centre,"StoryBoard\Dot-Small.png",320,240 M,1,106618,107617,320,240,277,48 F,2,106618,107617,0.59,0 S,0,106618,107617,0.317,0.167 C,0,106618,107617,214,255,200
Sprite,Background,Centre,"StoryBoard\Dot-Small.png",320,240 M,1,106648,107647,320,240,211,275 F,2,106648,107647,0.72,0 S,0,106648,107647,0.446,0.296 C,0,106648,107647,255,200,215
Sprite,Background,Centre,"StoryBoard\Dot-Small.png",320,240 M,1,106648,107647,320,240,323,354 F,2,106648,107647,0.76,0 S,0,106648,107647,0.413,0.263 C,0,106648,107647,240,255,200
Sprite,Background,Centre,"StoryBoard\Dot-Small.png",320,240 M,1,106678,107677,320,240,326,186 F,2,106678,107677,0.79,0 S,0,106678,107677,0.414,0.264 C,0,106678,107677,214,255,200
Sprite,Background,Centre,"StoryBoard\Dot-Small.png",320,240 M,1,106678,107677,320,240,341,257 F,2,106678,107677,0.71,0 S,0,106678,107677,0.309,0.159 C,0,106678,107677,214,255,200
Sprite,Background,Centre,"StoryBoard\Dot-Small.png",320,240 M,1,106708,107707,320,240,417,44 F,2,106708,107707,0.54,0 S,0,106708,107707,0.317,0.167 C,0,106708,107707,239,200,255
Sprite,Background,Centre,"StoryBoard\Dot-Small.png",320,240 M,1,106708,107707,320,240,510,437 F,2,106708,107707,0.77,0 S,0,106708,107707,0.381,0.231 C,0,106708,107707,200,232,255
Sprite,Background,Centre,"StoryBoard\Dot-Small.png",320,240 M,1,106738,107737,320,240,436,217 F,2,106738,107737,0.79,0 S,0,106738,107737,0.496,0.346 C,0,106738,107737,214,255,200
Sprite,Background,Centre,"StoryBoard\Dot-Small.png",320,240 M,1,106738,107737,320,240,218,430 F,2,106738,107737,0.68,0 S,0,106738,107737,0.462,0.312 C,0,106738,107737,214,255,200
Sprite,Background,Centre,"StoryBoard\Dot-Small.png",320,240 M,1,106768,107767,320,240,341,84 F,2,106768,107767,0.64,0 S,0,106768,107767,0.439,0.289 C,0,106768,107767,200,232,255
Sprite,Background,Centre,"StoryBoard\Dot-Small.png",320,240 M,1,106768,107767,320,240,243,187 F,2,106768,107767,0.74,0 S,0,106768,107767,0.463,0.313 C,0,106768,107767,255,236,200
Sprite,Background,Centre,"StoryBoard\Dot-Small.png",320,240 M,1,106798,107797,320,240,253,82 F,2,106798,107797,0.64,0 S,0,106798,107797,0.406,0.256 C,0,106798,107797,200,255,228
Sprite,Background,Centre,"StoryBoard\Dot-Small.png",320,240 M,1,106798,107797,320,240,194,406 F,2,106798,107797,0.71,0 S,0,106798,107797,0.423,0.273 C,0,106798,107797,255,200,235
Sprite,Background,Centre,"StoryBoard\Dot-Small.png",320,240 M,1,106828,107827,320,240,376,426 F,2,106828,107827,0.53,0 S,0,106828,107827,0.358,0.208 C,0,106828,107827,240,255,200
Sprite,Background,Centre,"StoryBoard\Dot-Small.png",320,240 M,1,106828,107827,320,240,319,123 F,2,106828,107827,0.59,0 S,0,106828,107827,0.439,0.289 C,0,106828,107827,240,255,200
Sprite,Background,Centre,"StoryBoard\Dot-Small.png",320,240 M,1,106858,107857,320,240,208,404 F,2,106858,107857,0.53,0 S,0,106858,107857,0.46,0.31 C,0,106858,107857,255,200,215
Sprite,Background,Centre,"StoryBoard\Dot-Small.png",320,240 M,1,106858,107857,320,240,492,346 F,2,106858,107857,0.79,0 S,0,106858,107857,0.447,0.297 C,0,106858,107857,239,200,255
Sprite,Background,Centre,"StoryBoard\Dot-Small.png",320,240 M,1,106888,107887,320,240,192,136 F,2,106888,107887,0.6,0 S,0,106888,107887,0.475,0.325 C,0,106888,107887,255,200,235
Sprite,Background,Centre,"StoryBoard\Dot-Small.png",320,240 M,1,106888,107887,320,240,301,110 F,2,106888,107887,0.69,0 S,0,106888,107887,0.417,0.267 C,0,106888,107887,200,255,228
Sprite,Background,Centre,"StoryBoard\Dot-Small.png",320,240 M,1,106918,107917,320,240,404,278 F,2,106918,107917,0.65,0 S,0,106918,107917,0.33,0.18 C,0,106918,107917,240,255,200
Sprite,Background,Centre,"StoryBoard\Dot-Small.png",320,240 M,1,106918,107917,320,240,500,281 F,2,106918,107917,0.58,0 S,0,106918,107917,0.397,0.247 C,0,106918,107917,214,255,200
Sprite,Background,Centre,"StoryBoard\Dot-Small.png",320,240 M,1,106948,107947,320,240,433,82 F,2,106948,107947,0.5,0 S,0,106948,107947,0.331,0.181 C,0,106948,107947,214,255,200
Sprite,Background,Centre,"StoryBoard\Dot-Small.png",320,240 M,1,106948,107947,320,240,250,230 F,2,106948,107947,0.59,0 S,0,106948,107947,0.418,0.268 C,0,106948,107947,255,200,235
Sprite,Background,Centre,"StoryBoard\Dot-Small.png",320,240 M,1,106978,107977,320,240,171,52 F,2,106978,107977,0.56,0 S,0,106978,107977,0.393,0.243 C,0,106978,107977,255,236,200
Sprite,Background,Centre,"StoryBoard\Dot-Small.png",320,240 M,1,106978,107977,320,240,222,229 F,2,106978,107977,0.78,0 S,0,106978,107977,0.343,0.193 C,0,106978,107977,200,255,228
Sprite,Background,Centre,"StoryBoard\Dot-Small.png",320,240 M,1,107008,108007,320,240,497,223 F,2,107008,108007,0.74,0 S,0,107008,108007,0.47,0.32 C,0,107008,108007,240,255,200
Sprite,Background,Centre,"StoryBoard\Dot-Small.png",320,240 M,1,107008,108007,320,240,231,297 F,2,107008,108007,0.5,0 S,0,107008,108007,0.436,0.286 C,0,107008,108007,203,200,255
Sprite,Background,Centre,"StoryBoard\Dot-Small.png",320,240 M,1,107038,108037,320,240,278,165 F,2,107038,108037,0.51,0 S,0,107038,108037,0.322,0.172 C,0,107038,108037,239,200,255
Sprite,Background,Centre,"StoryBoard\Dot-Small.png",320,240 M,1,107038,108037,320,240,340,67 F,2,107038,108037,0.69,0 S,0,107038,108037,0.413,0.263 C,0,107038,108037,255,200,235
Sprite,Background,Centre,"StoryBoard\Dot-Small.png",320,240 M,1,107068,108067,320,240,183,136 F,2,107068,108067,0.75,0 S,0,107068,108067,0.459,0.309 C,0,107068,108067,255,200,215
Sprite,Background,Centre,"StoryBoard\Dot-Small.png",320,240 M,1,107068,108067,320,240,133,64 F,2,107068,108067,0.59,0 S,0,107068,108067,0.421,0.271 C,0,107068,108067,240,255,200
Sprite,Background,Centre,"StoryBoard\Dot-Small.png",320,240 M,1,107098,108097,320,240,441,437 F,2,107098,108097,0.59,0 S,0,107098,108097,0.405,0.255 C,0,107098,108097,200,232,255
Sprite,Background,Centre,"StoryBoard\Dot-Small.png",320,240 M,1,107098,108097,320,240,296,94 F,2,107098,108097,0.51,0 S,0,107098,108097,0.391,0.241 C,0,107098,108097,240,255,200
Sprite,Background,Centre,"StoryBoard\Dot-Small.png",320,240 M,1,107128,108127,320,240,347,96 F,2,107128,108127,0.63,0 S,0,107128,108127,0.4,0.25 C,0,107128,108127,200,232,255
Sprite,Background,Centre,"StoryBoard\Dot-Small.png",320,240 M,1,107128,108127,320,240,493,396 F,2,107128,108127,0.69,0 S,0,107128,108127,0.39,0.24 C,0,107128,108127,255,200,215
Sprite,Background,Centre,"StoryBoard\Dot-Small.png",320,240 M,1,107158,108157,320,240,218,62 F,2,107158,108157,0.6,0 S,0,107158,108157,0.316,0.166 C,0,107158,108157,255,236,200
Sprite,Background,Centre,"StoryBoard\Dot-Small.png",320,240 M,1,107158,108157,320,240,445,267 F,2,107158,108157,0.59,0 S,0,107158,108157,0.332,0.182 C,0,107158,108157,200,255,228
Sprite,Background,Centre,"StoryBoard\Dot-Small.png",320,240 M,1,107188,108187,320,240,333,223 F,2,107188,108187,0.53,0 S,0,107188,108187,0.322,0.172 C,0,107188,108187,200,255,228
Sprite,Background,Centre,"StoryBoard\Dot-Small.png",320,240 M,1,107188,108187,320,240,445,256 F,2,107188,108187,0.59,0 S,0,107188,108187,0.345,0.195 C,0,107188,108187,214,255,200
Sprite,Background,Centre,"StoryBoard\Dot-Small.png",320,240 M,1,107218,108217,320,240,330,288 F,2,107218,108217,0.53,0 S,0,107218,108217,0.427,0.277 C,0,107218,108217,255,200,235
Sprite,Background,Centre,"StoryBoard\Dot-Small.png",320,240 M,1,107218,108217,320,240,439,269 F,2,107218,108217,0.66,0 S,0,107218,108217,0.497,0.347 C,0,107218,108217,240,255,200
Sprite,Background,Centre,"StoryBoard\Dot-Small.png",320,240 M,1,107248,108247,320,240,158,191 F,2,107248,108247,0.55,0 S,0,107248,108247,0.364,0.214 C,0,107248,108247,239,200,255
Sprite,Background,Centre,"StoryBoard\Dot-Small.png",320,240 M,1,107248,108247,320,240,318,184 F,2,107248,108247,0.69,0 S,0,107248,108247,0.36,0.21 C,0,107248,108247,200,232,255
Sprite,Background,Centre,"StoryBoard\Dot-Small.png",320,240 M,1,107278,108277,320,240,482,397 F,2,107278,108277,0.65,0 S,0,107278,108277,0.391,0.241 C,0,107278,108277,239,200,255
Sprite,Background,Centre,"StoryBoard\Dot-Small.png",320,240 M,1,107278,108277,320,240,301,358 F,2,107278,108277,0.79,0 S,0,107278,108277,0.452,0.302 C,0,107278,108277,203,200,255
Sprite,Background,Centre,"StoryBoard\Dot-Small.png",320,240 M,1,107308,108307,320,240,386,245 F,2,107308,108307,0.78,0 S,0,107308,108307,0.353,0.203 C,0,107308,108307,255,236,200
Sprite,Background,Centre,"StoryBoard\Dot-Small.png",320,240 M,1,107308,108307,320,240,175,326 F,2,107308,108307,0.53,0 S,0,107308,108307,0.349,0.199 C,0,107308,108307,200,232,255
Sprite,Background,Centre,"StoryBoard\Dot-Small.png",320,240 M,1,107338,108337,320,240,343,213 F,2,107338,108337,0.62,0 S,0,107338,108337,0.471,0.321 C,0,107338,108337,200,255,228
Sprite,Background,Centre,"StoryBoard\Dot-Small.png",320,240 M,1,107338,108337,320,240,365,382 F,2,107338,108337,0.74,0 S,0,107338,108337,0.459,0.309 C,0,107338,108337,214,255,200
Sprite,Background,Centre,"StoryBoard\Dot-Small.png",320,240 M,1,107368,108367,320,240,479,402 F,2,107368,108367,0.72,0 S,0,107368,108367,0.487,0.337 C,0,107368,108367,200,255,228
Sprite,Background,Centre,"StoryBoard\Dot-Small.png",320,240 M,1,107368,108367,320,240,217,58 F,2,107368,108367,0.52,0 S,0,107368,108367,0.467,0.317 C,0,107368,108367,255,216,200
Sprite,Background,Centre,"StoryBoard\Dot-Small.png",320,240 M,1,107398,108397,320,240,156,144 F,2,107398,108397,0.76,0 S,0,107398,108397,0.352,0.202 C,0,107398,108397,239,200,255
Sprite,Background,Centre,"StoryBoard\Dot-Small.png",320,240 M,1,107398,108397,320,240,520,99 F,2,107398,108397,0.8,0 S,0,107398,108397,0.394,0.244 C,0,107398,108397,203,200,255
Sprite,Background,Centre,"StoryBoard\Dot-Small.png",320,240 M,1,107428,108427,320,240,170,172 F,2,107428,108427,0.53,0 S,0,107428,108427,0.331,0.181 C,0,107428,108427,239,200,255
Sprite,Background,Centre,"StoryBoard\Dot-Small.png",320,240 M,1,107428,108427,320,240,366,106 F,2,107428,108427,0.59,0 S,0,107428,108427,0.443,0.293 C,0,107428,108427,203,200,255
Sprite,Background,Centre,"StoryBoard\Dot-Small.png",320,240 M,1,107458,108457,320,240,423,357 F,2,107458,108457,0.62,0 S,0,107458,108457,0.318,0.168 C,0,107458,108457,255,236,200
Sprite,Background,Centre,"StoryBoard\Dot-Small.png",320,240 M,1,107458,108457,320,240,158,189 F,2,107458,108457,0.61,0 S,0,107458,108457,0.314,0.164 C,0,107458,108457,239,200,255
Sprite,Background,Centre,"StoryBoard\Dot-Small.png",320,240 M,1,107488,108487,320,240,240,110 F,2,107488,108487,0.75,0 S,0,107488,108487,0.429,0.279 C,0,107488,108487,200,255,228
Sprite,Background,Centre,"StoryBoard\Dot-Small.png",320,240 M,1,107488,108487,320,240,129,179 F,2,107488,108487,0.77,0 S,0,107488,108487,0.426,0.276 C,0,107488,108487,214,255,200
Sprite,Background,Centre,"StoryBoard\Dot-Small.png",320,240 M,1,107518,108517,320,240,337,121 F,2,107518,108517,0.53,0 S,0,107518,108517,0.325,0.175 C,0,107518,108517,255,200,215
Sprite,Background,Centre,"StoryBoard\Dot-Small.png",320,240 M,1,107518,108517,320,240,446,292 F,2,107518,108517,0.62,0 S,0,107518,108517,0.315,0.165 C,0,107518,108517,239,200,255
Sprite,Background,Centre,"StoryBoard\Dot-Small.png",320,240 M,1,107548,108547,320,240,427,293 F,2,107548,108547,0.63,0 S,0,107548,108547,0.325,0.175 C,0,107548,108547,240,255,200
Sprite,Background,Centre,"StoryBoard\Dot-Small.png",320,240 M,1,107548,108547,320,240,479,212 F,2,107548,108547,0.68,0 S,0,107548,108547,0.407,0.257 C,0,107548,108547,203,200,255
Sprite,Background,Centre,"StoryBoard\Dot-Small.png",320,240 M,1,107578,108577,320,240,442,115 F,2,107578,108577,0.56,0 S,0,107578,108577,0.439,0.289 C,0,107578,108577,255,216,200
Sprite,Background,Centre,"StoryBoard\Dot-Small.png",320,240 M,1,107578,108577,320,240,318,263 F,2,107578,108577,0.72,0 S,0,107578,108577,0.41,0.26 C,0,107578,108577,255,236,200
Sprite,Background,Centre,"StoryBoard\Dot-Small.png",320,240 M,1,107608,108607,320,240,474,260 F,2,107608,108607,0.51,0 S,0,107608,108607,0.337,0.187 C,0,107608,108607,255,216,200
Sprite,Background,Centre,"StoryBoard\Dot-Small.png",320,240 M,1,107608,108607,320,240,423,269 F,2,107608,108607,0.61,0 S,0,107608,108607,0.428,0.278 C,0,107608,108607,203,200,255
Sprite,Background,Centre,"StoryBoard\Dot-Small.png",320,240 M,1,107638,108637,320,240,341,321 F,2,107638,108637,0.73,0 S,0,107638,108637,0.391,0.241 C,0,107638,108637,255,200,235
Sprite,Background,Centre,"StoryBoard\Dot-Small.png",320,240 M,1,107638,108637,320,240,226,186 F,2,107638,108637,0.76,0 S,0,107638,108637,0.442,0.292 C,0,107638,108637,255,200,215
Sprite,Background,Centre,"StoryBoard\Dot-Small.png",320,240 M,1,107668,108667,320,240,439,314 F,2,107668,108667,0.51,0 S,0,107668,108667,0.442,0.292 C,0,107668,108667,255,216,200
Sprite,Background,Centre,"StoryBoard\Dot-Small.png",320,240 M,1,107668,108667,320,240,426,361 F,2,107668,108667,0.55,0 S,0,107668,108667,0.429,0.279 C,0,107668,108667,200,232,255
Sprite,Background,Centre,"StoryBoard\Dot-Small.png",320,240 M,1,107698,108697,320,240,155,302 F,2,107698,108697,0.73,0 S,0,107698,108697,0.319,0.169 C,0,107698,108697,255,200,215
Sprite,Background,Centre,"StoryBoard\Dot-Small.png",320,240 M,1,107698,108697,320,240,241,120 F,2,107698,108697,0.59,0 S,0,107698,108697,0.401,0.251 C,0,107698,108697,255,200,215
Sprite,Background,Centre,"StoryBoard\Dot-Small.png",320,240 M,1,107728,108727,320,240,260,288 F,2,107728,108727,0.57,0 S,0,107728,108727,0.415,0.265 C,0,107728,108727,255,236,200
Sprite,Background,Centre,"StoryBoard\Dot-Small.png",320,240 M,1,107728,108727,320,240,146,56 F,2,107728,108727,0.61,0 S,0,107728,108727,0.339,0.189 C,0,107728,108727,200,232,255
Sprite,Background,Centre,"StoryBoard\Dot-Small.png",320,240 M,1,107758,108757,320,240,178,103 F,2,107758,108757,0.63,0 S,0,107758,108757,0.427,0.277 C,0,107758,108757,255,236,200
Sprite,Background,Centre,"StoryBoard\Dot-Small.png",320,240 M,1,107758,108757,320,240,121,338 F,2,107758,108757,0.67,0 S,0,107758,108757,0.327,0.177 C,0,107758,108757,200,255,228
Sprite,Background,Centre,"StoryBoard\Dot-Small.png",320,240 M,1,107788,108787,320,240,314,116 F,2,107788,108787,0.5,0 S,0,107788,108787,0.413,0.263 C,0,107788,108787,255,200,215
Sprite,Background,Centre,"StoryBoard\Dot-Small.png",320,240 M,1,107788,108787,320,240,243,340 F,2,107788,108787,0.57,0 S,0,107788,108787,0.474,0.324 C,0,107788,108787,239,200,255
Sprite,Background,Centre,"StoryBoard\Dot-Small.png",320,240 M,1,107818,108817,320,240,186,158 F,2,107818,108817,0.6,0 S,0,107818,108817,0.436,0.286 C,0,107818,108817,214,255,200
Sprite,Background,Centre,"StoryBoard\Dot-Small.png",320,240 M,1,107818,108817,320,240,368,209 F,2,107818,108817,0.73,0 S,0,107818,108817,0.376,0.226 C,0,107818,108817,203,200,255
Sprite,Background,Centre,"StoryBoard\Dot-Small.png",320,240 M,1,107848,108847,320,240,144,294 F,2,107848,108847,0.71,0 S,0,107848,108847,0.312,0.162 C,0,107848,108847,200,255,228
Sprite,Background,Centre,"StoryBoard\Dot-Small.png",320,240 M,1,107848,108847,320,240,132,373 F,2,107848,108847,0.57,0 S,0,107848,108847,0.434,0.284 C,0,107848,108847,255,216,200
Sprite,Background,Centre,"StoryBoard\Dot-Small.png",320,240 M,1,107878,108877,320,240,477,436 F,2,107878,108877,0.72,0 S,0,107878,108877,0.388,0.238 C,0,107878,108877,214,255,200
Sprite,Background,Centre,"StoryBoard\Dot-Small.png",320,240 M,1,107878,108877,320,240,272,117 F,2,107878,108877,0.75,0 S,0,107878,108877,0.441,0.291 C,0,107878,108877,255,200,215
Sprite,Background,Centre,"StoryBoard\Dot-Small.png",320,240 M,1,107908,108907,320,240,321,154 F,2,107908,108907,0.8,0 S,0,107908,108907,0.402,0.252 C,0,107908,108907,239,200,255
Sprite,Background,Centre,"StoryBoard\Dot-Small.png",320,240 M,1,107908,108907,320,240,223,433 F,2,107908,108907,0.66,0 S,0,107908,108907,0.375,0.225 C,0,107908,108907,240,255,200
Sprite,Background,Centre,"StoryBoard\Dot-Small.png",320,240 M,1,107938,108937,320,240,482,423 F,2,107938,108937,0.7,0 S,0,107938,108937,0.438,0.288 C,0,107938,108937,240,255,200
Sprite,Background,Centre,"StoryBoard\Dot-Small.png",320,240 M,1,107938,108937,320,240,367,137 F,2,107938,108937,0.53,0 S,0,107938,108937,0.5,0.35 C,0,107938,108937,255,200,215
Sprite,Background,Centre,"StoryBoard\Dot-Small.png",320,240 M,1,107968,108967,320,240,189,72 F,2,107968,108967,0.74,0 S,0,107968,108967,0.348,0.198 C,0,107968,108967,214,255,200
Sprite,Background,Centre,"StoryBoard\Dot-Small.png",320,240 M,1,107968,108967,320,240,147,91 F,2,107968,108967,0.52,0 S,0,107968,108967,0.446,0.296 C,0,107968,108967,255,236,200
Sprite,Background,Centre,"StoryBoard\Dot-Small.png",320,240 M,1,107998,108997,320,240,246,177 F,2,107998,108997,0.73,0 S,0,107998,108997,0.408,0.258 C,0,107998,108997,240,255,200
Sprite,Background,Centre,"StoryBoard\Dot-Small.png",320,240 M,1,107998,108997,320,240,509,268 F,2,107998,108997,0.5,0 S,0,107998,108997,0.476,0.326 C,0,107998,108997,255,200,215
Sprite,Background,Centre,"StoryBoard\Dot-Small.png",320,240 M,1,108028,109027,320,240,471,306 F,2,108028,109027,0.73,0 S,0,108028,109027,0.433,0.283 C,0,108028,109027,255,200,235
Sprite,Background,Centre,"StoryBoard\Dot-Small.png",320,240 M,1,108028,109027,320,240,283,83 F,2,108028,109027,0.56,0 S,0,108028,109027,0.45,0.3 C,0,108028,109027,255,200,235
Sprite,Background,Centre,"StoryBoard\Dot-Small.png",320,240 M,1,108058,109057,320,240,199,439 F,2,108058,109057,0.76,0 S,0,108058,109057,0.36,0.21 C,0,108058,109057,239,200,255
Sprite,Background,Centre,"StoryBoard\Dot-Small.png",320,240 M,1,108058,109057,320,240,174,359 F,2,108058,109057,0.6,0 S,0,108058,109057,0.389,0.239 C,0,108058,109057,240,255,200
Sprite,Background,Centre,"StoryBoard\Dot-Small.png",320,240 M,1,108088,109087,320,240,284,187 F,2,108088,109087,0.59,0 S,0,108088,109087,0.357,0.207 C,0,108088,109087,255,200,235
Sprite,Background,Centre,"StoryBoard\Dot-Small.png",320,240 M,1,108088,109087,320,240,495,134 F,2,108088,109087,0.79,0 S,0,108088,109087,0.347,0.197 C,0,108088,109087,200,232,255
Sprite,Background,Centre,"StoryBoard\Dot-Small.png",320,240 M,1,108118,109117,320,240,506,425 F,2,108118,109117,0.54,0 S,0,108118,109117,0.323,0.173 C,0,108118,109117,255,236,200
Sprite,Background,Centre,"StoryBoard\Dot-Small.png",320,240 M,1,108118,109117,320,240,221,111 F,2,108118,109117,0.61,0 S,0,108118,109117,0.385,0.235 C,0,108118,109117,214,255,200
Sprite,Background,Centre,"StoryBoard\Dot-Small.png",320,240 M,1,108148,109147,320,240,345,378 F,2,108148,109147,0.67,0 S,0,108148,109147,0.451,0.301 C,0,108148,109147,255,200,235
Sprite,Background,Centre,"StoryBoard\Dot-Small.png",320,240 M,1,108148,109147,320,240,197,421 F,2,108148,109147,0.7,0 S,0,108148,109147,0.441,0.291 C,0,108148,109147,240,255,200
Sprite,Background,Centre,"StoryBoard\Dot-Small.png",320,240 M,1,108178,109177,320,240,255,124 F,2,108178,109177,0.73,0 S,0,108178,109177,0.464,0.314 C,0,108178,109177,214,255,200
Sprite,Background,Centre,"StoryBoard\Dot-Small.png",320,240 M,1,108178,109177,320,240,285,103 F,2,108178,109177,0.7,0 S,0,108178,109177,0.411,0.261 C,0,108178,109177,255,216,200
Sprite,Background,Centre,"StoryBoard\Dot-Small.png",320,240 M,1,108208,109207,320,240,304,299 F,2,108208,109207,0.62,0 S,0,108208,109207,0.352,0.202 C,0,108208,109207,255,200,215
Sprite,Background,Centre,"StoryBoard\Dot-Small.png",320,240 M,1,108208,109207,320,240,463,105 F,2,108208,109207,0.65,0 S,0,108208,109207,0.455,0.305 C,0,108208,109207,255,236,200
Sprite,Background,Centre,"StoryBoard\Dot-Small.png",320,240 M,1,108238,109237,320,240,145,95 F,2,108238,109237,0.76,0 S,0,108238,109237,0.423,0.273 C,0,108238,109237,255,200,235
Sprite,Background,Centre,"StoryBoard\Dot-Small.png",320,240 M,1,108238,109237,320,240,268,208 F,2,108238,109237,0.63,0 S,0,108238,109237,0.342,0.192 C,0,108238,109237,255,200,215
Sprite,Background,Centre,"StoryBoard\Dot-Small.png",320,240 M,1,108268,109267,320,240,388,252 F,2,108268,109267,0.7,0 S,0,108268,109267,0.403,0.253 C,0,108268,109267,255,236,200
Sprite,Background,Centre,"StoryBoard\Dot-Small.png",320,240 M,1,108268,109267,320,240,272,227 F,2,108268,109267,0.64,0 S,0,108268,109267,0.381,0.231 C,0,108268,109267,240,255,200
Sprite,Background,Centre,"StoryBoard\Dot-Small.png",320,240 M,1,108298,109297,320,240,123,384 F,2,108298,109297,0.8,0 S,0,108298,109297,0.3,0.15 C,0,108298,109297,203,200,255
Sprite,Background,Centre,"StoryBoard\Dot-Small.png",320,240 M,1,108298,109297,320,240,490,365 F,2,108298,109297,0.65,0 S,0,108298,109297,0.304,0.154 C,0,108298,109297,203,200,255
Sprite,Background,Centre,"StoryBoard\Dot-Small.png",320,240 M,1,108328,109327,320,240,515,339 F,2,108328,109327,0.59,0 S,0,108328,109327,0.428,0.278 C,0,108328,109327,203,200,255
Sprite,Background,Centre,"StoryBoard\Dot-Small.png",320,240 M,1,108328,109327,320,240,433,395 F,2,108328,109327,0.59,0 S,0,108328,109327,0.457,0.307 C,0,108328,109327,214,255,200
Sprite,Background,Centre,"StoryBoard\Dot-Small.png",320,240 M,1,108358,109357,320,240,455,371 F,2,108358,109357,0.66,0 S,0,108358,109357,0.427,0.277 C,0,108358,109357,255,200,215
Sprite,Background,Centre,"StoryBoard\Dot-Small.png",320,240 M,1,108358,109357,320,240,145,65 F,2,108358,109357,0.72,0 S,0,108358,109357,0.424,0.274 C,0,108358,109357,255,200,215
Sprite,Background,Centre,"StoryBoard\Dot-Small.png",320,240 M,1,108388,109387,320,240,228,93 F,2,108388,109387,0.74,0 S,0,108388,109387,0.344,0.194 C,0,108388,109387,239,200,255
Sprite,Background,Centre,"StoryBoard\Dot-Small.png",320,240 M,1,108388,109387,320,240,473,158 F,2,108388,109387,0.71,0 S,0,108388,109387,0.389,0.239 C,0,108388,109387,239,200,255
Sprite,Background,Centre,"StoryBoard\Dot-Small.png",320,240 M,1,108418,109417,320,240,476,371 F,2,108418,109417,0.68,0 S,0,108418,109417,0.395,0.245 C,0,108418,109417,255,236,200
Sprite,Background,Centre,"StoryBoard\Dot-Small.png",320,240 M,1,108418,109417,320,240,265,326 F,2,108418,109417,0.5,0 S,0,108418,109417,0.326,0.176 C,0,108418,109417,255,200,235
Sprite,Background,Centre,"StoryBoard\Dot-Small.png",320,240 M,1,108448,109447,320,240,233,141 F,2,108448,109447,0.58,0 S,0,108448,109447,0.472,0.322 C,0,108448,109447,255,216,200
Sprite,Background,Centre,"StoryBoard\Dot-Small.png",320,240 M,1,108448,109447,320,240,424,117 F,2,108448,109447,0.74,0 S,0,108448,109447,0.367,0.217 C,0,108448,109447,200,232,255
Sprite,Background,Centre,"StoryBoard\Dot-Small.png",320,240 M,1,108478,109477,320,240,288,382 F,2,108478,109477,0.65,0 S,0,108478,109477,0.486,0.336 C,0,108478,109477,255,200,235
Sprite,Background,Centre,"StoryBoard\Dot-Small.png",320,240 M,1,108478,109477,320,240,395,90 F,2,108478,109477,0.72,0 S,0,108478,109477,0.425,0.275 C,0,108478,109477,255,200,235
Sprite,Background,Centre,"StoryBoard\Dot-Small.png",320,240 M,1,108508,109507,320,240,473,196 F,2,108508,109507,0.57,0 S,0,108508,109507,0.372,0.222 C,0,108508,109507,203,200,255
Sprite,Background,Centre,"StoryBoard\Dot-Small.png",320,240 M,1,108508,109507,320,240,400,417 F,2,108508,109507,0.79,0 S,0,108508,109507,0.382,0.232 C,0,108508,109507,255,200,215
Sprite,Background,Centre,"StoryBoard\Dot-Small.png",320,240 M,1,108538,109537,320,240,478,405 F,2,108538,109537,0.66,0 S,0,108538,109537,0.366,0.216 C,0,108538,109537,255,200,235
Sprite,Background,Centre,"StoryBoard\Dot-Small.png",320,240 M,1,108538,109537,320,240,412,47 F,2,108538,109537,0.54,0 S,0,108538,109537,0.326,0.176 C,0,108538,109537,239,200,255
Sprite,Background,Centre,"StoryBoard\Dot-Small.png",320,240 M,1,108568,109567,320,240,335,312 F,2,108568,109567,0.69,0 S,0,108568,109567,0.314,0.164 C,0,108568,109567,255,216,200
Sprite,Background,Centre,"StoryBoard\Dot-Small.png",320,240 M,1,108568,109567,320,240,298,114 F,2,108568,109567,0.76,0 S,0,108568,109567,0.404,0.254 C,0,108568,109567,255,216,200
Sprite,Background,Centre,"StoryBoard\Dot-Small.png",320,240 M,1,108598,109597,320,240,287,149 F,2,108598,109597,0.61,0 S,0,108598,109597,0.405,0.255 C,0,108598,109597,255,236,200
Sprite,Background,Centre,"StoryBoard\Dot-Small.png",320,240 M,1,108598,109597,320,240,274,205 F,2,108598,109597,0.74,0 S,0,108598,109597,0.387,0.237 C,0,108598,109597,200,232,255
Sprite,Background,Centre,"StoryBoard\Dot-Small.png",320,240 M,1,108628,109627,320,240,330,87 F,2,108628,109627,0.63,0 S,0,108628,109627,0.379,0.229 C,0,108628,109627,255,236,200
Sprite,Background,Centre,"StoryBoard\Dot-Small.png",320,240 M,1,108628,109627,320,240,516,266 F,2,108628,109627,0.77,0 S,0,108628,109627,0.319,0.169 C,0,108628,109627,255,216,200
Sprite,Background,Centre,"StoryBoard\Dot-Small.png",320,240 M,1,108658,109657,320,240,139,132 F,2,108658,109657,0.6,0 S,0,108658,109657,0.46,0.31 C,0,108658,109657,203,200,255
Sprite,Background,Centre,"StoryBoard\Dot-Small.png",320,240 M,1,108658,109657,320,240,344,200 F,2,108658,109657,0.67,0 S,0,108658,109657,0.345,0.195 C,0,108658,109657,240,255,200
Sprite,Background,Centre,"StoryBoard\Dot-Small.png",320,240 M,1,108688,109687,320,240,411,362 F,2,108688,109687,0.56,0 S,0,108688,109687,0.498,0.348 C,0,108688,109687,255,200,215
Sprite,Background,Centre,"StoryBoard\Dot-Small.png",320,240 M,1,108688,109687,320,240,412,194 F,2,108688,109687,0.78,0 S,0,108688,109687,0.395,0.245 C,0,108688,109687,255,216,200
Sprite,Background,Centre,"StoryBoard\Dot-Small.png",320,240 M,1,108718,109717,320,240,149,377 F,2,108718,109717,0.57,0 S,0,108718,109717,0.5,0.35 C,0,108718,109717,203,200,255
Sprite,Background,Centre,"StoryBoard\Dot-Small.png",320,240 M,1,108718,109717,320,240,265,298 F,2,108718,109717,0.56,0 S,0,108718,109717,0.466,0.316 C,0,108718,109717,214,255,200
Sprite,Background,Centre,"StoryBoard\Dot-Small.png",320,240 M,1,108748,109747,320,240,299,80 F,2,108748,109747,0.58,0 S,0,108748,109747,0.442,0.292 C,0,108748,109747,255,200,215
Sprite,Background,Centre,"StoryBoard\Dot-Small.png",320,240 M,1,108748,109747,320,240,219,207 F,2,108748,109747,0.68,0 S,0,108748,109747,0.366,0.216 C,0,108748,109747,240,255,200
Sprite,Background,Centre,"StoryBoard\Dot-Small.png",320,240 M,1,108778,109777,320,240,503,343 F,2,108778,109777,0.75,0 S,0,108778,109777,0.312,0.162 C,0,108778,109777,255,200,235
Sprite,Background,Centre,"StoryBoard\Dot-Small.png",320,240 M,1,108778,109777,320,240,230,44 F,2,108778,109777,0.79,0 S,0,108778,109777,0.333,0.183 C,0,108778,109777,255,200,235
Sprite,Background,Centre,"StoryBoard\Dot-Small.png",320,240 M,1,108808,109807,320,240,175,79 F,2,108808,109807,0.6,0 S,0,108808,109807,0.468,0.318 C,0,108808,109807,240,255,200
Sprite,Background,Centre,"StoryBoard\Dot-Small.png",320,240 M,1,108808,109807,320,240,316,229 F,2,108808,109807,0.79,0 S,0,108808,109807,0.306,0.156 C,0,108808,109807,200,232,255
Sprite,Background,Centre,"StoryBoard\Dot-Small.png",320,240 M,1,108838,109837,320,240,149,282 F,2,108838,109837,0.68,0 S,0,108838,109837,0.464,0.314 C,0,108838,109837,255,200,235
Sprite,Background,Centre,"StoryBoard\Dot-Small.png",320,240 M,1,108838,109837,320,240,243,136 F,2,108838,109837,0.64,0 S,0,108838,109837,0.309,0.159 C,0,108838,109837,255,200,235
Sprite,Background,Centre,"StoryBoard\Dot-Small.png",320,240 M,1,108868,109867,320,240,299,71 F,2,108868,109867,0.78,0 S,0,108868,109867,0.419,0.269 C,0,108868,109867,255,200,235
Sprite,Background,Centre,"StoryBoard\Dot-Small.png",320,240 M,1,108868,109867,320,240,377,397 F,2,108868,109867,0.64,0 S,0,108868,109867,0.388,0.238 C,0,108868,109867,255,236,200
Sprite,Background,Centre,"StoryBoard\Dot-Small.png",320,240 M,1,108898,109897,320,240,492,436 F,2,108898,109897,0.56,0 S,0,108898,109897,0.343,0.193 C,0,108898,109897,240,255,200
Sprite,Background,Centre,"StoryBoard\Dot-Small.png",320,240 M,1,108898,109897,320,240,381,66 F,2,108898,109897,0.55,0 S,0,108898,109897,0.404,0.254 C,0,108898,109897,255,200,215
Sprite,Background,Centre,"StoryBoard\Dot-Small.png",320,240 M,1,108928,109927,320,240,324,160 F,2,108928,109927,0.67,0 S,0,108928,109927,0.395,0.245 C,0,108928,109927,255,216,200
Sprite,Background,Centre,"StoryBoard\Dot-Small.png",320,240 M,1,108928,109927,320,240,310,301 F,2,108928,109927,0.72,0 S,0,108928,109927,0.494,0.344 C,0,108928,109927,200,255,228
Sprite,Background,Centre,"StoryBoard\Dot-Small.png",320,240 M,1,108958,109957,320,240,511,294 F,2,108958,109957,0.75,0 S,0,108958,109957,0.479,0.329 C,0,108958,109957,255,216,200
Sprite,Background,Centre,"StoryBoard\Dot-Small.png",320,240 M,1,108958,109957,320,240,487,320 F,2,108958,109957,0.68,0 S,0,108958,109957,0.374,0.224 C,0,108958,109957,200,255,228
Sprite,Background,Centre,"StoryBoard\Dot-Small.png",320,240 M,1,108988,109987,320,240,456,397 F,2,108988,109987,0.61,0 S,0,108988,109987,0.391,0.241 C,0,108988,109987,239,200,255
Sprite,Background,Centre,"StoryBoard\Dot-Small.png",320,240 M,1,108988,109987,320,240,295,115 F,2,108988,109987,0.69,0 S,0,108988,109987,0.365,0.215 C,0,108988,109987,200,232,255
Sprite,Background,Centre,"StoryBoard\Dot-Small.png",320,240 M,1,109018,110017,320,240,409,325 F,2,109018,110017,0.8,0 S,0,109018,110017,0.361,0.211 C,0,109018,110017,214,255,200
Sprite,Background,Centre,"StoryBoard\Dot-Small.png",320,240 M,1,109018,110017,320,240,284,59 F,2,109018,110017,0.72,0 S,0,109018,110017,0.401,0.251 C,0,109018,110017,255,200,215
Sprite,Background,Centre,"StoryBoard\Dot-Small.png",320,240 M,1,109048,110047,320,240,443,80 F,2,109048,110047,0.54,0 S,0,109048,110047,0.421,0.271 C,0,109048,110047,255,236,200
Sprite,Background,Centre,"StoryBoard\Dot-Small.png",320,240 M,1,109048,110047,320,240,239,295 F,2,109048,110047,0.8,0 S,0,109048,110047,0.484,0.334 C,0,109048,110047,203,200,255
Sprite,Background,Centre,"StoryBoard\Dot-Small.png",320,240 M,1,109078,110077,320,240,223,384 F,2,109078,110077,0.58,0 S,0,109078,110077,0.334,0.184 C,0,109078,110077,240,255,200
Sprite,Background,Centre,"StoryBoard\Dot-Small.png",320,240 M,1,109078,110077,320,240,345,292 F,2,109078,110077,0.7,0 S,0,109078,110077,0.356,0.206 C,0,109078,110077,255,216,200
Sprite,Background,Centre,"StoryBoard\Dot-Small.png",320,240 M,1,109108,110107,320,240,129,331 F,2,109108,110107,0.69,0 S,0,109108,110107,0.315,0.165 C,0,109108,110107,255,236,200
Sprite,Background,Centre,"StoryBoard\Dot-Small.png",320,240 M,1,109108,110107,320,240,349,290 F,2,109108,110107,0.51,0 S,0,109108,110107,0.335,0.185 C,0,109108,110107,203,200,255
Sprite,Background,Centre,"StoryBoard\Dot-Small.png",320,240 M,1,109138,110137,320,240,476,415 F,2,109138,110137,0.57,0 S,0,109138,110137,0.412,0.262 C,0,109138,110137,240,255,200
Sprite,Background,Centre,"StoryBoard\Dot-Small.png",320,240 M,1,109138,110137,320,240,503,255 F,2,109138,110137,0.58,0 S,0,109138,110137,0.401,0.251 C,0,109138,110137,255,200,215
Sprite,Background,Centre,"StoryBoard\Dot-Small.png",320,240 M,1,109168,110167,320,240,364,427 F,2,109168,110167,0.72,0 S,0,109168,110167,0.325,0.175 C,0,109168,110167,200,232,255
Sprite,Background,Centre,"StoryBoard\Dot-Small.png",320,240 M,1,109168,110167,320,240,351,149 F,2,109168,110167,0.53,0 S,0,109168,110167,0.478,0.328 C,0,109168,110167,239,200,255
Sprite,Background,Centre,"StoryBoard\Dot-Small.png",320,240 M,1,109198,110197,320,240,517,63 F,2,109198,110197,0.8,0 S,0,109198,110197,0.379,0.229 C,0,109198,110197,239,200,255
Sprite,Background,Centre,"StoryBoard\Dot-Small.png",320,240 M,1,109198,110197,320,240,149,196 F,2,109198,110197,0.6,0 S,0,109198,110197,0.352,0.202 C,0,109198,110197,240,255,200
Sprite,Background,Centre,"StoryBoard\Dot-Small.png",320,240 M,1,109228,110227,320,240,401,239 F,2,109228,110227,0.65,0 S,0,109228,110227,0.305,0.155 C,0,109228,110227,255,216,200
Sprite,Background,Centre,"StoryBoard\Dot-Small.png",320,240 M,1,109228,110227,320,240,257,266 F,2,109228,110227,0.64,0 S,0,109228,110227,0.459,0.309 C,0,109228,110227,200,255,228
Sprite,Background,Centre,"StoryBoard\Dot-Small.png",320,240 M,1,109258,110257,320,240,433,406 F,2,109258,110257,0.74,0 S,0,109258,110257,0.43,0.28 C,0,109258,110257,200,232,255
Sprite,Background,Centre,"StoryBoard\Dot-Small.png",320,240 M,1,109258,110257,320,240,203,310 F,2,109258,110257,0.6,0 S,0,109258,110257,0.331,0.181 C,0,109258,110257,255,216,200
Sprite,Background,Centre,"StoryBoard\Dot-Small.png",320,240 M,1,109288,110287,320,240,175,67 F,2,109288,110287,0.55,0 S,0,109288,110287,0.42,0.27 C,0,109288,110287,240,255,200
Sprite,Background,Centre,"StoryBoard\Dot-Small.png",320,240 M,1,109288,110287,320,240,194,343 F,2,109288,110287,0.63,0 S,0,109288,110287,0.382,0.232 C,0,109288,110287,239,200,255
Sprite,Background,Centre,"StoryBoard\Dot-Small.png",320,240 M,1,109318,110317,320,240,177,415 F,2,109318,110317,0.54,0 S,0,109318,110317,0.499,0.349 C,0,109318,110317,200,255,228
Sprite,Background,Centre,"StoryBoard\Dot-Small.png",320,240 M,1,109318,110317,320,240,379,185 F,2,109318,110317,0.67,0 S,0,109318,110317,0.346,0.196 C,0,109318,110317,240,255,200
Sprite,Background,Centre,"StoryBoard\Dot-Small.png",320,240 M,1,109348,110347,320,240,403,179 F,2,109348,110347,0.77,0 S,0,109348,110347,0.34,0.19 C,0,109348,110347,239,200,255
Sprite,Background,Centre,"StoryBoard\Dot-Small.png",320,240 M,1,109348,110347,320,240,211,422 F,2,109348,110347,0.66,0 S,0,109348,110347,0.409,0.259 C,0,109348,110347,239,200,255
Sprite,Background,Centre,"StoryBoard\Dot-Small.png",320,240 M,1,109378,110377,320,240,182,162 F,2,109378,110377,0.75,0 S,0,109378,110377,0.339,0.189 C,0,109378,110377,255,200,215
Sprite,Background,Centre,"StoryBoard\Dot-Small.png",320,240 M,1,109378,110377,320,240,356,136 F,2,109378,110377,0.5,0 S,0,109378,110377,0.321,0.171 C,0,109378,110377,255,200,235
Sprite,Background,Centre,"StoryBoard\Dot-Small.png",320,240 M,1,109408,110407,320,240,477,187 F,2,109408,110407,0.7,0 S,0,109408,110407,0.472,0.322 C,0,109408,110407,200,232,255
Sprite,Background,Centre,"StoryBoard\Dot-Small.png",320,240 M,1,109408,110407,320,240,371,249 F,2,109408,110407,0.53,0 S,0,109408,110407,0.357,0.207 C,0,109408,110407,239,200,255
Sprite,Background,Centre,"StoryBoard\Dot-Small.png",320,240 M,1,109438,110437,320,240,321,186 F,2,109438,110437,0.5,0 S,0,109438,110437,0.315,0.165 C,0,109438,110437,239,200,255
Sprite,Background,Centre,"StoryBoard\Dot-Small.png",320,240 M,1,109438,110437,320,240,476,375 F,2,109438,110437,0.65,0 S,0,109438,110437,0.419,0.269 C,0,109438,110437,255,216,200
Sprite,Background,Centre,"StoryBoard\Dot-Small.png",320,240 M,1,109468,110467,320,240,306,152 F,2,109468,110467,0.75,0 S,0,109468,110467,0.396,0.246 C,0,109468,110467,255,216,200
Sprite,Background,Centre,"StoryBoard\Dot-Small.png",320,240 M,1,109468,110467,320,240,448,245 F,2,109468,110467,0.51,0 S,0,109468,110467,0.495,0.345 C,0,109468,110467,200,255,228
Sprite,Background,Centre,"StoryBoard\Dot-Small.png",320,240 M,1,109498,110497,320,240,283,225 F,2,109498,110497,0.57,0 S,0,109498,110497,0.354,0.204 C,0,109498,110497,214,255,200
Sprite,Background,Centre,"StoryBoard\Dot-Small.png",320,240 M,1,109498,110497,320,240,164,183 F,2,109498,110497,0.79,0 S,0,109498,110497,0.373,0.223 C,0,109498,110497,255,200,215
Sprite,Background,Centre,"StoryBoard\Dot-Small.png",320,240 M,1,109528,110527,320,240,488,355 F,2,109528,110527,0.66,0 S,0,109528,110527,0.444,0.294 C,0,109528,110527,200,255,228
Sprite,Background,Centre,"StoryBoard\Dot-Small.png",320,240 M,1,109528,110527,320,240,336,325 F,2,109528,110527,0.78,0 S,0,109528,110527,0.301,0.151 C,0,109528,110527,200,255,228
Sprite,Background,Centre,"StoryBoard\Dot-Small.png",320,240 M,1,109558,110557,320,240,213,329 F,2,109558,110557,0.64,0 S,0,109558,110557,0.414,0.264 C,0,109558,110557,240,255,200
Sprite,Background,Centre,"StoryBoard\Dot-Small.png",320,240 M,1,109558,110557,320,240,504,257 F,2,109558,110557,0.64,0 S,0,109558,110557,0.481,0.331 C,0,109558,110557,203,200,255
Sprite,Background,Centre,"StoryBoard\Dot-Small.png",320,240 M,1,109588,110587,320,240,145,406 F,2,109588,110587,0.57,0 S,0,109588,110587,0.403,0.253 C,0,109588,110587,200,232,255
Sprite,Background,Centre,"StoryBoard\Dot-Small.png",320,240 M,1,109588,110587,320,240,480,250 F,2,109588,110587,0.61,0 S,0,109588,110587,0.492,0.342 C,0,109588,110587,255,216,200
Sprite,Background,Centre,"StoryBoard\Dot-Small.png",320,240 M,1,109618,110617,320,240,299,376 F,2,109618,110617,0.64,0 S,0,109618,110617,0.33,0.18 C,0,109618,110617,200,255,228
Sprite,Background,Centre,"StoryBoard\Dot-Small.png",320,240 M,1,109618,110617,320,240,358,374 F,2,109618,110617,0.6,0 S,0,109618,110617,0.36,0.21 C,0,109618,110617,255,200,235
Sprite,Background,Centre,"StoryBoard\Dot-Small.png",320,240 M,1,109648,110647,320,240,410,256 F,2,109648,110647,0.72,0 S,0,109648,110647,0.467,0.317 C,0,109648,110647,203,200,255
Sprite,Background,Centre,"StoryBoard\Dot-Small.png",320,240 M,1,109648,110647,320,240,252,158 F,2,109648,110647,0.52,0 S,0,109648,110647,0.453,0.303 C,0,109648,110647,214,255,200
Sprite,Background,Centre,"StoryBoard\Dot-Small.png",320,240 M,1,109678,110677,320,240,138,184 F,2,109678,110677,0.61,0 S,0,109678,110677,0.393,0.243 C,0,109678,110677,203,200,255
Sprite,Background,Centre,"StoryBoard\Dot-Small.png",320,240 M,1,109678,110677,320,240,470,355 F,2,109678,110677,0.52,0 S,0,109678,110677,0.335,0.185 C,0,109678,110677,255,200,215
Sprite,Background,Centre,"StoryBoard\Dot-Small.png",320,240 M,1,109708,110707,320,240,510,181 F,2,109708,110707,0.53,0 S,0,109708,110707,0.428,0.278 C,0,109708,110707,255,216,200
Sprite,Background,Centre,"StoryBoard\Dot-Small.png",320,240 M,1,109708,110707,320,240,371,148 F,2,109708,110707,0.77,0 S,0,109708,110707,0.417,0.267 C,0,109708,110707,239,200,255
Sprite,Background,Centre,"StoryBoard\Dot-Small.png",320,240 M,1,109738,110737,320,240,189,252 F,2,109738,110737,0.55,0 S,0,109738,110737,0.315,0.165 C,0,109738,110737,255,216,200
Sprite,Background,Centre,"StoryBoard\Dot-Small.png",320,240 M,1,109738,110737,320,240,135,82 F,2,109738,110737,0.54,0 S,0,109738,110737,0.35,0.2 C,0,109738,110737,255,200,215
Sprite,Background,Centre,"StoryBoard\Dot-Small.png",320,240 M,1,109768,110767,320,240,426,269 F,2,109768,110767,0.78,0 S,0,109768,110767,0.432,0.282 C,0,109768,110767,255,236,200
Sprite,Background,Centre,"StoryBoard\Dot-Small.png",320,240 M,1,109768,110767,320,240,492,366 F,2,109768,110767,0.65,0 S,0,109768,110767,0.317,0.167 C,0,109768,110767,255,200,215
Sprite,Background,Centre,"StoryBoard\Dot-Small.png",320,240 M,1,109798,110797,320,240,120,125 F,2,109798,110797,0.61,0 S,0,109798,110797,0.339,0.189 C,0,109798,110797,255,200,215
Sprite,Background,Centre,"StoryBoard\Dot-Small.png",320,240 M,1,109798,110797,320,240,482,129 F,2,109798,110797,0.59,0 S,0,109798,110797,0.464,0.314 C,0,109798,110797,214,255,200
Sprite,Background,Centre,"StoryBoard\Dot-Small.png",320,240 M,1,109828,110827,320,240,271,123 F,2,109828,110827,0.61,0 S,0,109828,110827,0.481,0.331 C,0,109828,110827,255,200,235
Sprite,Background,Centre,"StoryBoard\Dot-Small.png",320,240 M,1,109828,110827,320,240,463,70 F,2,109828,110827,0.69,0 S,0,109828,110827,0.42,0.27 C,0,109828,110827,255,236,200
Sprite,Background,Centre,"StoryBoard\Dot-Small.png",320,240 M,1,109858,110857,320,240,361,411 F,2,109858,110857,0.58,0 S,0,109858,110857,0.346,0.196 C,0,109858,110857,200,232,255
Sprite,Background,Centre,"StoryBoard\Dot-Small.png",320,240 M,1,109858,110857,320,240,145,372 F,2,109858,110857,0.56,0 S,0,109858,110857,0.451,0.301 C,0,109858,110857,255,200,215
Sprite,Background,Centre,"StoryBoard\Dot-Small.png",320,240 M,1,109888,110887,320,240,367,88 F,2,109888,110887,0.54,0 S,0,109888,110887,0.412,0.262 C,0,109888,110887,214,255,200
Sprite,Background,Centre,"StoryBoard\Dot-Small.png",320,240 M,1,109888,110887,320,240,382,333 F,2,109888,110887,0.73,0 S,0,109888,110887,0.324,0.174 C,0,109888,110887,255,216,200
Sprite,Background,Centre,"StoryBoard\Dot-Small.png",320,240 M,1,109918,110917,320,240,493,246 F,2,109918,110917,0.6,0 S,0,109918,110917,0.328,0.178 C,0,109918,110917,255,216,200
Sprite,Background,Centre,"StoryBoard\Dot-Small.png",320,240 M,1,109918,110917,320,240,167,139 F,2,109918,110917,0.5,0 S,0,109918,110917,0.332,0.182 C,0,109918,110917,239,200,255
Sprite,Background,Centre,"StoryBoard\Dot-Small.png",320,240 M,1,109948,110947,320,240,168,322 F,2,109948,110947,0.65,0 S,0,109948,110947,0.345,0.195 C,0,109948,110947,255,200,215
Sprite,Background,Centre,"StoryBoard\Dot-Small.png",320,240 M,1,109948,110947,320,240,347,433 F,2,109948,110947,0.53,0 S,0,109948,110947,0.393,0.243 C,0,109948,110947,200,255,228
Sprite,Background,Centre,"StoryBoard\Dot-Small.png",320,240 M,1,109978,110977,320,240,356,241 F,2,109978,110977,0.77,0 S,0,109978,110977,0.461,0.311 C,0,109978,110977,200,255,228
Sprite,Background,Centre,"StoryBoard\Dot-Small.png",320,240 M,1,109978,110977,320,240,332,74 F,2,109978,110977,0.79,0 S,0,109978,110977,0.384,0.234 C,0,109978,110977,255,200,215
Sprite,Background,Centre,"StoryBoard\Dot-Small.png",320,240 M,1,110008,111007,320,240,413,204 F,2,110008,111007,0.56,0 S,0,110008,111007,0.306,0.156 C,0,110008,111007,203,200,255
Sprite,Background,Centre,"StoryBoard\Dot-Small.png",320,240 M,1,110008,111007,320,240,216,213 F,2,110008,111007,0.69,0 S,0,110008,111007,0.407,0.257 C,0,110008,111007,214,255,200
Sprite,Background,Centre,"StoryBoard\Dot-Small.png",320,240 M,1,110038,111037,320,240,320,298 F,2,110038,111037,0.68,0 S,0,110038,111037,0.355,0.205 C,0,110038,111037,240,255,200
Sprite,Background,Centre,"StoryBoard\Dot-Small.png",320,240 M,1,110038,111037,320,240,135,50 F,2,110038,111037,0.62,0 S,0,110038,111037,0.431,0.281 C,0,110038,111037,255,200,235
Sprite,Background,Centre,"StoryBoard\Dot-Small.png",320,240 M,1,110068,111067,320,240,240,423 F,2,110068,111067,0.66,0 S,0,110068,111067,0.441,0.291 C,0,110068,111067,255,200,235
Sprite,Background,Centre,"StoryBoard\Dot-Small.png",320,240 M,1,110068,111067,320,240,302,62 F,2,110068,111067,0.54,0 S,0,110068,111067,0.319,0.169 C,0,110068,111067,255,236,200
Sprite,Background,Centre,"StoryBoard\Dot-Small.png",320,240 M,1,110098,111097,320,240,202,330 F,2,110098,111097,0.68,0 S,0,110098,111097,0.332,0.182 C,0,110098,111097,214,255,200
Sprite,Background,Centre,"StoryBoard\Dot-Small.png",320,240 M,1,110098,111097,320,240,222,125 F,2,110098,111097,0.68,0 S,0,110098,111097,0.384,0.234 C,0,110098,111097,200,255,228
Sprite,Background,Centre,"StoryBoard\Dot-Small.png",320,240 M,1,110128,111127,320,240,456,226 F,2,110128,111127,0.7,0 S,0,110128,111127,0.309,0.159 C,0,110128,111127,255,200,215
Sprite,Background,Centre,"StoryBoard\Dot-Small.png",320,240 M,1,110128,111127,320,240,498,375 F,2,110128,111127,0.62,0 S,0,110128,111127,0.5,0.35 C,0,110128,111127,255,200,235
Sprite,Background,Centre,"StoryBoard\Dot-Small.png",320,240 M,1,110158,111157,320,240,468,81 F,2,110158,111157,0.68,0 S,0,110158,111157,0.478,0.328 C,0,110158,111157,255,216,200
Sprite,Background,Centre,"StoryBoard\Dot-Small.png",320,240 M,1,110158,111157,320,240,288,87 F,2,110158,111157,0.63,0 S,0,110158,111157,0.431,0.281 C,0,110158,111157,255,200,215
Sprite,Background,Centre,"StoryBoard\Dot-Small.png",320,240 M,1,110188,111187,320,240,305,170 F,2,110188,111187,0.5,0 S,0,110188,111187,0.497,0.347 C,0,110188,111187,239,200,255
Sprite,Background,Centre,"StoryBoard\Dot-Small.png",320,240 M,1,110188,111187,320,240,358,164 F,2,110188,111187,0.73,0 S,0,110188,111187,0.333,0.183 C,0,110188,111187,255,236,200
Sprite,Background,Centre,"StoryBoard\Dot-Small.png",320,240 M,1,110218,111217,320,240,407,75 F,2,110218,111217,0.72,0 S,0,110218,111217,0.336,0.186 C,0,110218,111217,200,232,255
Sprite,Background,Centre,"StoryBoard\Dot-Small.png",320,240 M,1,110218,111217,320,240,464,146 F,2,110218,111217,0.53,0 S,0,110218,111217,0.421,0.271 C,0,110218,111217,255,236,200
Sprite,Background,Centre,"StoryBoard\Dot-Small.png",320,240 M,1,110248,111247,320,240,502,62 F,2,110248,111247,0.57,0 S,0,110248,111247,0.404,0.254 C,0,110248,111247,255,200,235
Sprite,Background,Centre,"StoryBoard\Dot-Small.png",320,240 M,1,110248,111247,320,240,442,289 F,2,110248,111247,0.63,0 S,0,110248,111247,0.375,0.225 C,0,110248,111247,255,200,215
Sprite,Background,Centre,"StoryBoard\Dot-Small.png",320,240 M,1,110278,111277,320,240,121,284 F,2,110278,111277,0.57,0 S,0,110278,111277,0.398,0.248 C,0,110278,111277,214,255,200
Sprite,Background,Centre,"StoryBoard\Dot-Small.png",320,240 M,1,110278,111277,320,240,191,349 F,2,110278,111277,0.74,0 S,0,110278,111277,0.473,0.323 C,0,110278,111277,203,200,255
Sprite,Background,Centre,"StoryBoard\Dot-Small.png",320,240 M,1,110308,111307,320,240,299,419 F,2,110308,111307,0.56,0 S,0,110308,111307,0.467,0.317 C,0,110308,111307,255,200,235
Sprite,Background,Centre,"StoryBoard\Dot-Small.png",320,240 M,1,110308,111307,320,240,231,142 F,2,110308,111307,0.67,0 S,0,110308,111307,0.319,0.169 C,0,110308,111307,255,216,200
Sprite,Background,Centre,"StoryBoard\Dot-Small.png",320,240 M,1,110338,111337,320,240,203,151 F,2,110338,111337,0.73,0 S,0,110338,111337,0.437,0.287 C,0,110338,111337,255,200,235
Sprite,Background,Centre,"StoryBoard\Dot-Small.png",320,240 M,1,110338,111337,320,240,414,73 F,2,110338,111337,0.72,0 S,0,110338,111337,0.342,0.192 C,0,110338,111337,255,200,235
Sprite,Background,Centre,"StoryBoard\Dot-Small.png",320,240 M,1,110368,111367,320,240,135,348 F,2,110368,111367,0.57,0 S,0,110368,111367,0.482,0.332 C,0,110368,111367,203,200,255
Sprite,Background,Centre,"StoryBoard\Dot-Small.png",320,240 M,1,110368,111367,320,240,134,84 F,2,110368,111367,0.79,0 S,0,110368,111367,0.392,0.242 C,0,110368,111367,200,255,228
Sprite,Background,Centre,"StoryBoard\Dot-Small.png",320,240 M,1,110398,111397,320,240,359,169 F,2,110398,111397,0.79,0 S,0,110398,111397,0.459,0.309 C,0,110398,111397,200,255,228
Sprite,Background,Centre,"StoryBoard\Dot-Small.png",320,240 M,1,110398,111397,320,240,281,360 F,2,110398,111397,0.68,0 S,0,110398,111397,0.371,0.221 C,0,110398,111397,239,200,255
Sprite,Background,Centre,"StoryBoard\Dot-Small.png",320,240 M,1,110428,111427,320,240,456,175 F,2,110428,111427,0.59,0 S,0,110428,111427,0.457,0.307 C,0,110428,111427,203,200,255
Sprite,Background,Centre,"StoryBoard\Dot-Small.png",320,240 M,1,110428,111427,320,240,498,69 F,2,110428,111427,0.72,0 S,0,110428,111427,0.42,0.27 C,0,110428,111427,255,200,235
Sprite,Background,Centre,"StoryBoard\Dot-Small.png",320,240 M,1,110458,111457,320,240,443,222 F,2,110458,111457,0.74,0 S,0,110458,111457,0.303,0.153 C,0,110458,111457,200,255,228
Sprite,Background,Centre,"StoryBoard\Dot-Small.png",320,240 M,1,110458,111457,320,240,183,48 F,2,110458,111457,0.53,0 S,0,110458,111457,0.355,0.205 C,0,110458,111457,255,216,200
Sprite,Background,Centre,"StoryBoard\Dot-Small.png",320,240 M,1,110488,111487,320,240,224,114 F,2,110488,111487,0.57,0 S,0,110488,111487,0.491,0.341 C,0,110488,111487,240,255,200
Sprite,Background,Centre,"StoryBoard\Dot-Small.png",320,240 M,1,110488,111487,320,240,324,335 F,2,110488,111487,0.72,0 S,0,110488,111487,0.378,0.228 C,0,110488,111487,255,200,235
Sprite,Background,Centre,"StoryBoard\Dot-Small.png",320,240 M,1,110518,111517,320,240,368,116 F,2,110518,111517,0.55,0 S,0,110518,111517,0.475,0.325 C,0,110518,111517,203,200,255
Sprite,Background,Centre,"StoryBoard\Dot-Small.png",320,240 M,1,110518,111517,320,240,335,82 F,2,110518,111517,0.61,0 S,0,110518,111517,0.358,0.208 C,0,110518,111517,200,255,228
Sprite,Background,Centre,"StoryBoard\Dot-Small.png",320,240 M,1,110548,111547,320,240,138,104 F,2,110548,111547,0.77,0 S,0,110548,111547,0.485,0.335 C,0,110548,111547,239,200,255
Sprite,Background,Centre,"StoryBoard\Dot-Small.png",320,240 M,1,110548,111547,320,240,220,209 F,2,110548,111547,0.68,0 S,0,110548,111547,0.485,0.335 C,0,110548,111547,200,232,255
Sprite,Background,Centre,"StoryBoard\Dot-Small.png",320,240 M,1,110578,111577,320,240,344,304 F,2,110578,111577,0.65,0 S,0,110578,111577,0.443,0.293 C,0,110578,111577,255,200,215
Sprite,Background,Centre,"StoryBoard\Dot-Small.png",320,240 M,1,110578,111577,320,240,316,143 F,2,110578,111577,0.54,0 S,0,110578,111577,0.416,0.266 C,0,110578,111577,255,236,200
Sprite,Background,Centre,"StoryBoard\Dot-Small.png",320,240 M,1,110608,111607,320,240,473,123 F,2,110608,111607,0.68,0 S,0,110608,111607,0.399,0.249 C,0,110608,111607,200,255,228
Sprite,Background,Centre,"StoryBoard\Dot-Small.png",320,240 M,1,110608,111607,320,240,281,110 F,2,110608,111607,0.53,0 S,0,110608,111607,0.431,0.281 C,0,110608,111607,239,200,255
Sprite,Background,Centre,"StoryBoard\Dot-Small.png",320,240 M,1,110638,111637,320,240,320,208 F,2,110638,111637,0.74,0 S,0,110638,111637,0.377,0.227 C,0,110638,111637,255,236,200
Sprite,Background,Centre,"StoryBoard\Dot-Small.png",320,240 M,1,110638,111637,320,240,380,373 F,2,110638,111637,0.56,0 S,0,110638,111637,0.335,0.185 C,0,110638,111637,200,255,228
Sprite,Background,Centre,"StoryBoard\Dot-Small.png",320,240 M,1,110668,111667,320,240,126,83 F,2,110668,111667,0.57,0 S,0,110668,111667,0.457,0.307 C,0,110668,111667,255,200,235
Sprite,Background,Centre,"StoryBoard\Dot-Small.png",320,240 M,1,110668,111667,320,240,225,386 F,2,110668,111667,0.5,0 S,0,110668,111667,0.43,0.28 C,0,110668,111667,255,200,215
Sprite,Background,Centre,"StoryBoard\Dot-Small.png",320,240 M,1,110698,111697,320,240,485,180 F,2,110698,111697,0.66,0 S,0,110698,111697,0.368,0.218 C,0,110698,111697,255,236,200
Sprite,Background,Centre,"StoryBoard\Dot-Small.png",320,240 M,1,110698,111697,320,240,339,349 F,2,110698,111697,0.59,0 S,0,110698,111697,0.356,0.206 C,0,110698,111697,240,255,200
Sprite,Background,Centre,"StoryBoard\Dot-Small.png",320,240 M,1,110728,111727,320,240,439,239 F,2,110728,111727,0.67,0 S,0,110728,111727,0.395,0.245 C,0,110728,111727,240,255,200
Sprite,Background,Centre,"StoryBoard\Dot-Small.png",320,240 M,1,110728,111727,320,240,496,67 F,2,110728,111727,0.53,0 S,0,110728,111727,0.45,0.3 C,0,110728,111727,255,216,200
Sprite,Background,Centre,"StoryBoard\Dot-Small.png",320,240 M,1,110758,111757,320,240,488,72 F,2,110758,111757,0.74,0 S,0,110758,111757,0.495,0.345 C,0,110758,111757,200,255,228
Sprite,Background,Centre,"StoryBoard\Dot-Small.png",320,240 M,1,110758,111757,320,240,459,87 F,2,110758,111757,0.78,0 S,0,110758,111757,0.465,0.315 C,0,110758,111757,214,255,200
Sprite,Background,Centre,"StoryBoard\Dot-Small.png",320,240 M,1,110788,111787,320,240,341,397 F,2,110788,111787,0.62,0 S,0,110788,111787,0.384,0.234 C,0,110788,111787,200,255,228
Sprite,Background,Centre,"StoryBoard\Dot-Small.png",320,240 M,1,110788,111787,320,240,430,401 F,2,110788,111787,0.52,0 S,0,110788,111787,0.336,0.186 C,0,110788,111787,214,255,200
Sprite,Background,Centre,"StoryBoard\Dot-Small.png",320,240 M,1,110818,111817,320,240,450,68 F,2,110818,111817,0.75,0 S,0,110818,111817,0.387,0.237 C,0,110818,111817,255,200,215
Sprite,Background,Centre,"StoryBoard\Dot-Small.png",320,240 M,1,110818,111817,320,240,142,406 F,2,110818,111817,0.75,0 S,0,110818,111817,0.331,0.181 C,0,110818,111817,255,236,200
Sprite,Background,Centre,"StoryBoard\Dot-Small.png",320,240 M,1,110848,111847,320,240,385,57 F,2,110848,111847,0.77,0 S,0,110848,111847,0.303,0.153 C,0,110848,111847,200,232,255
Sprite,Background,Centre,"StoryBoard\Dot-Small.png",320,240 M,1,110848,111847,320,240,227,198 F,2,110848,111847,0.66,0 S,0,110848,111847,0.386,0.236 C,0,110848,111847,255,216,200
//Storyboard Layer 1 (Fail)
//Storyboard Layer 2 (Pass)
//Storyboard Layer 3 (Foreground)
Sprite,Foreground,Centre,"StoryBoard\daijyoubu.png",320,240 F,0,127861,128361,0,0.7 M,0,127861,128860,320,240,89,149 S,0,127861,128860,0.429 F,0,128361,128860,0.7,0
Sprite,Foreground,Centre,"StoryBoard\daijyoubu.png",320,240 F,0,127861,128361,0,0.4 M,0,127861,128860,320,240,234,71 S,0,127861,128860,0.133 F,0,128361,128860,0.4,0
Sprite,Foreground,Centre,"StoryBoard\daijyoubu.png",320,240 F,0,127861,128361,0,0.4 M,0,127861,128860,320,240,402,254 S,0,127861,128860,0.371 F,0,128361,128860,0.4,0
Sprite,Foreground,Centre,"StoryBoard\daijyoubu.png",320,240 F,0,127861,128361,0,0.5 M,0,127861,128860,320,240,121,110 S,0,127861,128860,0.422 F,0,128361,128860,0.5,0
Sprite,Foreground,Centre,"StoryBoard\daijyoubu.png",320,240 F,0,128194,128694,0,0.6 M,0,128194,129193,320,240,344,107 S,0,128194,129193,0.387 F,0,128694,129193,0.6,0
Sprite,Foreground,Centre,"StoryBoard\daijyoubu.png",320,240 F,0,128194,128694,0,0.4 M,0,128194,129193,320,240,234,145 S,0,128194,129193,0.344 F,0,128694,129193,0.4,0
Sprite,Foreground,Centre,"StoryBoard\daijyoubu.png",320,240 F,0,128194,128694,0,0.7 M,0,128194,129193,320,240,72,338 S,0,128194,129193,0.448 F,0,128694,129193,0.7,0
Sprite,Foreground,Centre,"StoryBoard\daijyoubu.png",320,240 F,0,128194,128694,0,0.8 M,0,128194,129193,320,240,479,67 S,0,128194,129193,0.251 F,0,128694,129193,0.8,0
Sprite,Foreground,Centre,"StoryBoard\daijyoubu.png",320,240 F,0,128527,129027,0,0.7 M,0,128527,129526,320,240,66,362 S,0,128527,129526,0.276 F,0,129027,129526,0.7,0
Sprite,Foreground,Centre,"StoryBoard\daijyoubu.png",320,240 F,0,128527,129027,0,0.7 M,0,128527,129526,320,240,340,133 S,0,128527,129526,0.239 F,0,129027,129526,0.7,0
Sprite,Foreground,Centre,"StoryBoard\daijyoubu.png",320,240 F,0,128527,129027,0,0.3 M,0,128527,129526,320,240,247,149 S,0,128527,129526,0.422 F,0,129027,129526,0.3,0
Sprite,Foreground,Centre,"StoryBoard\daijyoubu.png",320,240 F,0,128527,129027,0,0.3 M,0,128527,129526,320,240,435,268 S,0,128527,129526,0.264 F,0,129027,129526,0.3,0
Sprite,Foreground,Centre,"StoryBoard\daijyoubu.png",320,240 F,0,128860,129360,0,0.7 M,0,128860,129859,320,240,449,132 S,0,128860,129859,0.127 F,0,129360,129859,0.7,0
Sprite,Foreground,Centre,"StoryBoard\daijyoubu.png",320,240 F,0,128860,129360,0,0.3 M,0,128860,129859,320,240,366,352 S,0,128860,129859,0.384 F,0,129360,129859,0.3,0
Sprite,Foreground,Centre,"StoryBoard\daijyoubu.png",320,240 F,0,128860,129360,0,0.7 M,0,128860,129859,320,240,460,409 S,0,128860,129859,0.403 F,0,129360,129859,0.7,0
Sprite,Foreground,Centre,"StoryBoard\daijyoubu.png",320,240 F,0,128860,129360,0,0.3 M,0,128860,129859,320,240,363,357 S,0,128860,129859,0.216 F,0,129360,129859,0.3,0
Sprite,Foreground,Centre,"StoryBoard\daijyoubu.png",320,240 F,0,129193,129693,0,0.6 M,0,129193,130192,320,240,247,286 S,0,129193,130192,0.365 F,0,129693,130192,0.6,0
Sprite,Foreground,Centre,"StoryBoard\daijyoubu.png",320,240 F,0,129193,129693,0,0.5 M,0,129193,130192,320,240,511,170 S,0,129193,130192,0.355 F,0,129693,130192,0.5,0
Sprite,Foreground,Centre,"StoryBoard\daijyoubu.png",320,240 F,0,129193,129693,0,0.4 M,0,129193,130192,320,240,363,371 S,0,129193,130192,0.283 F,0,129693,130192,0.4,0
Sprite,Foreground,Centre,"StoryBoard\daijyoubu.png",320,240 F,0,129193,129693,0,0.5 M,0,129193,130192,320,240,451,288 S,0,129193,130192,0.351 F,0,129693,130192,0.5,0
Sprite,Foreground,Centre,"StoryBoard\daijyoubu.png",320,240 F,0,129526,130026,0,0.8 M,0,129526,130525,320,240,325,237 S,0,129526,130525,0.344 F,0,130026,130525,0.8,0
Sprite,Foreground,Centre,"StoryBoard\daijyoubu.png",320,240 F,0,129526,130026,0,0.6 M,0,129526,130525,320,240,292,192 S,0,129526,130525,0.11 F,0,130026,130525,0.6,0
Sprite,Foreground,Centre,"StoryBoard\daijyoubu.png",320,240 F,0,129526,130026,0,0.7 M,0,129526,130525,320,240,58,273 S,0,129526,130525,0.237 F,0,130026,130525,0.7,0
Sprite,Foreground,Centre,"StoryBoard\daijyoubu.png",320,240 F,0,129526,130026,0,0.4 M,0,129526,130525,320,240,384,275 S,0,129526,130525,0.262 F,0,130026,130525,0.4,0
Sprite,Foreground,Centre,"StoryBoard\suri.png",320,240 F,0,114528,115028,0,0.8 M,0,114528,115527,320,240,94,190 S,0,114528,115527,0.13 F,0,115028,115527,0.8,0
Sprite,Foreground,Centre,"StoryBoard\suri.png",320,240 F,0,114528,115028,0,0.6 M,0,114528,115527,320,240,519,62 S,0,114528,115527,0.303 F,0,115028,115527,0.6,0
Sprite,Foreground,Centre,"StoryBoard\suri.png",320,240 F,0,114528,115028,0,0.5 M,0,114528,115527,320,240,247,150 S,0,114528,115527,0.269 F,0,115028,115527,0.5,0
Sprite,Foreground,Centre,"StoryBoard\suri.png",320,240 F,0,114528,115028,0,0.8 M,0,114528,115527,320,240,83,382 S,0,114528,115527,0.149 F,0,115028,115527,0.8,0
Sprite,Foreground,Centre,"StoryBoard\suri.png",320,240 F,0,114861,115361,0,0.6 M,0,114861,115860,320,240,204,144 S,0,114861,115860,0.371 F,0,115361,115860,0.6,0
Sprite,Foreground,Centre,"StoryBoard\suri.png",320,240 F,0,114861,115361,0,0.7 M,0,114861,115860,320,240,573,224 S,0,114861,115860,0.182 F,0,115361,115860,0.7,0
Sprite,Foreground,Centre,"StoryBoard\suri.png",320,240 F,0,114861,115361,0,0.8 M,0,114861,115860,320,240,140,241 S,0,114861,115860,0.333 F,0,115361,115860,0.8,0
Sprite,Foreground,Centre,"StoryBoard\suri.png",320,240 F,0,114861,115361,0,0.7 M,0,114861,115860,320,240,206,235 S,0,114861,115860,0.409 F,0,115361,115860,0.7,0
Sprite,Foreground,Centre,"StoryBoard\suri.png",320,240 F,0,115194,115694,0,0.5 M,0,115194,116193,320,240,489,341 S,0,115194,116193,0.411 F,0,115694,116193,0.5,0
Sprite,Foreground,Centre,"StoryBoard\suri.png",320,240 F,0,115194,115694,0,0.3 M,0,115194,116193,320,240,460,92 S,0,115194,116193,0.129 F,0,115694,116193,0.3,0
Sprite,Foreground,Centre,"StoryBoard\suri.png",320,240 F,0,115194,115694,0,0.6 M,0,115194,116193,320,240,75,158 S,0,115194,116193,0.282 F,0,115694,116193,0.6,0
Sprite,Foreground,Centre,"StoryBoard\suri.png",320,240 F,0,115194,115694,0,0.3 M,0,115194,116193,320,240,358,121 S,0,115194,116193,0.182 F,0,115694,116193,0.3,0
Sprite,Foreground,Centre,"StoryBoard\suri.png",320,240 F,0,115527,116027,0,0.3 M,0,115527,116526,320,240,355,112 S,0,115527,116526,0.189 F,0,116027,116526,0.3,0
Sprite,Foreground,Centre,"StoryBoard\suri.png",320,240 F,0,115527,116027,0,0.8 M,0,115527,116526,320,240,366,355 S,0,115527,116526,0.326 F,0,116027,116526,0.8,0
Sprite,Foreground,Centre,"StoryBoard\suri.png",320,240 F,0,115527,116027,0,0.8 M,0,115527,116526,320,240,430,374 S,0,115527,116526,0.116 F,0,116027,116526,0.8,0
Sprite,Foreground,Centre,"StoryBoard\suri.png",320,240 F,0,115527,116027,0,0.6 M,0,115527,116526,320,240,520,182 S,0,115527,116526,0.283 F,0,116027,116526,0.6,0
Sprite,Foreground,Centre,"StoryBoard\suri.png",320,240 F,0,115860,116360,0,0.7 M,0,115860,116859,320,240,217,121 S,0,115860,116859,0.214 F,0,116360,116859,0.7,0
Sprite,Foreground,Centre,"StoryBoard\suri.png",320,240 F,0,115860,116360,0,0.6 M,0,115860,116859,320,240,355,409 S,0,115860,116859,0.265 F,0,116360,116859,0.6,0
Sprite,Foreground,Centre,"StoryBoard\suri.png",320,240 F,0,115860,116360,0,0.6 M,0,115860,116859,320,240,241,391 S,0,115860,116859,0.349 F,0,116360,116859,0.6,0
Sprite,Foreground,Centre,"StoryBoard\suri.png",320,240 F,0,115860,116360,0,0.4 M,0,115860,116859,320,240,201,88 S,0,115860,116859,0.303 F,0,116360,116859,0.4,0
Sprite,Foreground,Centre,"StoryBoard\suri.png",320,240 F,0,116193,116693,0,0.4 M,0,116193,117192,320,240,487,284 S,0,116193,117192,0.187 F,0,116693,117192,0.4,0
Sprite,Foreground,Centre,"StoryBoard\suri.png",320,240 F,0,116193,116693,0,0.7 M,0,116193,117192,320,240,53,119 S,0,116193,117192,0.314 F,0,116693,117192,0.7,0
Sprite,Foreground,Centre,"StoryBoard\suri.png",320,240 F,0,116193,116693,0,0.7 M,0,116193,117192,320,240,304,329 S,0,116193,117192,0.249 F,0,116693,117192,0.7,0
Sprite,Foreground,Centre,"StoryBoard\suri.png",320,240 F,0,116193,116693,0,0.8 M,0,116193,117192,320,240,112,60 S,0,116193,117192,0.336 F,0,116693,117192,0.8,0
Sprite,Foreground,Centre,"StoryBoard\fai.png",548,295 F,0,50528,51028,0,0.6 M,0,50528,51527,548,295,659,295 S,0,50528,51527,0.315 F,0,51028,51527,0.6,0
Sprite,Foreground,Centre,"StoryBoard\fai.png",503,298 F,0,50528,51028,0,0.3 M,0,50528,51527,503,298,400,298 S,0,50528,51527,0.304 F,0,51028,51527,0.3,0
Sprite,Foreground,Centre,"StoryBoard\fai.png",94,372 F,0,50528,51028,0,0.8 M,0,50528,51527,94,372,196,372 S,0,50528,51527,0.382 F,0,51028,51527,0.8,0
Sprite,Foreground,Centre,"StoryBoard\fai.png",234,370 F,0,50528,51028,0,0.8 M,0,50528,51527,234,370,355,370 S,0,50528,51527,0.424 F,0,51028,51527,0.8,0
Sprite,Foreground,Centre,"StoryBoard\fai.png",391,87 F,0,50861,51361,0,0.5 M,0,50861,51860,391,87,506,87 S,0,50861,51860,0.204 F,0,51361,51860,0.5,0
Sprite,Foreground,Centre,"StoryBoard\fai.png",318,255 F,0,50861,51361,0,0.5 M,0,50861,51860,318,255,508,255 S,0,50861,51860,0.277 F,0,51361,51860,0.5,0
Sprite,Foreground,Centre,"StoryBoard\fai.png",239,302 F,0,50861,51361,0,0.7 M,0,50861,51860,239,302,394,302 S,0,50861,51860,0.16 F,0,51361,51860,0.7,0
Sprite,Foreground,Centre,"StoryBoard\fai.png",284,264 F,0,50861,51361,0,0.7 M,0,50861,51860,284,264,149,264 S,0,50861,51860,0.444 F,0,51361,51860,0.7,0
Sprite,Foreground,Centre,"StoryBoard\fai.png",83,378 F,0,51194,51694,0,0.5 M,0,51194,52193,83,378,259,378 S,0,51194,52193,0.416 F,0,51694,52193,0.5,0
Sprite,Foreground,Centre,"StoryBoard\fai.png",154,130 F,0,51194,51694,0,0.3 M,0,51194,52193,154,130,11,130 S,0,51194,52193,0.432 F,0,51694,52193,0.3,0
Sprite,Foreground,Centre,"StoryBoard\fai.png",323,355 F,0,51194,51694,0,0.3 M,0,51194,52193,323,355,505,355 S,0,51194,52193,0.106 F,0,51694,52193,0.3,0
Sprite,Foreground,Centre,"StoryBoard\fai.png",460,149 F,0,51194,51694,0,0.8 M,0,51194,52193,460,149,338,149 S,0,51194,52193,0.206 F,0,51694,52193,0.8,0
Sprite,Foreground,Centre,"StoryBoard\fai.png",502,162 F,0,51527,52027,0,0.5 M,0,51527,52526,502,162,637,162 S,0,51527,52526,0.288 F,0,52027,52526,0.5,0
Sprite,Foreground,Centre,"StoryBoard\fai.png",130,157 F,0,51527,52027,0,0.5 M,0,51527,52526,130,157,271,157 S,0,51527,52526,0.241 F,0,52027,52526,0.5,0
Sprite,Foreground,Centre,"StoryBoard\fai.png",442,96 F,0,51527,52027,0,0.4 M,0,51527,52526,442,96,594,96 S,0,51527,52526,0.216 F,0,52027,52526,0.4,0
Sprite,Foreground,Centre,"StoryBoard\fai.png",460,80 F,0,51527,52027,0,0.8 M,0,51527,52526,460,80,323,80 S,0,51527,52526,0.26 F,0,52027,52526,0.8,0
Sprite,Foreground,Centre,"StoryBoard\fai.png",330,331 F,0,51860,52360,0,0.6 M,0,51860,52859,330,331,199,331 S,0,51860,52859,0.159 F,0,52360,52859,0.6,0
Sprite,Foreground,Centre,"StoryBoard\fai.png",433,192 F,0,51860,52360,0,0.4 M,0,51860,52859,433,192,596,192 S,0,51860,52859,0.149 F,0,52360,52859,0.4,0
Sprite,Foreground,Centre,"StoryBoard\fai.png",286,107 F,0,51860,52360,0,0.8 M,0,51860,52859,286,107,474,107 S,0,51860,52859,0.331 F,0,52360,52859,0.8,0
Sprite,Foreground,Centre,"StoryBoard\fai.png",256,286 F,0,51860,52360,0,0.7 M,0,51860,52859,256,286,70,286 S,0,51860,52859,0.425 F,0,52360,52859,0.7,0
Sprite,Foreground,Centre,"StoryBoard\fai.png",194,372 F,0,52193,52693,0,0.4 M,0,52193,53192,194,372,60,372 S,0,52193,53192,0.379 F,0,52693,53192,0.4,0
Sprite,Foreground,Centre,"StoryBoard\fai.png",535,117 F,0,52193,52693,0,0.4 M,0,52193,53192,535,117,353,117 S,0,52193,53192,0.111 F,0,52693,53192,0.4,0
Sprite,Foreground,Centre,"StoryBoard\fai.png",340,284 F,0,52193,52693,0,0.4 M,0,52193,53192,340,284,530,284 S,0,52193,53192,0.221 F,0,52693,53192,0.4,0
Sprite,Foreground,Centre,"StoryBoard\fai.png",437,314 F,0,52193,52693,0,0.5 M,0,52193,53192,437,314,283,314 S,0,52193,53192,0.283 F,0,52693,53192,0.5,0
Sprite,Foreground,Centre,"StoryBoard\suri.png",445,378 F,0,37194,37694,0,0.3 M,0,37194,38193,445,378,620,378 S,0,37194,38193,0.401 F,0,37694,38193,0.3,0
Sprite,Foreground,Centre,"StoryBoard\suri.png",256,343 F,0,37194,37694,0,0.7 M,0,37194,38193,256,343,440,343 S,0,37194,38193,0.189 F,0,37694,38193,0.7,0
Sprite,Foreground,Centre,"StoryBoard\suri.png",280,165 F,0,37194,37694,0,0.6 M,0,37194,38193,280,165,86,165 S,0,37194,38193,0.12 F,0,37694,38193,0.6,0
Sprite,Foreground,Centre,"StoryBoard\suri.png",524,342 F,0,37194,37694,0,0.5 M,0,37194,38193,524,342,401,342 S,0,37194,38193,0.143 F,0,37694,38193,0.5,0
Sprite,Foreground,Centre,"StoryBoard\suri.png",494,281 F,0,37527,38027,0,0.7 M,0,37527,38526,494,281,636,281 S,0,37527,38526,0.324 F,0,38027,38526,0.7,0
Sprite,Foreground,Centre,"StoryBoard\suri.png",311,270 F,0,37527,38027,0,0.5 M,0,37527,38526,311,270,456,270 S,0,37527,38526,0.436 F,0,38027,38526,0.5,0
Sprite,Foreground,Centre,"StoryBoard\suri.png",127,143 F,0,37527,38027,0,0.5 M,0,37527,38526,127,143,-44,143 S,0,37527,38526,0.28 F,0,38027,38526,0.5,0
Sprite,Foreground,Centre,"StoryBoard\suri.png",132,334 F,0,37527,38027,0,0.6 M,0,37527,38526,132,334,234,334 S,0,37527,38526,0.32 F,0,38027,38526,0.6,0
Sprite,Foreground,Centre,"StoryBoard\suri.png",165,308 F,0,37860,38360,0,0.6 M,0,37860,38859,165,308,326,308 S,0,37860,38859,0.373 F,0,38360,38859,0.6,0
Sprite,Foreground,Centre,"StoryBoard\suri.png",347,326 F,0,37860,38360,0,0.8 M,0,37860,38859,347,326,520,326 S,0,37860,38859,0.328 F,0,38360,38859,0.8,0
Sprite,Foreground,Centre,"StoryBoard\suri.png",460,352 F,0,37860,38360,0,0.3 M,0,37860,38859,460,352,623,352 S,0,37860,38859,0.255 F,0,38360,38859,0.3,0
Sprite,Foreground,Centre,"StoryBoard\suri.png",74,196 F,0,37860,38360,0,0.8 M,0,37860,38859,74,196,215,196 S,0,37860,38859,0.26 F,0,38360,38859,0.8,0
Sprite,Foreground,Centre,"StoryBoard\suri.png",290,298 F,0,38193,38693,0,0.7 M,0,38193,39192,290,298,437,298 S,0,38193,39192,0.141 F,0,38693,39192,0.7,0
Sprite,Foreground,Centre,"StoryBoard\suri.png",310,218 F,0,38193,38693,0,0.5 M,0,38193,39192,310,218,131,218 S,0,38193,39192,0.192 F,0,38693,39192,0.5,0
Sprite,Foreground,Centre,"StoryBoard\suri.png",524,284 F,0,38193,38693,0,0.5 M,0,38193,39192,524,284,352,284 S,0,38193,39192,0.162 F,0,38693,39192,0.5,0
Sprite,Foreground,Centre,"StoryBoard\suri.png",161,329 F,0,38193,38693,0,0.4 M,0,38193,39192,161,329,26,329 S,0,38193,39192,0.217 F,0,38693,39192,0.4,0
Sprite,Foreground,Centre,"StoryBoard\suri.png",199,217 F,0,38526,39026,0,0.5 M,0,38526,39525,199,217,63,217 S,0,38526,39525,0.197 F,0,39026,39525,0.5,0
Sprite,Foreground,Centre,"StoryBoard\suri.png",218,168 F,0,38526,39026,0,0.8 M,0,38526,39525,218,168,355,168 S,0,38526,39525,0.388 F,0,39026,39525,0.8,0
Sprite,Foreground,Centre,"StoryBoard\suri.png",67,133 F,0,38526,39026,0,0.5 M,0,38526,39525,67,133,-53,133 S,0,38526,39525,0.38 F,0,39026,39525,0.5,0
Sprite,Foreground,Centre,"StoryBoard\suri.png",360,304 F,0,38526,39026,0,0.6 M,0,38526,39525,360,304,487,304 S,0,38526,39525,0.408 F,0,39026,39525,0.6,0
Sprite,Foreground,Centre,"StoryBoard\suri.png",529,300 F,0,38859,39359,0,0.8 M,0,38859,39858,529,300,711,300 S,0,38859,39858,0.138 F,0,39359,39858,0.8,0
Sprite,Foreground,Centre,"StoryBoard\suri.png",77,154 F,0,38859,39359,0,0.8 M,0,38859,39858,77,154,-43,154 S,0,38859,39858,0.214 F,0,39359,39858,0.8,0
Sprite,Foreground,Centre,"StoryBoard\suri.png",554,273 F,0,38859,39359,0,0.5 M,0,38859,39858,554,273,749,273 S,0,38859,39858,0.153 F,0,39359,39858,0.5,0
Sprite,Foreground,Centre,"StoryBoard\suri.png",477,306 F,0,38859,39359,0,0.6 M,0,38859,39858,477,306,598,306 S,0,38859,39858,0.286 F,0,39359,39858,0.6,0
Sprite,Foreground,Centre,"StoryBoard\Dot.png",320,240 M,1,13194,13860,320,240,236,459 F,2,13194,13860,0.8,0 S,0,13194,13860,0.096,0.224 C,0,13194,13860,214,255,200
Sprite,Foreground,Centre,"StoryBoard\Dot.png",320,240 M,1,13194,13860,320,240,502,193 F,2,13194,13860,0.8,0 S,0,13194,13860,0.082,0.222 C,0,13194,13860,200,255,228
Sprite,Foreground,Centre,"StoryBoard\Dot.png",320,240 M,1,13194,13860,320,240,304,237 F,2,13194,13860,0.8,0 S,0,13194,13860,0.081,0.227 C,0,13194,13860,255,200,235
Sprite,Foreground,Centre,"StoryBoard\Dot.png",320,240 M,1,13194,13860,320,240,408,370 F,2,13194,13860,0.8,0 S,0,13194,13860,0.058,0.199 C,0,13194,13860,200,232,255
Sprite,Foreground,Centre,"StoryBoard\Dot.png",320,240 M,1,13194,13860,320,240,452,74 F,2,13194,13860,0.8,0 S,0,13194,13860,0.056,0.238 C,0,13194,13860,255,200,235
Sprite,Foreground,Centre,"StoryBoard\Dot.png",320,240 M,1,13194,13860,320,240,205,281 F,2,13194,13860,0.8,0 S,0,13194,13860,0.098,0.228 C,0,13194,13860,255,216,200
Sprite,Foreground,Centre,"StoryBoard\Dot.png",320,240 M,1,13194,13860,320,240,278,282 F,2,13194,13860,0.8,0 S,0,13194,13860,0.079,0.232 C,0,13194,13860,255,236,200
Sprite,Foreground,Centre,"StoryBoard\Dot.png",320,240 M,1,13194,13860,320,240,260,118 F,2,13194,13860,0.8,0 S,0,13194,13860,0.093,0.267 C,0,13194,13860,255,200,235
Sprite,Foreground,Centre,"StoryBoard\Dot.png",320,240 M,1,13194,13860,320,240,135,259 F,2,13194,13860,0.8,0 S,0,13194,13860,0.053,0.181 C,0,13194,13860,214,255,200
Sprite,Foreground,Centre,"StoryBoard\Dot.png",320,240 M,1,13194,13860,320,240,461,249 F,2,13194,13860,0.8,0 S,0,13194,13860,0.061,0.165 C,0,13194,13860,255,216,200
Sprite,Foreground,Centre,"StoryBoard\Dot.png",320,240 M,1,13194,13860,320,240,517,46 F,2,13194,13860,0.8,0 S,0,13194,13860,0.054,0.234 C,0,13194,13860,239,200,255
Sprite,Foreground,Centre,"StoryBoard\Dot.png",320,240 M,1,13194,13860,320,240,411,400 F,2,13194,13860,0.8,0 S,0,13194,13860,0.094,0.205 C,0,13194,13860,255,200,235
Sprite,Foreground,Centre,"StoryBoard\Dot.png",320,240 M,1,13194,13860,320,240,358,253 F,2,13194,13860,0.8,0 S,0,13194,13860,0.063,0.201 C,0,13194,13860,255,200,235
Sprite,Foreground,Centre,"StoryBoard\Dot.png",320,240 M,1,13194,13860,320,240,203,453 F,2,13194,13860,0.8,0 S,0,13194,13860,0.061,0.206 C,0,13194,13860,200,232,255
Sprite,Foreground,Centre,"StoryBoard\Dot.png",320,240 M,1,13194,13860,320,240,138,182 F,2,13194,13860,0.8,0 S,0,13194,13860,0.066,0.22 C,0,13194,13860,203,200,255
Sprite,Foreground,Centre,"StoryBoard\Dot.png",320,240 M,1,13194,13860,320,240,289,301 F,2,13194,13860,0.8,0 S,0,13194,13860,0.056,0.181 C,0,13194,13860,203,200,255
Sprite,Foreground,Centre,"StoryBoard\Dot.png",320,240 M,1,13194,13860,320,240,373,419 F,2,13194,13860,0.8,0 S,0,13194,13860,0.096,0.239 C,0,13194,13860,239,200,255
Sprite,Foreground,Centre,"StoryBoard\Dot.png",320,240 M,1,13194,13860,320,240,253,327 F,2,13194,13860,0.8,0 S,0,13194,13860,0.09,0.192 C,0,13194,13860,255,216,200
Sprite,Foreground,Centre,"StoryBoard\Dot.png",320,240 M,1,13194,13860,320,240,133,290 F,2,13194,13860,0.8,0 S,0,13194,13860,0.072,0.182 C,0,13194,13860,255,200,235
Sprite,Foreground,Centre,"StoryBoard\Dot.png",320,240 M,1,13194,13860,320,240,135,303 F,2,13194,13860,0.8,0 S,0,13194,13860,0.053,0.168 C,0,13194,13860,203,200,255
Sprite,Foreground,Centre,"StoryBoard\Dot.png",320,240 M,1,13194,13860,320,240,294,417 F,2,13194,13860,0.8,0 S,0,13194,13860,0.097,0.218 C,0,13194,13860,200,232,255
Sprite,Foreground,Centre,"StoryBoard\Dot.png",320,240 M,1,13194,13860,320,240,104,61 F,2,13194,13860,0.8,0 S,0,13194,13860,0.072,0.221 C,0,13194,13860,255,200,215
Sprite,Foreground,Centre,"StoryBoard\Dot.png",320,240 M,1,13194,13860,320,240,289,186 F,2,13194,13860,0.8,0 S,0,13194,13860,0.082,0.213 C,0,13194,13860,240,255,200
Sprite,Foreground,Centre,"StoryBoard\Dot.png",320,240 M,1,13194,13860,320,240,465,418 F,2,13194,13860,0.8,0 S,0,13194,13860,0.095,0.25 C,0,13194,13860,200,255,228
Sprite,Foreground,Centre,"StoryBoard\Dot.png",320,240 M,1,13194,13860,320,240,251,164 F,2,13194,13860,0.8,0 S,0,13194,13860,0.087,0.197 C,0,13194,13860,203,200,255
Sprite,Foreground,Centre,"StoryBoard\Dot.png",320,240 M,1,13194,13860,320,240,396,383 F,2,13194,13860,0.8,0 S,0,13194,13860,0.056,0.228 C,0,13194,13860,240,255,200
Sprite,Foreground,Centre,"StoryBoard\Dot.png",320,240 M,1,13194,13860,320,240,342,46 F,2,13194,13860,0.8,0 S,0,13194,13860,0.066,0.199 C,0,13194,13860,200,232,255
Sprite,Foreground,Centre,"StoryBoard\Dot.png",320,240 M,1,13194,13860,320,240,421,320 F,2,13194,13860,0.8,0 S,0,13194,13860,0.072,0.205 C,0,13194,13860,200,232,255
Sprite,Foreground,Centre,"StoryBoard\Dot.png",320,240 M,1,13194,13860,320,240,138,452 F,2,13194,13860,0.8,0 S,0,13194,13860,0.054,0.159 C,0,13194,13860,240,255,200
Sprite,Foreground,Centre,"StoryBoard\Dot.png",320,240 M,1,13194,13860,320,240,372,338 F,2,13194,13860,0.8,0 S,0,13194,13860,0.057,0.241 C,0,13194,13860,240,255,200
Sprite,Foreground,Centre,"StoryBoard\Dot.png",320,240 M,1,13194,13860,320,240,326,388 F,2,13194,13860,0.8,0 S,0,13194,13860,0.052,0.243 C,0,13194,13860,255,236,200
Sprite,Foreground,Centre,"StoryBoard\Dot.png",320,240 M,1,13194,13860,320,240,238,153 F,2,13194,13860,0.8,0 S,0,13194,13860,0.052,0.173 C,0,13194,13860,255,200,215
Sprite,Foreground,Centre,"StoryBoard\Dot.png",320,240 M,1,13194,13860,320,240,273,321 F,2,13194,13860,0.8,0 S,0,13194,13860,0.091,0.233 C,0,13194,13860,255,200,215
Sprite,Foreground,Centre,"StoryBoard\Dot.png",320,240 M,1,13194,13860,320,240,500,254 F,2,13194,13860,0.8,0 S,0,13194,13860,0.096,0.218 C,0,13194,13860,240,255,200
Sprite,Foreground,Centre,"StoryBoard\Dot.png",320,240 M,1,13194,13860,320,240,538,405 F,2,13194,13860,0.8,0 S,0,13194,13860,0.085,0.188 C,0,13194,13860,239,200,255
Sprite,Foreground,Centre,"StoryBoard\Dot.png",320,240 M,1,13194,13860,320,240,519,62 F,2,13194,13860,0.8,0 S,0,13194,13860,0.054,0.175 C,0,13194,13860,214,255,200
Sprite,Foreground,Centre,"StoryBoard\Dot.png",320,240 M,1,13194,13860,320,240,468,399 F,2,13194,13860,0.8,0 S,0,13194,13860,0.055,0.169 C,0,13194,13860,240,255,200
Sprite,Foreground,Centre,"StoryBoard\Dot.png",320,240 M,1,13194,13860,320,240,430,90 F,2,13194,13860,0.8,0 S,0,13194,13860,0.077,0.265 C,0,13194,13860,255,200,235
Sprite,Foreground,Centre,"StoryBoard\Dot.png",320,240 M,1,13194,13860,320,240,507,22 F,2,13194,13860,0.8,0 S,0,13194,13860,0.087,0.195 C,0,13194,13860,214,255,200
Sprite,Foreground,Centre,"StoryBoard\Dot.png",320,240 M,1,13194,13860,320,240,484,201 F,2,13194,13860,0.8,0 S,0,13194,13860,0.075,0.187 C,0,13194,13860,200,255,228
Sprite,Foreground,Centre,"StoryBoard\Dot.png",320,240 M,1,13194,13860,320,240,488,49 F,2,13194,13860,0.8,0 S,0,13194,13860,0.082,0.23 C,0,13194,13860,255,200,235
Sprite,Foreground,Centre,"StoryBoard\Dot.png",320,240 M,1,13194,13860,320,240,279,349 F,2,13194,13860,0.8,0 S,0,13194,13860,0.084,0.187 C,0,13194,13860,255,200,235
Sprite,Foreground,Centre,"StoryBoard\Dot.png",320,240 M,1,13194,13860,320,240,484,223 F,2,13194,13860,0.8,0 S,0,13194,13860,0.057,0.21 C,0,13194,13860,255,200,235
Sprite,Foreground,Centre,"StoryBoard\Dot.png",320,240 M,1,13194,13860,320,240,218,155 F,2,13194,13860,0.8,0 S,0,13194,13860,0.056,0.221 C,0,13194,13860,200,232,255
Sprite,Foreground,Centre,"StoryBoard\Dot.png",320,240 M,1,13194,13860,320,240,268,184 F,2,13194,13860,0.8,0 S,0,13194,13860,0.06,0.211 C,0,13194,13860,240,255,200
Sprite,Foreground,Centre,"StoryBoard\Dot.png",320,240 M,1,13194,13860,320,240,249,164 F,2,13194,13860,0.8,0 S,0,13194,13860,0.088,0.237 C,0,13194,13860,240,255,200
Sprite,Foreground,Centre,"StoryBoard\Dot.png",320,240 M,1,13194,13860,320,240,408,403 F,2,13194,13860,0.8,0 S,0,13194,13860,0.08,0.182 C,0,13194,13860,255,200,215
Sprite,Foreground,Centre,"StoryBoard\Dot.png",320,240 M,1,13194,13860,320,240,261,413 F,2,13194,13860,0.8,0 S,0,13194,13860,0.055,0.186 C,0,13194,13860,239,200,255
Sprite,Foreground,Centre,"StoryBoard\Dot.png",320,240 M,1,13194,13860,320,240,219,460 F,2,13194,13860,0.8,0 S,0,13194,13860,0.087,0.269 C,0,13194,13860,214,255,200
Sprite,Foreground,Centre,"StoryBoard\Dot.png",320,240 M,1,13194,13860,320,240,404,186 F,2,13194,13860,0.8,0 S,0,13194,13860,0.056,0.197 C,0,13194,13860,203,200,255
Sprite,Foreground,Centre,"StoryBoard\Ball.png",532,115 S,0,1195,,0.45 F,0,1195,2528,0.2 C,0,1195,3194,250,175,180 F,0,2528,3194,0.2,0 S,0,2528,3194,0.45,0.1 R,0,2528,3194,0,3
Sprite,Foreground,Centre,"StoryBoard\Ball.png",527,110 S,0,1195,,0.45 F,0,1195,2528,1 C,0,1195,3194,253,186,186 F,0,2528,3194,1,0 S,0,2528,3194,0.45,0.1 R,0,2528,3194,0,3
Sprite,Foreground,Centre,"StoryBoard\Ball.png",127,360 S,0,1528,,0.52 R,0,1528,,1.984 F,0,1528,2528,0.2 C,0,1528,3194,250,175,180 F,0,2528,3194,0.2,0 S,0,2528,3194,0.52,0.1 R,0,2528,3194,1.984,4.984
Sprite,Foreground,Centre,"StoryBoard\Ball.png",122,355 S,0,1528,,0.52 R,0,1528,,1.984 F,0,1528,2528,1 C,0,1528,3194,195,186,253 F,0,2528,3194,1,0 S,0,2528,3194,0.52,0.1 R,0,2528,3194,1.984,4.984
Sprite,Foreground,Centre,"StoryBoard\Ball.png",497,361 S,0,1861,,0.6 R,0,1861,,2.576 F,0,1861,2528,0.2 C,0,1861,3194,250,175,180 F,0,2528,3194,0.2,0 S,0,2528,3194,0.6,0.1 R,0,2528,3194,2.576,-0.424
Sprite,Foreground,Centre,"StoryBoard\Ball.png",492,356 S,0,1861,,0.6 R,0,1861,,2.576 F,0,1861,2528,1 C,0,1861,3194,186,253,195 F,0,2528,3194,1,0 S,0,2528,3194,0.6,0.1 R,0,2528,3194,2.576,-0.424
Sprite,Foreground,Centre,"StoryBoard\Ball.png",180,159 S,0,2028,,0.42 R,0,2028,,0.112 F,0,2028,2528,0.2 C,0,2028,3194,250,175,180 F,0,2528,3194,0.2,0 S,0,2528,3194,0.42,0.1 R,0,2528,3194,0.112,3.112
Sprite,Foreground,Centre,"StoryBoard\Ball.png",175,154 S,0,2028,,0.42 R,0,2028,,0.112 F,0,2028,2528,1 C,0,2028,3194,243,253,186 F,0,2528,3194,1,0 S,0,2528,3194,0.42,0.1 R,0,2528,3194,0.112,3.112
Sprite,Foreground,Centre,"StoryBoard\Ball.png",325,245 S,0,2194,,0.43 R,0,2194,,2.464 F,0,2194,2528,0.2 C,0,2194,3194,250,175,180 F,0,2528,3194,0.2,0 S,0,2528,3194,0.43,0.1 R,0,2528,3194,2.464,-0.536
Sprite,Foreground,Centre,"StoryBoard\Ball.png",320,240 S,0,2194,,0.43 R,0,2194,,2.464 F,0,2194,2528,1 C,0,2194,3194,253,186,246 F,0,2528,3194,1,0 S,0,2528,3194,0.43,0.1 R,0,2528,3194,2.464,-0.536
Sprite,Foreground,Centre,"StoryBoard\Ball-White.png",442,226 F,0,5194,5528,0,0.3 S,1,5194,5528,0.6,0.25 R,1,5194,5528,0,1 M,0,5194,13194,442,226,431,220 C,0,5194,13528,171,59,97 S,0,5528,13194,0.25,0.2 R,0,5528,13194,1,4 M,1,13194,13528,431,220,480,220 F,0,13194,13528,0.3,0 S,1,13194,13528,0.2,0.5 R,1,13194,13528,4,5
Sprite,Foreground,Centre,"StoryBoard\Ball.png",442,226 F,0,5194,5528,0,1 S,1,5194,5528,0.6,0.25 R,1,5194,5528,0,1 M,0,5194,13194,442,226,431,220 S,0,5528,13194,0.25,0.2 R,0,5528,13194,1,4 M,1,13194,13528,431,220,480,220 F,0,13194,13528,1,0 S,1,13194,13528,0.2,0.5 R,1,13194,13528,4,5
Sprite,Foreground,Centre,"StoryBoard\Title.png",320,240 M,0,2528,,320,240 F,0,2528,2861,0,1 S,1,2528,2861,0.7,0.55 S,0,2861,13194,0.55,0.45 F,1,13194,13528,1,0 S,1,13194,13528,0.45,0.7
Sprite,Foreground,Centre,"StoryBoard\Title-Sub.png",350,180 F,0,3694,4028,0,1 S,1,3694,4028,0.7,0.5 S,0,4028,13194,0.5,0.43 F,1,13194,13528,1,0 S,1,13194,13528,0.45,0.7
Sprite,Foreground,Centre,"StoryBoard\Star.png",108,138 L,10528,1 F,1,0,333,0,1 S,1,0,333,0.05,0.4 C,0,0,666,252,185,188 F,2,333,666,1,0 S,0,333,666,0.4,0.2
Sprite,Foreground,Centre,"StoryBoard\Star.png",558,318 L,11194,1 F,1,0,333,0,1 S,1,0,333,0.05,0.4 R,0,0,666,1.56 C,0,0,666,209,185,252 F,2,333,666,1,0 S,0,333,666,0.4,0.2
Sprite,Foreground,Centre,"StoryBoard\Star.png",227,56 L,11861,1 F,1,0,100,0,1 S,1,0,100,0.2,0.4 R,0,0,333,1.84 C,0,0,333,185,252,216 F,2,100,333,1,0 S,0,100,333,0.4,0.2
Sprite,Foreground,Centre,"StoryBoard\Star.png",335,338 L,12194,1 F,1,0,100,0,1 S,1,0,100,0.2,0.4 R,0,0,333,2.12 C,0,0,333,185,224,252 F,2,100,333,1,0 S,0,100,333,0.4,0.2
Sprite,Foreground,Centre,"StoryBoard\Star.png",151,312 L,12528,1 F,1,0,100,0,1 S,1,0,100,0.2,0.4 R,0,0,333,2.37 C,0,0,333,252,209,185 F,2,100,333,1,0 S,0,100,333,0.4,0.2
Sprite,Foreground,Centre,"StoryBoard\Star-L.png",320,240 F,0,63861,64528,0,0.5 S,0,63861,64528,0.1,0.625 C,0,63861,69527,251,164,185,251,164,248 R,0,63861,75194,0,7 F,0,64528,74528,0.5 C,0,69527,75194,251,164,248,173,164,251 F,0,74528,75194,0.5,0 S,0,74528,75194,0.625,0.1
Sprite,Foreground,Centre,"StoryBoard\Star-L.png",320,240 F,0,63861,64528,0,0.5 S,0,63861,64528,0.1,0.625 C,0,63861,69527,173,164,251,251,164,248 R,0,63861,75194,-1.26,-8.26 F,0,64528,74528,0.5 C,0,69527,75194,251,164,248,251,164,185 F,0,74528,75194,0.5,0 S,0,74528,75194,0.625,0.1
Sprite,Foreground,Centre,"StoryBoard\Black.png",320,375 L,15861,46 S,0,0,667,0.35,0.4 S,0,667,1334,0.4,0.35 F,0,14528,15194,0,0.5 S,0,14528,15194,0.45,0.35 F,0,15194,15861,0.5 F,0,33861,34528,0.5,0 F,0,34528,36861,0 F,0,36861,37528,0,0.5 F,0,75861,76528,0.5,0
Sprite,Foreground,BottomCentre,"StoryBoard\Cha-1.png",320,380 L,15861,23 S,0,0,667,0.6,0.625 R,0,0,667,0,-0.1 S,0,667,1334,0.625,0.6 R,0,667,1334,-0.1,0 S,0,1334,2001,0.6,0.625 R,0,1334,2001,0,0.1 S,0,2001,2668,0.625,0.6 R,0,2001,2668,0.1,0 R,0,14528,,0 F,0,14528,15194,0,1 S,0,14528,15194,0.75,0.6 F,0,15194,33861,1 F,0,33861,34528,1,0 F,0,34528,36861,0 F,0,36861,37528,0,1 F,0,75861,76528,1,0
Sprite,Foreground,Centre,"StoryBoard\hi.png",140,110 S,0,15194,18528,0.3 F,0,18528,19194,0.8,0 S,0,18528,19194,0.3,0.05 R,0,18528,19194,0,6
Sprite,Foreground,Centre,"StoryBoard\na.png",140,160 S,0,15528,18528,0.3 F,0,18528,19194,0.8,0 S,0,18528,19194,0.3,0.05 R,0,18528,19194,0,6
Sprite,Foreground,Centre,"StoryBoard\ta.png",140,210 S,0,15861,18528,0.3 F,0,18528,19194,0.8,0 S,0,18528,19194,0.3,0.05 R,0,18528,19194,0,6
Sprite,Foreground,Centre,"StoryBoard\de.png",140,260 S,0,16194,18528,0.3 F,0,18528,19194,0.8,0 S,0,18528,19194,0.3,0.05 R,0,18528,19194,0,6
Sprite,Foreground,Centre,"StoryBoard\su.png",140,310 S,0,16528,18528,0.3 F,0,18528,19194,0.8,0 S,0,18528,19194,0.3,0.05 R,0,18528,19194,0,6
Sprite,Foreground,Centre,"StoryBoard\Heart.png",140,370 S,0,16861,18528,0.3 F,0,18528,19194,0.8,0 S,0,18528,19194,0.3,0.5
Sprite,Foreground,Centre,"StoryBoard\Line.png",450,190 L,23861,8 S,0,0,667,0.35,0.4 S,0,667,1334,0.4,0.35 S,0,23861,,0.35 F,0,23861,24194,0,1 F,0,33861,34528,1,0
Sprite,Foreground,Centre,"StoryBoard\Music.png",510,170 L,24528,8 R,0,0,333,0,0.3 R,0,333,666,0.3,0 R,0,666,999,0,-0.3 R,0,999,1332,-0.3,0 S,0,24528,,0.3 F,0,24528,24861,0,1 F,0,33861,34528,1,0
Sprite,Foreground,Centre,"StoryBoard\happy.png",227,106 S,0,41861,,0.43 R,0,41861,,-0.32 F,0,42528,42861,1,0 S,0,42528,42861,0.43,0.6
Sprite,Foreground,Centre,"StoryBoard\happy.png",434,169 S,0,42194,,0.38 R,0,42194,,0.272 F,0,42861,43194,1,0 S,0,42861,43194,0.38,0.6
Sprite,Foreground,Centre,"StoryBoard\deru.png",221,264 S,0,44528,,0.57 R,0,44528,,0.32 F,0,44528,45194,1 F,0,45194,45528,1,0 S,0,45194,45528,0.57,0.65
Sprite,Foreground,Centre,"StoryBoard\deru.png",390,314 M,0,44861,,390,314 S,0,44861,,0.68 R,0,44861,,-0.16 F,0,44861,45528,1 F,0,45528,45861,1,0 S,0,45528,45861,0.68,0.75
Sprite,Foreground,Centre,"StoryBoard\naru.png",197,249 S,0,55194,,0.46 F,0,55194,55861,1 F,0,55861,56194,1,0 S,0,55861,56194,0.46,0.6
Sprite,Foreground,Centre,"StoryBoard\naru.png",448,185 S,0,55528,,0.63 F,0,55528,56194,1 F,0,56194,56528,1,0 S,0,56194,56528,0.63,0.7
Sprite,Foreground,Centre,"StoryBoard\suru.png",233,289 S,0,57861,,0.66 F,0,57861,58528,1 F,0,58528,58861,1,0 S,0,58528,58861,0.66,0.7
Sprite,Foreground,Centre,"StoryBoard\suru.png",437,227 S,0,58194,,0.59 F,0,58194,58861,1 F,0,58861,59194,1,0 S,0,58861,59194,0.59,0.65
Sprite,Foreground,BottomCentre,"StoryBoard\Cha-2.png",320,370 F,0,76528,77194,0,1 S,0,76528,77194,0.5,0.55 S,0,77194,77528,0.55,0.6 S,0,77528,77861,0.6,0.55 S,0,77861,78194,0.55,0.6 P,0,77861,78528,H S,0,78194,78528,0.6,0.55 S,0,78528,78861,0.55,0.6 S,0,78861,79194,0.6,0.55 S,0,79194,79528,0.55,0.65 P,0,79194,79861,H F,2,79528,79861,1,0 S,0,79528,79861,0.65,0.55
Sprite,Foreground,Centre,"StoryBoard\O.png",320,240 S,0,77194,,0.37 M,1,77194,77861,492,185,526,174 F,0,77194,77861,1,0
Sprite,Foreground,Centre,"StoryBoard\O.png",320,240 S,0,77861,,0.35 M,1,77861,78528,151,198,88,172 F,0,77861,78528,1,0
Sprite,Foreground,Centre,"StoryBoard\O.png",320,240 S,0,78528,,0.26 M,1,78528,79194,436,175,482,139 F,0,78528,79194,1,0
Sprite,Foreground,Centre,"StoryBoard\O.png",320,240 M,1,79194,79861,236,179,150,120 F,0,79194,79861,1,0 S,0,79194,79861,0.4,0.55
Sprite,Foreground,Centre,"StoryBoard\Shadow.png",320,240 L,79861,56 S,0,0,666,0.5,0.6 S,0,666,1332,0.6,0.5 F,0,79861,80528,0,0.7 F,0,80528,111194,0.7 F,0,111194,111861,0.7,0 F,0,111861,114528,0 F,0,114528,115194,0,0.7 F,0,115194,153194,0.7 F,0,153194,153861,0.7,0
Sprite,Foreground,Centre,"StoryBoard\Cha-3.png",320,240 L,79861,56 S,0,0,666,0.5,0.52 S,0,666,1332,0.52,0.5 M,0,79861,,320,240 F,2,79861,80528,0,1 F,0,80528,111194,1 F,0,111194,111861,1,0 F,0,111861,114528,0 F,0,114528,115194,0,1 F,0,115194,153194,1 F,0,153194,153861,1,0
Sprite,Foreground,BottomRight,"StoryBoard\Zzz.png",220,195 L,79861,56 S,0,0,666,0.2,0.3 S,0,666,1332,0.3,0.2 F,0,79861,80528,0,0.7 F,0,80528,111194,0.7 F,0,111194,111861,0.7,0 F,0,111861,114528,0 F,0,114528,115194,0,0.7 F,0,115194,153194,0.7 F,0,153194,153861,0.7,0
Sprite,Foreground,Centre,"StoryBoard\mori.png",473,198 S,0,119194,,0.672 R,0,119194,,0.48 F,0,119194,119861,1 F,0,119861,120194,1,0 S,0,119861,120194,0.672,0.75
Sprite,Foreground,Centre,"StoryBoard\mori.png",197,290 S,0,119528,,0.5 R,0,119528,,-0.304 F,0,119528,120194,1 F,0,120194,120528,1,0 S,0,120194,120528,0.5,0.6
Sprite,Foreground,Centre,"StoryBoard\mochi.png",216,164 S,0,121861,,0.5 R,0,121861,,-0.384 F,0,121861,122528,1 F,0,122528,122861,1,0 S,0,122528,122861,0.5,0.6
Sprite,Foreground,Centre,"StoryBoard\mochi.png",397,310 S,0,122194,,0.4 R,0,122194,,0.528 F,0,122194,122861,1 F,0,122861,123194,1,0 S,0,122861,123194,0.4,0.55
Sprite,Foreground,Centre,"StoryBoard\suki.png",214,321 S,0,132528,,0.6 R,0,132528,,0.4 F,0,132528,133194,1 F,0,133194,133528,1,0 S,0,133194,133528,0.6,0.7
Sprite,Foreground,Centre,"StoryBoard\suki.png",417,174 S,0,132861,,0.624 R,0,132861,,0.496 F,0,132861,133528,1 F,0,133528,133861,1,0 S,0,133528,133861,0.624,0.7
Sprite,Foreground,Centre,"StoryBoard\uso.png",196,260 S,0,135194,,0.4 F,0,135194,135861,1 R,0,135528,,0.208 F,0,135861,136194,1,0 S,0,135861,136194,0.4,0.6
Sprite,Foreground,Centre,"StoryBoard\uso.png",402,165 S,0,135528,,0.5 R,0,135528,,-0.223 F,0,135528,136194,1 F,0,136194,136528,1,0 S,0,136194,136528,0.5,0.6
Sprite,Foreground,BottomLeft,"StoryBoard\Cha-2.png",10,470 F,0,153861,154528,0,1 S,0,153861,154528,0.4,0.5 S,0,154528,154861,0.5,0.6 S,0,154861,155194,0.6,0.5 S,0,155194,155528,0.5,0.6 S,0,155528,155861,0.6,0.5 S,0,155861,156194,0.5,0.6 S,0,156194,156528,0.6,0.5 S,1,156528,157194,0.5,0.7 F,0,156861,157194,1,0
Sprite,Foreground,BottomRight,"StoryBoard\Cha-2.png",630,470 F,0,153861,154528,0,1 S,0,153861,154528,0.4,0.5 P,0,153861,157194,H S,0,154528,154861,0.5,0.6 S,0,154861,155194,0.6,0.5 S,0,155194,155528,0.5,0.6 S,0,155528,155861,0.6,0.5 S,0,155861,156194,0.5,0.6 S,0,156194,156528,0.6,0.5 S,1,156528,157194,0.5,0.7 F,0,156861,157194,1,0
Sprite,Foreground,Centre,"StoryBoard\Heart.png",320,150 M,0,156528,157194,320,280,320,200 F,0,156528,157194,1,0 S,0,156528,157194,0.2,0.625
Sprite,Foreground,Centre,"StoryBoard\O.png",320,260 L,154528,1 M,0,0,333,320,260,320,210 F,0,0,333,1,0 S,0,0,333,0.3,0.4
Sprite,Foreground,Centre,"StoryBoard\O.png",320,260 L,155194,1 M,0,0,333,320,260,320,200 F,0,0,333,1,0 S,0,0,333,0.3,0.45
Sprite,Foreground,Centre,"StoryBoard\O.png",320,260 L,155861,1 M,0,0,333,320,260,320,190 F,0,0,333,1,0 S,0,0,333,0.3,0.5
Sprite,Foreground,Centre,"StoryBoard\Ball-White.png",320,240 L,157861,16 S,0,0,666,0.55,0.63 S,0,666,1332,0.63,0.55 F,0,157194,157861,0,0.5 S,0,157194,157861,0.2,0.55 C,0,157194,179190,234,170,170 F,0,178528,179190,0.5,0
Sprite,Foreground,Centre,"StoryBoard\Ball.png",320,240 L,157861,16 S,0,0,666,0.55,0.65 S,0,666,1332,0.65,0.55 F,0,157194,157861,0,0.6 S,0,157194,157861,0.2,0.55 R,0,157194,179190,0,20 C,0,157194,179190,167,68,68 F,0,178528,179190,0.6,0
Sprite,Foreground,BottomCentre,"StoryBoard\Cha-4.png",320,380 L,158194,8 V,1,0,666,0,0.55,0.6,0.6 V,2,666,1332,0.6,0.6,0,0.55 V,1,1332,1998,0,0.55,0.6,0.6 P,0,1332,2664,H V,2,1998,2664,0.6,0.6,0,0.55 F,0,157194,157861,0,1 V,1,157194,157861,0.5,0.5,0.6,0.6 P,0,157194,158194,H V,2,157861,158194,0.6,0.6,0,0.55 F,0,178528,179190,1,0
Sprite,Foreground,BottomCentre,"StoryBoard\Cha-2.png",-60,405 L,7861,8 R,0,0,84,0,0.05 R,0,84,168,0.05,0 R,0,168,252,0,-0.05 R,0,252,336,-0.05,0 M,0,7861,10528,-50,405,710,405 S,0,7861,10528,0.3
Sprite,Foreground,Centre,"StoryBoard\Song-Title.png",320,390 S,1,5194,5528,0.625,0.5 F,0,5194,5861,0,1 F,0,5861,13194,1 F,0,13194,13528,1,0 S,1,13194,13528,0.5,0.625
Sprite,Foreground,Centre,"StoryBoard\Song-Artist.png",320,340 S,1,7861,8194,0.625,0.5 F,0,7861,8528,0,1 F,0,8528,13194,1 F,0,13194,13528,1,0 S,1,13194,13528,0.5,0.625
Sprite,Foreground,Centre,"StoryBoard\Heart-3.png",205,270 M,1,179861,180860,205,270,231,188 F,2,179861,180860,1,0 S,0,179861,180860,0.362,0.162
Sprite,Foreground,Centre,"StoryBoard\Heart-3.png",205,270 M,1,179861,180860,205,270,217,240 F,2,179861,180860,1,0 S,0,179861,180860,0.321,0.121
Sprite,Foreground,Centre,"StoryBoard\Heart-3.png",205,270 M,1,179861,180860,205,270,254,302 F,2,179861,180860,1,0 S,0,179861,180860,0.359,0.159
Sprite,Foreground,Centre,"StoryBoard\Heart-3.png",205,270 M,1,179861,180860,205,270,147,281 F,2,179861,180860,1,0 S,0,179861,180860,0.301,0.101
Sprite,Foreground,Centre,"StoryBoard\Heart-3.png",205,270 M,1,179861,180860,205,270,209,362 F,2,179861,180860,1,0 S,0,179861,180860,0.394,0.194
Sprite,Foreground,Centre,"StoryBoard\Heart-3.png",205,270 M,1,180194,181193,205,270,255,189 F,2,180194,181193,1,0 S,0,180194,181193,0.317,0.117
Sprite,Foreground,Centre,"StoryBoard\Heart-3.png",205,270 M,1,180194,181193,205,270,259,365 F,2,180194,181193,1,0 S,0,180194,181193,0.387,0.187
Sprite,Foreground,Centre,"StoryBoard\Heart-3.png",205,270 M,1,180194,181193,205,270,263,206 F,2,180194,181193,1,0 S,0,180194,181193,0.335,0.135
Sprite,Foreground,Centre,"StoryBoard\Heart-3.png",205,270 M,1,180194,181193,205,270,223,340 F,2,180194,181193,1,0 S,0,180194,181193,0.5,0.3
Sprite,Foreground,Centre,"StoryBoard\Heart-3.png",205,270 M,1,180194,181193,205,270,302,297 F,2,180194,181193,1,0 S,0,180194,181193,0.433,0.233
Sprite,Foreground,Centre,"StoryBoard\Heart-3.png",205,270 M,1,180527,181526,205,270,248,248 F,2,180527,181526,1,0 S,0,180527,181526,0.424,0.224
Sprite,Foreground,Centre,"StoryBoard\Heart-3.png",205,270 M,1,180527,181526,205,270,196,363 F,2,180527,181526,1,0 S,0,180527,181526,0.318,0.118
Sprite,Foreground,Centre,"StoryBoard\Heart-3.png",205,270 M,1,180527,181526,205,270,141,301 F,2,180527,181526,1,0 S,0,180527,181526,0.301,0.101
Sprite,Foreground,Centre,"StoryBoard\Heart-3.png",205,270 M,1,180527,181526,205,270,132,218 F,2,180527,181526,1,0 S,0,180527,181526,0.467,0.267
Sprite,Foreground,Centre,"StoryBoard\Heart-3.png",205,270 M,1,180527,181526,205,270,221,263 F,2,180527,181526,1,0 S,0,180527,181526,0.49,0.29
Sprite,Foreground,Centre,"StoryBoard\Heart-3.png",205,270 M,1,180860,181859,205,270,120,247 F,2,180860,181859,1,0 S,0,180860,181859,0.422,0.222
Sprite,Foreground,Centre,"StoryBoard\Heart-3.png",205,270 M,1,180860,181859,205,270,163,212 F,2,180860,181859,1,0 S,0,180860,181859,0.302,0.102
Sprite,Foreground,Centre,"StoryBoard\Heart-3.png",205,270 M,1,180860,181859,205,270,122,265 F,2,180860,181859,1,0 S,0,180860,181859,0.469,0.269
Sprite,Foreground,Centre,"StoryBoard\Heart-3.png",205,270 M,1,180860,181859,205,270,204,317 F,2,180860,181859,1,0 S,0,180860,181859,0.414,0.214
Sprite,Foreground,Centre,"StoryBoard\Heart-3.png",205,270 M,1,180860,181859,205,270,208,256 F,2,180860,181859,1,0 S,0,180860,181859,0.418,0.218
Sprite,Foreground,Centre,"StoryBoard\Heart-3.png",205,270 M,1,181193,182192,205,270,199,366 F,2,181193,182192,1,0 S,0,181193,182192,0.46,0.26
Sprite,Foreground,Centre,"StoryBoard\Heart-3.png",205,270 M,1,181193,182192,205,270,211,306 F,2,181193,182192,1,0 S,0,181193,182192,0.488,0.288
Sprite,Foreground,Centre,"StoryBoard\Heart-3.png",205,270 M,1,181193,182192,205,270,172,213 F,2,181193,182192,1,0 S,0,181193,182192,0.493,0.293
Sprite,Foreground,Centre,"StoryBoard\Heart-3.png",205,270 M,1,181193,182192,205,270,144,323 F,2,181193,182192,1,0 S,0,181193,182192,0.431,0.231
Sprite,Foreground,Centre,"StoryBoard\Heart-3.png",205,270 M,1,181193,182192,205,270,191,291 F,2,181193,182192,1,0 S,0,181193,182192,0.411,0.211
Sprite,Foreground,Centre,"StoryBoard\Heart-3.png",205,270 M,1,181526,182525,205,270,283,173 F,2,181526,182525,1,0 S,0,181526,182525,0.436,0.236
Sprite,Foreground,Centre,"StoryBoard\Heart-3.png",205,270 M,1,181526,182525,205,270,235,180 F,2,181526,182525,1,0 S,0,181526,182525,0.49,0.29
Sprite,Foreground,Centre,"StoryBoard\Heart-3.png",205,270 M,1,181526,182525,205,270,183,331 F,2,181526,182525,1,0 S,0,181526,182525,0.387,0.187
Sprite,Foreground,Centre,"StoryBoard\Heart-3.png",205,270 M,1,181526,182525,205,270,138,352 F,2,181526,182525,1,0 S,0,181526,182525,0.479,0.279
Sprite,Foreground,Centre,"StoryBoard\Heart-3.png",205,270 M,1,181526,182525,205,270,245,237 F,2,181526,182525,1,0 S,0,181526,182525,0.466,0.266
Sprite,Foreground,Centre,"StoryBoard\Heart-3.png",205,270 M,1,181859,182858,205,270,294,351 F,2,181859,182858,1,0 S,0,181859,182858,0.372,0.172
Sprite,Foreground,Centre,"StoryBoard\Heart-3.png",205,270 M,1,181859,182858,205,270,238,204 F,2,181859,182858,1,0 S,0,181859,182858,0.403,0.203
Sprite,Foreground,Centre,"StoryBoard\Heart-3.png",205,270 M,1,181859,182858,205,270,105,201 F,2,181859,182858,1,0 S,0,181859,182858,0.464,0.264
Sprite,Foreground,Centre,"StoryBoard\Heart-3.png",205,270 M,1,181859,182858,205,270,111,297 F,2,181859,182858,1,0 S,0,181859,182858,0.328,0.128
Sprite,Foreground,Centre,"StoryBoard\Heart-3.png",205,270 M,1,181859,182858,205,270,114,248 F,2,181859,182858,1,0 S,0,181859,182858,0.421,0.221
Sprite,Foreground,Centre,"StoryBoard\Heart-3.png",205,270 M,1,182192,183191,205,270,210,314 F,2,182192,183191,1,0 S,0,182192,183191,0.465,0.265
Sprite,Foreground,Centre,"StoryBoard\Heart-3.png",205,270 M,1,182192,183191,205,270,172,207 F,2,182192,183191,1,0 S,0,182192,183191,0.351,0.151
Sprite,Foreground,Centre,"StoryBoard\Heart-3.png",205,270 M,1,182192,183191,205,270,166,290 F,2,182192,183191,1,0 S,0,182192,183191,0.352,0.152
Sprite,Foreground,Centre,"StoryBoard\Heart-3.png",205,270 M,1,182192,183191,205,270,201,220 F,2,182192,183191,1,0 S,0,182192,183191,0.306,0.106
Sprite,Foreground,Centre,"StoryBoard\Heart-3.png",205,270 M,1,182192,183191,205,270,237,292 F,2,182192,183191,1,0 S,0,182192,183191,0.425,0.225
Sprite,Foreground,Centre,"StoryBoard\Heart-3.png",205,270 M,1,182525,183524,205,270,197,231 F,2,182525,183524,1,0 S,0,182525,183524,0.345,0.145
Sprite,Foreground,Centre,"StoryBoard\Heart-3.png",205,270 M,1,182525,183524,205,270,126,368 F,2,182525,183524,1,0 S,0,182525,183524,0.483,0.283
Sprite,Foreground,Centre,"StoryBoard\Heart-3.png",205,270 M,1,182525,183524,205,270,215,266 F,2,182525,183524,1,0 S,0,182525,183524,0.394,0.194
Sprite,Foreground,Centre,"StoryBoard\Heart-3.png",205,270 M,1,182525,183524,205,270,261,309 F,2,182525,183524,1,0 S,0,182525,183524,0.485,0.285
Sprite,Foreground,Centre,"StoryBoard\Heart-3.png",205,270 M,1,182525,183524,205,270,166,256 F,2,182525,183524,1,0 S,0,182525,183524,0.358,0.158
Sprite,Foreground,Centre,"StoryBoard\Heart-2.png",205,270 L,179194,4 S,1,0,666,0.3,0.4 S,2,666,1332,0.4,0.3 F,0,179194,179861,0,1 F,0,179861,182528,1 F,0,182528,183861,1,0
Sprite,Foreground,Centre,"StoryBoard\Thank you.png",320,270 F,0,179194,179861,0,1 S,0,179194,183861,0.6,0.625 F,0,182528,183861,1,0
//Storyboard Sound Samples
//Background Colour Transformations
3,100,163,162,255

[TimingPoints]
1195,333.333333333333,4,2,1,65,1,0
1444,-100,4,2,0,65,0,0
1611,-100,4,2,1,65,0,0
1944,-100,4,2,0,65,0,0
2111,-100,4,2,1,75,0,0
2444,-100,4,2,1,85,0,0
2611,-100,4,2,0,65,0,0
3444,-100,4,2,1,55,0,0
3611,-100,4,2,0,65,0,0
5111,-100,4,2,1,85,0,0
5278,-100,4,2,0,65,0,0
6111,-100,4,2,1,55,0,0
6278,-100,4,2,0,65,0,0
7278,-100,4,2,1,85,0,0
7736,-100,4,2,0,65,0,0
7819,-100,4,1,0,45,0,0
7944,-100,4,2,1,65,0,0
8111,-100,4,2,0,65,0,0
8278,-100,4,2,1,85,0,0
8444,-100,4,2,1,65,0,0
8611,-100,4,2,0,65,0,0
8819,-100,4,2,1,85,0,0
8903,-100,4,2,1,65,0,0
9111,-100,4,2,0,65,0,0
9319,-100,4,2,1,85,0,0
9403,-100,4,2,1,65,0,0
9611,-100,4,2,0,65,0,0
9778,-100,4,2,1,85,0,0
9944,-100,4,1,0,45,0,0
10528,-100,4,2,1,85,0,0
10611,-100,4,2,0,65,0,0
11111,-100,4,2,1,65,0,0
11361,-100,4,2,0,75,0,0
11778,-100,4,2,1,75,0,0
12028,-100,4,2,0,85,0,0
12194,-100,4,2,1,85,0,0
12361,-100,4,2,0,95,0,0
12528,-100,4,1,1,55,0,0
12819,-100,4,2,2,75,0,0
13153,-100,4,2,0,65,0,0
13278,-100,4,1,1,55,0,0
15819,-100,4,1,0,50,0,0
15903,-100,4,1,1,55,0,0
18444,-100,4,1,0,50,0,0
18611,-100,4,1,1,55,0,0
21153,-100,4,1,0,50,0,0
21236,-100,4,1,1,55,0,0
23653,-100,4,1,0,55,0,0
23736,-100,4,1,1,55,0,0
26278,-100,4,1,0,55,0,0
26444,-100,4,1,1,55,0,0
34486,-100,4,1,0,55,0,0
36944,-100,4,2,0,45,0,0
39861,-100,4,2,2,45,0,0
41861,-100,4,2,0,55,0,0
42361,-100,4,2,2,45,0,0
44528,-100,4,2,0,55,0,0
45028,-100,4,2,2,45,0,0
50111,-100,4,1,2,35,0,0
53194,-100,4,2,2,45,0,0
55194,-100,4,2,0,55,0,0
55694,-100,4,2,2,45,0,0
57861,-100,4,2,0,55,0,0
58361,-100,4,2,2,45,0,0
61028,-100,4,2,0,55,0,0
61069,-100,4,2,2,55,0,0
61319,-100,4,2,0,55,0,0
61403,-100,4,2,2,55,0,0
61611,-100,4,2,0,55,0,0
61944,-100,4,2,2,55,0,0
62361,-80,4,2,1,65,0,0
62611,-100,4,1,0,45,0,0
62944,-100,4,1,1,45,0,0
63778,-100,4,2,0,55,0,0
63944,-100,4,2,1,65,0,0
64444,-100,4,2,0,65,0,0
64569,-100,4,2,1,65,0,0
65111,-100,4,2,1,60,0,0
65278,-100,4,2,1,65,0,0
65819,-100,4,2,0,65,0,0
65903,-100,4,2,1,65,0,0
66444,-80,4,2,0,65,0,0
68028,-100,4,2,0,65,0,0
69111,-100,4,1,0,45,0,0
69944,-80,4,1,0,45,0,0
70944,-100,4,2,0,60,0,0
71611,-100,4,2,1,65,0,0
71778,-100,4,1,0,40,0,0
73111,-100,4,2,1,65,0,0
74444,-100,4,2,1,45,0,0
74611,-100,4,2,1,65,0,0
74819,-100,4,2,0,65,0,0
74903,-100,4,2,1,65,0,0
75111,-100,4,2,1,45,0,0
75278,-100,4,2,1,65,0,0
75486,-100,4,2,0,65,0,0
75569,-100,4,2,1,65,0,0
75778,-100,4,2,1,45,0,0
75944,-100,4,2,1,65,0,0
76111,-100,4,2,0,65,0,0
76236,-100,4,2,1,45,0,0
76444,-100,4,2,1,65,0,0
76653,-100,4,2,0,65,0,0
76861,-100,4,1,1,45,0,0
77194,-100,4,1,0,45,0,0
77278,-100,4,2,0,40,0,0
77444,-100,4,2,0,50,0,0
77611,-100,4,2,0,60,0,0
77778,-100,4,1,0,45,0,0
77944,-100,4,2,0,70,0,0
78111,-100,4,2,0,80,0,0
78278,-100,4,2,0,90,0,0
78528,-100,4,1,0,70,0,0
78653,-100,4,2,0,5,0,0
78736,-100,4,1,0,70,0,0
78944,-100,4,2,0,5,0,0
79111,-100,4,1,0,50,0,0
79611,-100,4,1,0,55,0,0
89778,-100,4,2,0,55,0,0
90278,-100,4,1,0,55,0,0
100778,-100,4,2,2,85,0,0
101111,-100,4,2,0,55,0,0
101278,-100,4,1,1,55,0,0
103778,-100,4,1,0,55,0,0
103944,-100,4,1,1,55,0,0
106444,-100,4,1,0,55,0,0
106611,-100,4,1,1,55,0,0
109153,-100,4,1,0,55,0,0
109236,-100,4,1,1,55,0,0
111778,-100,4,1,0,55,0,0
117194,-100,4,2,2,45,0,0
119194,-100,4,2,0,55,0,0
119694,-100,4,2,2,45,0,0
121861,-100,4,2,0,55,0,0
122361,-100,4,2,2,45,0,0
127861,-100,4,1,2,45,0,0
130528,-100,4,2,2,45,0,0
132528,-100,4,2,0,55,0,0
133028,-100,4,2,2,45,0,0
134361,-133.333333333333,4,2,1,65,0,0
134444,-133.333333333333,4,2,1,5,0,0
135111,-100,4,2,0,65,0,0
135444,-100,4,2,1,55,0,0
135944,-100,4,2,2,45,0,0
138444,-100,4,2,0,55,0,0
138611,-100,4,2,2,45,0,0
138778,-100,4,2,0,65,0,0
138944,-100,4,2,2,45,0,0
139111,-100,4,2,0,75,0,0
139611,-100,4,2,1,65,0,0
139778,-100,4,1,0,50,0,0
141111,-100,4,2,0,55,0,0
141278,-100,4,2,1,65,0,0
141778,-100,4,2,0,65,0,0
141944,-100,4,2,1,65,0,0
142444,-100,4,2,1,60,0,0
142611,-100,4,2,1,65,0,0
143111,-100,4,2,0,65,0,0
143278,-100,4,2,1,65,0,0
143861,-80,4,2,0,65,0,0
146111,-100,4,2,0,65,0,0
146444,-100,4,1,0,45,0,0
147611,-80,4,1,0,45,0,0
148028,-100,4,1,1,45,0,0
148278,-100,4,1,0,45,0,0
148611,-100,4,2,0,65,0,0
149528,-100,4,2,2,45,0,0
149861,-100,4,2,0,55,0,0
150194,-100,4,2,2,55,0,0
150528,-100,4,2,1,55,0,0
150611,-100,4,2,2,45,0,0
151111,-100,4,2,0,65,0,0
151819,-100,4,2,1,45,0,0
151903,-100,4,2,1,55,0,0
152111,-100,4,2,0,65,0,0
152278,-100,4,2,1,65,0,0
152444,-100,4,2,1,45,0,0
152611,-100,4,2,1,65,0,0
152778,-100,4,2,0,65,0,0
152944,-100,4,2,1,65,0,0
153111,-100,4,2,1,45,0,0
153278,-100,4,2,1,65,0,0
153444,-100,4,2,0,65,0,0
153611,-100,4,2,1,50,0,0
153778,-100,4,2,1,65,0,0
153944,-100,4,2,0,65,0,0
154194,-100,4,1,0,45,0,0
154611,-100,4,2,0,40,0,0
154778,-100,4,2,0,50,0,0
154944,-100,4,2,0,60,0,0
155111,-100,4,1,0,55,0,0
155278,-100,4,2,0,70,0,0
155444,-100,4,2,0,80,0,0
155611,-100,4,2,0,85,0,0
155778,-100,4,1,0,75,0,0
155944,-100,4,2,0,5,0,0
156111,-100,4,1,0,75,0,0
156278,-100,4,2,0,5,0,0
156444,-100,4,1,0,50,0,0
156944,-100,4,1,0,45,0,0
167194,-100,4,2,0,55,0,0
167611,-100,4,1,0,45,0,0

[Colours]
Combo1 : 145,72,0
Combo2 : 128,0,64
Combo3 : 28,120,12
Combo4 : 5,1,173
Sliderborder : 255,255,255

[HitObjects]
368,88,1195,1,8
396,240,1528,1,2
256,304,1861,1,8
180,296,2028,1,2
136,232,2194,6,0,B|92:177|102:110,1,130,2|2
160,56,2694,2,0,B|192:56|232:40,1,65,2|0
288,88,3028,2,2,B|319:75|351:75,2,65,2|0|2
312,280,3694,6,0,B|257:323|190:313,1,130,2|0
120,280,4194,2,0,B|92:256|68:208,1,65,2|0
148,192,4528,2,0,B|132:160|132:128,1,65,2|0
208,116,4861,2,0,B|208:84|214:51,1,65,2|0
324,128,5194,5,2
392,164,5361,2,0,B|427:158|467:124,2,65,2|0|2
376,240,5861,1,0
324,300,6028,2,0,B|256:310|202:266,1,130,2|2
52,176,6694,6,0,B|40:212|40:244,1,65,2|0
108,312,7028,2,0,B|119:276|119:248,1,65,2|0
176,192,7361,1,2
176,192,7528,1,2
256,88,7694,5,0
256,88,7861,2,0,B|310:131|377:121,1,130,4|2
256,192,8361,2,0,B|201:235|134:225,1,130,2|2
256,296,8861,2,0,B|310:339|377:329,1,130,2|2
412,204,9361,2,0,B|357:160|290:170,1,130,2|2
256,88,9861,1,2
168,72,10028,2,0,B|128:48,6,32.5
88,176,10694,6,2,B|56:160|24:156,2,65
148,252,11195,1,2
192,340,11361,2,2,B|224:356|253:359,2,65
308,224,11861,2,0,B|308:260|320:312,1,65,2|2
404,192,12195,2,0,B|404:156|392:104,1,65,2|2
308,72,12528,5,0
308,72,12611,1,0
308,72,12695,1,0
308,72,12778,1,0
308,72,12861,1,2
92,68,13195,6,0,B|48:123|58:190,1,130,4|8
112,248,13695,1,0
180,288,13861,2,0,B|160:316|137:337,1,65
256,300,14195,2,0,B|272:276|298:250,1,65,8|0
292,152,14528,6,0,B|358:163|396:221,1,130,4|8
460,268,15028,1,0
480,192,15195,2,0,B|496:144|464:112|480:64,2,130,4|2|4
460,268,16028,5,0
400,320,16195,1,8
320,320,16361,1,0
256,276,16528,2,0,B|236:308|196:344,1,65
172,260,16861,2,0,B|148:284|104:300,1,65,8|0
44,228,17195,6,0,B|48:177|10:153|15:103,2,130,4|8|4
136,192,18028,1,0
136,192,18111,1,0
136,192,18195,2,0,B|168:192|208:172,2,65,2|0|4
92,128,18695,5,0
108,52,18861,1,8
184,32,19028,1,0
256,64,19194,2,0,B|288:60|324:40,1,65
368,104,19528,2,0,B|396:84|412:52,1,65,8|0
476,128,19861,6,0,B|492:176|460:208|476:256,2,130,4|8|4
436,60,20694,1,0
368,104,20861,1,2
300,68,21028,2,0,B|292:32,2,32.5,0|0|4
207,104,21361,6,0,B|208:136|224:166,2,65,0|8|0
120,92,21861,2,0,B|120:62|102:31,1,65
56,144,22194,2,0,B|56:176|76:212,1,65,8|0
136,264,22528,6,0,B|202:273|257:229,2,130,4|8|4
40,288,23361,2,0,B|16:332,2,32.5,0|0|0
60,192,23694,6,0,B|50:125|94:70,1,130,6|0
152,152,24194,2,0,B|206:195|273:186,1,130,10|2
328,244,24694,1,0
400,272,24861,1,10
456,220,25028,2,2,B|472:192|472:140,1,65,2|0
408,112,25361,1,2
408,112,25528,2,0,B|416:80|432:48,2,65,10|0|2
352,192,26028,5,0
352,192,26194,1,8
352,192,26361,2,0,B|304:208|272:176|224:192,1,130,6|0
220,112,26861,2,0,B|188:120|152:148,1,65,10|0
96,96,27194,2,0,B|74:125|70:170,1,65,2|0
0,152,27528,2,0,B|-4:188|4:220,1,65,10|0
28,312,27861,6,0,B|12:364,2,32.5,4|0|0
120,220,28194,2,0,B|116:164,2,32.5,4|0|0
164,344,28528,2,0,B|196:352|244:344,2,65,2|8|8
192,248,29028,6,0,B|240:231|272:263|320:247,1,130,2|0
356,316,29528,2,0,B|380:304|404:272,1,65,10|0
424,196,29861,2,0,B|456:192|504:208,2,65,2|0|10
376,112,30361,2,2,B|309:121|254:77,1,130,0|2
184,112,30861,2,0,B|172:144|172:176,2,65,10|0|2
128,60,31361,2,0,B|96:68|66:81,1,65,0|10
36,176,31694,5,4
168,320,32028,1,0
168,320,32194,1,2
352,256,32528,1,0
352,256,32694,1,2
204,128,33028,5,4
256,280,33361,1,0
256,280,33528,1,2
256,280,33694,1,4
312,96,34028,6,0,B|344:64,2,32.5,0|0|0
336,192,34361,2,0,B|384:192,2,32.5,0|0|4
438,117,37194,6,0,B|423:199,1,65,2|0
384,152,37528,2,0,B|359:219,1,65,2|0
324,176,37861,2,0,B|288:238,1,65,2|0
256,192,38194,2,0,B|202:256,1,65,2|0
123,144,38528,6,0,B|100:120|87:90,1,65,2|0
207,104,38861,2,0,B|196:72|196:40,1,65,2|0
304,104,39194,2,0,B|316:72|316:36,1,65,2|0
388,144,39528,2,0,B|411:120|424:90,1,65,2|0
472,212,39861,6,0,B|417:255|350:246,1,130,4|8
272,240,40361,1,0
284,316,40528,2,0,B|308:336|363:346,2,65,4|4|8
212,284,41028,2,0,B|180:284|148:272,1,65,4|0
104,208,41361,2,0,B|72:196|40:196,2,65,4|8|0
164,160,41861,5,2
164,160,42028,1,0
256,68,42195,1,2
256,68,42361,1,0
348,160,42528,6,0,B|384:160|424:144,2,65,4|0|8
308,228,43028,1,0
368,280,43195,2,0,B|404:280|444:264,2,65,4|4|8
312,336,43695,2,0,B|245:344|190:301,1,130,4|4
112,292,44195,2,0,B|100:260|96:228,1,65,8|0
60,160,44528,5,2
60,160,44695,1,0
136,52,44861,1,2
136,52,45028,1,0
256,96,45195,6,0,B|288:100|320:112,1,65,4|0
363,175,45528,2,0,B|394:187|427:191,1,65,8|0
456,264,45861,1,4
412,328,46028,2,0,B|452:368,2,32.5,4|0|8
336,340,46361,2,0,B|269:348|214:305,1,130,4|4
140,284,46861,2,0,B|108:296|60:300,2,65,8|0|4
196,228,47361,2,0,B|192:196|196:164,1,65,4|8
200,64,47695,6,0,B|254:107|321:98,1,130,4|0
358,83,48111,1,0
396,92,48195,2,0,B|412:120|420:164,1,65,8|0
460,220,48528,1,4
448,296,48695,1,4
376,320,48861,1,8
376,320,49028,2,0,B|309:328|254:285,1,130,4|0
180,268,49528,6,0,B|148:280|88:280,1,65,8|0
51,231,49861,2,0,B|40:200|40:168,1,65,4|0
104,92,50195,1,0
104,92,50278,1,0
104,92,50361,1,0
104,92,50445,1,0
104,92,50528,6,0,B|140:88|180:60,1,65,2|0
196,140,50861,2,2,B|230:129|265:95,1,65,0|0
304,168,51195,2,2,B|333:146|353:102,1,65,0|0
408,167,51528,2,2,B|429:138|434:108,1,65,0|0
452,232,51861,6,0,B|430:261|422:306,1,65,2|0
360,336,52195,2,2,B|325:347|291:339,2,65,0|0|0
340,240,52695,1,8
340,240,52861,1,8
252,196,53028,2,0,B|224:248,2,32.5,0|0|4
212,108,53361,6,0,B|224:76|228:32,2,65,0|8|0
144,148,53861,2,0,B|77:156|22:113,1,130,4|8
8,188,54361,2,0,B|8:220|28:260,1,65,0|4
68,316,54694,2,0,B|91:338|134:345,2,65
132,252,55195,5,2
132,252,55361,1,0
256,288,55528,1,2
256,288,55695,1,0
356,208,55861,6,0,B|365:237|367:280,2,65,4|0|8
324,136,56361,1,0
276,76,56528,2,0,B|209:84|154:41,1,130,4|8
80,64,57028,2,0,B|60:88|45:119,1,65,0|4
76,192,57361,2,0,B|61:222|41:246,2,65,0|8|0
152,176,57861,5,2
152,176,58028,1,0
256,256,58195,1,2
256,256,58361,1,0
360,176,58528,6,0,B|380:152|428:128,2,65,4|0|8
376,252,59028,2,0,B|356:276|308:300,1,65,0|4
256,256,59361,1,0
196,308,59528,1,8
124,332,59695,2,0,B|88:332|52:308,1,65,0|4
40,240,60028,2,0,B|48:208|48:175,2,65,0|8|0
100,120,60528,2,0,B|100:84|92:56,2,65,4|0|8
164,192,61028,5,2
256,156,61195,1,0
256,60,61361,2,0,B|280:38,2,32.5,2|0|8
364,88,61695,2,0,B|396:83,2,32.5,2|2|2
448,168,62028,1,0
448,168,62195,1,8
448,168,62361,6,0,B|413:250|320:257,1,162.499997578561,4|2
256,328,62861,1,6
168,284,63028,5,0
168,284,63111,1,0
168,284,63195,2,0,B|136:268|88:256,1,65
32,200,63528,2,0,B|56:176|96:164,1,65
136,44,63861,6,0,B|190:86|257:78,1,130,4|0
340,132,64361,1,0
340,132,64528,2,0,B|285:174|218:166,1,130,2|0
52,208,65195,6,0,B|106:250|173:242,1,130,4|0
256,296,65695,1,0
256,296,65861,2,0,B|201:338|134:330,1,130,2|0
204,56,66528,6,0,B|208:92|208:92|188:120|172:176|236:220,1,162.499997578561,4|0
292,140,67028,2,0,B|338:170|322:226|302:254|302:254|306:290,1,162.499997578561,4|0
224,336,67528,1,0
224,336,67695,2,0,B|192:308|192:308|136:328|48:272,1,162.499997578561,4|0
59,211,68195,6,0,B|32:193|20:161,1,65,2|0
108,148,68528,2,0,B|144:164|196:160,1,65,2|0
244,96,68861,2,2,B|264:56,2,32.5,2|2|2
256,192,69195,5,2
256,192,69361,1,0
256,192,69528,1,2
332,256,69695,2,0,B|364:304,2,32.5
408,192,70028,2,0,B|424:156|428:113,1,81.2499987892807,2|0
344,44,70361,2,0,B|328:80|323:122,1,81.2499987892807,2|0
256,192,70695,5,2
256,192,70861,1,0
160,192,71028,1,2
160,192,71195,2,0,B|76:192,2,65,0|2|0
256,192,71694,2,0,B|348:192,1,65,4|4
256,56,73195,5,4
308,192,74528,5,4
308,192,74695,1,0
308,192,74861,2,0,B|308:108,1,65,2|0
196,60,75195,5,4
196,60,75361,1,0
196,60,75528,2,0,B|196:140,1,65,2|0
124,192,75861,6,0,B|60:192,2,65,4|0|2
188,264,76361,2,0,B|254:271|309:229,1,130,4|2
400,268,76861,5,0
400,268,76945,1,0
400,268,77028,1,0
400,268,77111,1,0
400,268,77195,1,4
460,191,77361,6,2,B|472:164|481:130,2,65
424,76,77861,1,4
304,80,78028,2,2,B|325:54|353:38,2,65
192,104,78528,6,0,B|180:140|172:184,1,65,0|0
324,192,78861,2,0,B|324:272,1,65,0|0
256,344,79194,1,2
256,344,79361,1,2
176,96,79694,6,0,B|121:138|54:130,1,130,6|0
20,208,80194,1,8
20,208,80361,1,0
64,280,80528,2,0,B|52:312|28:340,2,65,0|0|8
128,224,81028,6,0,B|176:207|208:239|256:223,1,130,2|0
320,280,81528,1,8
320,280,81694,1,0
404,287,81861,2,0,B|432:276|458:252,2,65,0|0|8
452,168,82361,6,0,B|410:113|418:46,1,130,2|0
336,36,82861,2,0,B|304:40|264:68,2,65,8|2|0
344,120,83361,1,0
298,192,83528,1,8
214,192,83694,2,0,B|165:207|133:175|85:192,2,130,2|2|2
256,264,84528,1,0
320,316,84694,2,0,B|348:348,2,32.5,2|0|0
436,260,85028,6,0,B|443:193|401:138,1,130,6|0
336,84,85528,1,8
336,84,85694,1,0
256,56,85861,2,0,B|224:56|192:44,2,65,0|0|8
256,140,86361,6,0,B|263:206|221:261,1,130,2|0
136,260,86861,2,0,B|121:296|118:322,1,65,2|0
95,149,87194,2,0,B|71:181|67:207,1,65,2|0
85,45,87528,2,0,B|56:64|36:88,1,65,2|0
0,164,87861,5,6
0,164,88028,1,2
136,260,88361,1,2
256,140,88694,1,2
420,104,89028,1,2
432,272,89361,5,2
432,272,89528,2,0,B|440:324,2,32.5,2|0|0
376,192,89861,1,2
376,192,90028,1,2
376,192,90194,1,2
376,192,90361,6,0,B|327:207|295:175|247:192,1,130,6|0
208,116,90861,2,0,B|184:144|168:188,1,65,8|0
196,252,91194,2,0,B|186:279|162:307,2,65,0|0|8
68,228,91694,6,0,B|25:172|32:106,1,130,2|0
88,44,92194,1,8
88,44,92361,1,0
172,40,92528,2,0,B|208:48|252:64,2,65,0|0|8
172,136,93028,6,0,B|227:178|293:171,1,130,2|0
376,220,93528,1,8
376,220,93694,2,0,B|320:262|254:255,1,130,2|0
172,308,94194,6,0,B|136:316|104:316,1,65,8|2
48,156,94694,1,2
176,44,95028,1,2
256,192,95361,1,2
336,44,95694,6,0,B|329:110|371:165,1,130,6|0
452,192,96194,2,0,B|452:228|432:272,1,65,8|0
392,328,96528,1,0
308,324,96694,1,0
236,280,96861,1,8
188,212,97028,6,0,B|122:205|67:247,1,130,2|0
32,108,97528,2,0,B|98:115|153:73,2,130,2|2|2
32,192,98361,5,0
32,192,98444,1,0
32,192,98528,2,0,B|28:224|32:260,2,65,6|0|0
116,192,99028,1,2
256,96,99361,5,2
256,96,99528,1,0
256,96,99694,1,2
396,192,100028,1,2
256,288,100361,1,0
256,288,100528,1,2
128,192,100861,6,0,B|175:208|207:176|256:191,1,130,2|4
300,128,101361,2,0,B|328:112|384:100,2,65,0|8|0
352,188,101861,2,0,B|344:220|324:256,1,65
380,308,102194,2,0,B|352:328|308:336,1,65,8|0
256,288,102528,6,0,B|190:281|135:323,1,130,4|8
40,304,103028,1,0
64,208,103194,2,0,B|119:170|134:103,1,130,4|2
220,56,103694,2,0,B|196:12,2,32.5,0|0|4
304,108,104028,6,0,B|332:92|365:86,2,65,0|8|0
308,188,104528,2,0,B|280:204|246:209,1,65
172,188,104861,2,0,B|152:220|152:252,1,65,8|0
60,284,105194,6,0,B|98:339|165:354,1,130,4|8
256,320,105694,1,0
346,354,105861,2,0,B|414:339|452:284,1,130,4|8
468,188,106361,2,0,B|512:148,2,32.5,2|0|4
376,152,106694,6,0,B|360:128|332:104,2,65,0|8|0
368,228,107194,1,0
368,228,107361,1,0
328,296,107528,1,8
328,296,107694,1,0
256,324,107861,6,0,B|206:308|174:340|127:324,2,130,4|8|4
256,228,108694,1,0
256,228,108861,1,2
256,132,109028,2,0,B|256:80,2,32.5,0|0|4
160,144,109361,6,0,B|136:124|88:104,2,65,0|8|0
188,236,109861,2,0,B|184:268|156:324,1,65
256,340,110194,2,0,B|288:336|344:308,1,65,8|0
396,260,110528,5,4
396,260,110694,1,0
440,172,110861,1,2
440,172,111028,1,0
420,76,111194,1,4
420,76,111278,1,0
420,76,111361,1,0
420,76,111444,1,0
420,76,111528,2,0,B|440:52|480:28,2,65,2|0|4
216,48,114528,6,0,B|196:80|184:112,1,65
296,112,114861,2,0,B|300:148|292:192,1,65
256,268,115194,6,0,B|224:248|192:236,1,65
192,348,115528,2,0,B|156:352|112:344,1,65
44,260,115861,5,0
44,260,116028,1,0
52,144,116194,1,0
52,144,116361,1,0
136,64,116528,2,0,B|176:36,3,32.5
196,40,116861,2,0,B|240:40,4,32.5,0|0|0|0|4
256,116,117361,6,0,B|256:188,2,65,0|8|0
308,60,117861,1,4
380,32,118028,1,4
456,40,118194,1,8
492,108,118361,2,0,B|504:173|467:231,1,130,4|0
432,252,118778,1,0
396,264,118861,2,0,B|380:296|377:339,1,65,8|0
304,344,119194,5,2
304,344,119361,1,0
204,260,119528,1,2
204,260,119694,1,0
256,140,119861,6,0,B|264:104|288:76,2,65,4|0|8
336,144,120361,1,0
376,212,120528,2,0,B|400:195|428:152,2,65,4|4|8
329,276,121028,2,0,B|264:292|204:260,1,130,4|4
136,300,121528,2,0,B|108:280|96:240,1,65,8|0
28,216,121861,5,2
28,216,122028,1,0
76,96,122194,1,2
76,96,122361,1,0
200,60,122528,6,0,B|232:56|264:36,2,65,4|0|8
152,120,123028,1,0
124,192,123194,1,4
152,264,123361,2,0,B|168:304,2,32.5,4|0|8
220,192,123694,2,0,B|269:176|301:208|348:192,1,130,4|4
392,128,124194,1,8
392,128,124361,1,0
412,52,124528,2,0,B|440:40|476:36,2,65,4|4|8
320,80,125028,6,4,B|255:96|194:63,1,130,4|0
116,112,125528,1,0
116,112,125694,1,0
68,192,125861,2,0,B|48:168|20:144,2,65,4|4|8
100,276,126361,6,0,B|160:308|225:292,1,130,4|0
256,192,126861,1,8
256,192,127028,2,0,B|320:175|381:208,1,130,4|0
472,156,127528,1,8
416,68,127694,1,0
416,68,127778,1,0
416,68,127861,6,0,B|392:140,1,65,6|0
312,76,128194,2,2,B|304:156,1,65,0|0
212,108,128528,2,2,B|216:188,1,65,0|0
116,168,128861,2,0,B|128:256,1,65
196,324,129194,6,0,B|254:370|314:322,2,130,2|0|0
256,264,130028,1,0
256,264,130194,1,0
320,188,130361,2,0,B|376:212,2,32.5,0|0|4
276,108,130694,6,0,B|244:92|204:92,1,65,0|8
156,148,131028,1,0
156,148,131194,2,0,B|92:165|31:132,1,130,4|8
44,260,131694,2,0,B|108:243|169:276,1,130,4|0
236,316,132194,2,0,B|268:316|304:292,1,65,8|0
376,288,132528,5,2
376,288,132694,1,0
464,192,132861,1,2
464,192,133028,1,0
408,76,133194,6,0,B|432:56|484:40,2,65,4|0|8
344,124,133694,1,0
280,76,133861,2,0,B|256:56|204:40,2,65,4|4|8
247,191,134361,6,0,B|208:200|168:168|196:240|144:284|88:260|44:216|76:180,1,243.749992735684,0|2
124,120,135361,1,2
52,88,135528,1,2
52,88,135611,1,2
52,88,135694,1,2
52,88,135778,1,2
52,88,135861,1,2
75,181,136028,6,0,B|68:215|48:243,1,65,0|8
80,312,136361,1,0
156,332,136528,2,0,B|188:336|217:351,2,65,4|0|8
256,284,137028,6,0,B|321:278|376:321,1,130,4|0
416,332,137444,1,0
456,324,137528,2,0,B|472:296|476:260,1,65,8|0
448,188,137861,2,0,B|451:154|467:126,2,65,4|4|8
328,236,138361,5,0
328,236,138528,2,0,B|316:272|292:300,1,65,2|0
232,248,138861,2,0,B|208:276|172:292,1,65,2|0
152,216,139194,2,0,B|120:228|76:228,2,65,2|0|0
256,160,139694,1,4
256,28,140028,5,2
256,28,140194,1,2
176,40,141194,6,0,B|212:100|188:176,1,130,4|0
104,180,141694,1,0
104,180,141861,2,0,B|83:245|119:305,1,130,2|0
336,344,142528,6,0,B|300:284|324:208,1,130,4|0
408,204,143028,1,0
408,204,143195,2,0,B|428:138|392:78,1,130,2|0
14,90,143861,6,0,B|68:128|68:128|51:182|98:218,1,162.499997578561,4|0
236,276,144361,2,0,B|166:244|175:176|175:176|131:145,1,162.499997578561,4|0
148,72,144861,2,0,B|180:48|224:36,2,81.2499987892807,0|4|0
256,120,145361,6,2,B|300:140,2,40.6249993946403
256,264,145694,2,2,B|212:284,2,40.6249993946403
200,192,146028,1,2
200,192,146194,2,2,B|152:192,2,32.5
312,192,146528,5,2
312,192,146694,1,0
312,192,146861,1,2
400,116,147028,2,0,B|400:76,2,32.5
448,224,147361,1,2
448,224,147528,1,0
448,224,147694,2,0,B|444:264|432:312,1,81.2499987892807,2|0
316,308,148028,6,0,B|268:344,2,32.5,2|0|0
312,192,148361,2,0,B|288:216|240:248,1,65,0|0
232,160,148694,2,2,B|200:176|172:180,1,65
80,124,149028,6,2,B|64:152|56:196,2,65,0|4|0
136,68,149528,2,0,B|168:64|216:44,1,65,8|0
276,64,149861,1,2
276,64,150028,1,0
352,84,150194,1,8
352,84,150361,1,0
380,156,150528,2,0,B|445:162|500:119,2,130,4|8|2
352,228,151361,2,0,B|360:260|396:296,1,65,0|2
268,284,151694,5,0
268,284,151778,1,0
268,284,151861,2,0,B|261:320|252:346,1,65,4|0
200,201,152194,2,0,B|192:237|184:264,1,65,2|0
116,184,152528,6,0,B|124:157|132:121,1,65,4|0
52,100,152861,2,0,B|60:73|68:37,1,65,2|0
152,40,153194,6,0,B|181:23|221:16,2,65,4|0|2
192,128,153694,2,0,B|257:134|312:91,1,130,4|2
416,104,154194,5,0
416,120,154278,1,0
416,136,154361,1,0
416,152,154444,1,0
416,168,154528,1,4
416,264,154694,6,2,B|436:292|480:312,2,65,2|2|2
320,268,155194,1,4
256,192,155361,2,2,B|188:192,2,65
256,112,155861,6,0,B|288:100|328:92,1,65
256,272,156194,2,0,B|224:284|184:292,1,65
108,192,156528,1,2
108,192,156694,1,2
256,112,157028,6,0,B|321:118|376:75,1,130,6|0
456,104,157528,2,0,B|456:136|473:166,1,65,8|0
448,248,157861,1,0
448,248,158028,1,0
392,308,158195,5,8
392,308,158361,2,0,B|326:313|270:270,1,130,2|0
222,163,158861,2,0,B|208:196|200:224,1,65,8|0
176,304,159195,1,0
176,304,159361,1,0
92,288,159528,5,8
92,288,159695,2,0,B|56:284|24:256,2,65,2|0|0
100,204,160195,1,8
100,204,160361,2,0,B|96:172|108:132,1,65,2|0
160,76,160695,1,0
160,76,160861,1,8
160,76,161028,2,0,B|225:82|280:39,2,130,2|2|2
180,156,161861,1,0
256,192,162028,2,0,B|256:248,2,32.5,2|0|0
332,156,162361,6,0,B|397:162|452:119,1,130,6|0
476,200,162861,2,0,B|469:236|460:268,1,65,8|0
361,323,163195,2,0,B|367:286|376:260,2,65,0|0|8
280,344,163695,6,0,B|215:350|160:307,1,130,2|0
110,179,164195,2,0,B|104:244,1,65,2|0
68,104,164528,2,0,B|44:128|24:168,2,65,2|0|2
172,52,165028,5,0
172,52,165111,1,0
172,52,165195,2,0,B|204:44|248:44,2,65,6|0|0
208,128,165695,1,2
256,296,166028,1,2
304,128,166361,1,2
148,192,166695,5,2
148,192,166861,1,2
148,296,167028,2,0,B|108:296,2,32.5,0|0|2
256,296,167361,2,2,B|256:340,2,32.5,0|0|2
256,192,167695,6,0,B|321:197|377:154,1,130,6|0
436,92,168195,2,0,B|404:76|348:64,1,65,8|0
292,52,168528,1,0
292,52,168695,1,0
216,88,168861,5,8
216,88,169028,2,0,B|151:82|96:125,1,130,2|0
21,163,169528,2,0,B|39:195|64:212,1,65,8|0
64,296,169861,2,0,B|39:312|21:344,2,65,0|0|8
135,252,170361,6,0,B|191:295|257:289,1,130,2|0
336,320,170861,1,8
376,244,171028,2,0,B|419:188|413:123,1,130,2|0
388,44,171528,6,0,B|356:44|323:49,1,65,0|2
256,192,172028,1,2
336,320,172361,1,2
176,320,172695,1,2
84,192,173028,6,0,B|90:127|47:72,1,130,6|0
120,44,173528,1,8
196,40,173695,1,0
256,88,173861,2,0,B|288:104|332:108,2,65,0|0|8
256,192,174361,6,0,B|200:235|135:229,1,130,2|0
68,272,174861,2,0,B|76:308|92:352,1,65,2|0
160,308,175195,2,0,B|192:320|224:336,1,65,2|0
300,280,175528,1,2
300,280,175611,1,0
300,280,175695,1,0
300,280,175778,1,0
300,280,175861,6,0,B|332:284|364:292,2,65,6|0|0
256,192,176361,2,0,B|207:207|175:175|127:192,2,130,2|2|2
256,60,177361,5,2
256,192,177695,1,0
256,192,177861,1,2
256,324,178195,2,0,B|256:368,4,32.5,0|0|0|0|4
