osu file format v12

[General]
AudioFilename: raise.mp3
AudioLeadIn: 1500
PreviewTime: 51105
Countdown: 0
SampleSet: Soft
StackLeniency: 0.7
Mode: 0
LetterboxInBreaks: 0
WidescreenStoryboard: 0

[Editor]
DistanceSpacing: 1
BeatDivisor: 4
GridSize: 4
TimelineZoom: 1

[Metadata]
Title:Raise (TV Size)
TitleUnicode:Raise (TV Size)
Artist:Ogura Yui
ArtistUnicode:小倉 唯
Creator:Sellenite
Version:Easy
Source:Campione!
Tags:カンピオーネ! ~まつろわぬ神々と神殺しの魔王~ ending ed まりや ゆり mariya yuri Kawaiwkyik yf_bmp
BeatmapID:384409
BeatmapSetID:156948

[Difficulty]
HPDrainRate:2
CircleSize:3
OverallDifficulty:2
ApproachRate:3
SliderMultiplier:0.999999999999999
SliderTickRate:1

[Events]
//Background and Video events
Video,159,"campione.flv"
0,0,"bg.jpg",0,0
//Break Periods
//Storyboard Layer 0 (Background)
//Storyboard Layer 1 (Fail)
//Storyboard Layer 2 (Pass)
//Storyboard Layer 3 (Foreground)
//Storyboard Sound Samples
//Background Colour Transformations
3,100,163,162,255

[TimingPoints]
-642,375,4,2,2,50,1,0
951,-100,4,1,1,50,0,0
6858,-100,4,2,1,60,0,0
12858,-100,4,1,1,50,0,0
12951,-100,4,2,1,50,0,0
24858,-100,4,2,3,50,0,0
37233,-100,4,2,1,60,0,0
51389,-100,4,1,1,80,0,0
51576,-100,4,2,1,60,0,0
51858,-100,4,2,1,80,0,1
63483,-100,4,1,1,80,0,0
63576,-100,4,2,1,80,0,0
63858,-100,4,2,1,80,0,1
69670,-100,4,2,1,80,0,0
69858,-100,4,2,1,80,0,1
69951,-100,4,2,1,80,0,0
75858,-100,4,2,1,80,0,1
75951,-100,4,2,1,80,0,0
83358,-100,4,2,1,80,0,0
89264,-100,4,2,1,5,0,0
89451,-100,4,2,1,80,0,0

[Colours]
Combo1 : 255,255,128
Combo2 : 128,255,128
Combo3 : 255,128,128
Combo4 : 128,128,255

[HitObjects]
352,108,858,6,0,P|396:96|456:112,1,99.9999999999999,4|0,0:0|0:0,0:0:0:0:
400,196,1608,2,0,P|352:208|284:184,1,99.9999999999999
216,148,2358,2,0,P|228:99|216:51,1,99.9999999999999,0|0,0:0|0:0,0:0:0:0:
127,99,3108,2,0,P|114:147|126:195,1,99.9999999999999
216,148,3858,5,0,0:0:0:0:
291,333,4608,1,0,0:0:0:0:
89,347,5358,1,0,0:0:0:0:
82,247,5733,2,0,P|51:224|22:221,2,50
160,184,6483,1,4,0:0:0:0:
248,136,6858,6,0,P|344:108|456:148,2,200,4|0|0,0:0|0:0|0:0,0:0:0:0:
340,312,9108,1,0,0:0:0:0:
248,136,9858,6,0,L|256:28,1,99.9999999999999,0|8,0:0|0:0,0:0:0:0:
352,60,10608,2,0,L|434:116,1,99.9999999999999,0|8,0:0|0:0,0:0:0:0:
368,192,11358,2,0,L|277:235,1,99.9999999999999,0|8,0:0|0:0,0:0:0:0:
184,200,12108,1,0,0:0:0:0:
140,292,12483,1,8,0:0:0:0:
56,236,12858,6,0,P|56:160|104:92,1,150,4|8,0:0|0:0,0:0:0:0:
320,208,14358,6,0,P|359:145|358:71,2,150,8|8|0,0:0|0:0|0:0,0:0:0:0:
244,272,15858,2,0,P|296:328|388:344,1,150,8|8,0:0|0:0,0:0:0:0:
320,100,17358,6,0,P|244:84|164:104,2,150,8|8|0,0:0|0:0|0:0,0:0:0:0:
396,164,18858,2,0,P|420:232|384:316,1,150,8|8,0:0|0:0,0:0:0:0:
156,232,20358,6,0,P|228:220|316:236,2,150,8|8|8,0:0|0:0|0:0,0:0:0:0:
60,176,21858,2,0,P|40:252|84:320,2,150,8|8|0,0:0|0:0|0:0,0:0:0:0:
108,88,23358,2,0,L|40:40,2,74.9999999999999,8|8|8,0:0|0:0|0:0,0:0:0:0:
148,116,24108,2,0,L|240:180,1,99.9999999999999,8|8,0:0|0:0,0:0:0:0:
304,104,24858,6,0,P|372:132|446:99,2,150,8|0|8,0:0|0:0|0:0,0:0:0:0:
372,28,26358,2,0,P|304:0|230:33,2,150,8|0|8,0:0|0:0|0:0,0:0:0:0:
304,100,27858,6,0,L|304:212,2,99.9999999999999,8|8|8,0:0|0:0|0:0,0:0:0:0:
216,56,28983,1,8,0:0:0:0:
126,100,29358,2,0,L|26:100,2,99.9999999999999,8|8|8,0:0|0:0|0:0,0:0:0:0:
104,196,30483,1,8,0:0:0:0:
192,248,30858,6,0,P|266:278|393:232,1,200,8|8,0:0|0:0,0:0:0:0:
332,156,31983,1,8,0:0:0:0:
288,64,32358,2,0,L|188:64,2,99.9999999999999,8|8|8,0:0|0:0|0:0,0:0:0:0:
384,112,33483,1,8,0:0:0:0:
444,196,33858,6,0,L|444:308,1,99.9999999999999,8|8,0:0|0:0,0:0:0:0:
348,340,34608,2,0,L|348:240,1,99.9999999999999,8|8,0:0|0:0,0:0:0:0:
252,264,35358,2,0,P|172:280|96:256,1,150,8|8,0:0|0:0,0:0:0:0:
104,164,36295,2,0,L|104:96,1,50,8|0,0:0|0:0,0:0:0:0:
188,60,36858,5,4,0:0:0:0:
288,60,37233,2,0,L|397:61,1,99.9999999999999
461,129,37983,1,8,0:0:0:0:
437,225,38358,2,0,P|429:273|385:317,1,99.9999999999999,0|8,0:0|0:0,0:0:0:0:
340,228,39108,1,2,0:0:0:0:
252,180,39483,2,0,P|204:168|144:184,1,99.9999999999999,2|8,0:0|0:0,0:0:0:0:
64,236,40233,6,0,P|104:276|148:288,1,99.9999999999999
244,308,40983,1,8,0:0:0:0:
344,328,41358,2,0,P|332:248|224:204,1,200,8|8,0:0|0:0,0:0:0:0:
160,131,42483,1,4,0:0:0:0:
89,201,42858,6,0,L|89:305,1,99.9999999999999,0|4,0:0|0:0,0:0:0:0:
177,349,43608,2,0,L|177:249,1,99.9999999999999,0|4,0:0|0:0,0:0:0:0:
265,201,44358,2,0,L|265:313,1,99.9999999999999,0|4,0:0|0:0,0:0:0:0:
353,257,45108,2,0,L|428:257,2,74.9999999999999,8|8|8,0:0|0:0|0:0,0:0:0:0:
256,192,45858,12,4,48858,0:0:0:0:
469,264,49420,5,4,0:0:0:0:
469,164,49795,1,4,0:0:0:0:
469,64,50170,1,4,0:0:0:0:
200,64,51108,5,0,0:0:0:0:
120,120,51483,1,4,0:0:0:0:
200,176,51858,6,0,L|316:176,1,99.9999999999999,4|8,0:0|0:0,0:0:0:0:
388,128,52608,2,0,P|420:88|432:40,2,99.9999999999999,0|8|0,0:0|0:0|0:0,0:0:0:0:
300,176,53733,1,8,0:0:0:0:
384,232,54108,1,0,0:0:0:0:
392,332,54483,1,8,0:0:0:0:
476,280,54858,6,0,P|488:236|468:168,1,99.9999999999999,4|8,0:0|0:0,0:0:0:0:
380,168,55608,2,0,P|336:160|276:172,2,99.9999999999999,0|8|0,0:0|0:0|0:0,0:0:0:0:
480,168,56733,1,8,0:0:0:0:
512,72,57108,1,0,0:0:0:0:
420,36,57483,6,0,P|372:44|312:32,1,99.9999999999999,8|0,0:0|0:0,0:0:0:0:
346,132,58233,2,0,L|374:238,1,99.9999999999999,8|0,0:0|0:0,0:0:0:0:
356,328,58983,1,8,0:0:0:0:
272,276,59358,2,0,P|224:268|164:280,1,99.9999999999999,0|8,0:0|0:0,0:0:0:0:
72,272,60108,2,0,L|120:164,1,99.9999999999999,0|8,0:0|0:0,0:0:0:0:
160,92,60858,5,0,0:0:0:0:
212,176,61233,2,0,P|260:184|316:176,2,99.9999999999999,4|0|8,0:0|0:0|0:0,0:0:0:0:
112,172,62358,2,0,P|72:168|36:172,2,74.9999999999999,8|8|8,0:0|0:0|0:0,0:0:0:0:
124,220,63108,2,0,P|156:264|208:284,1,99.9999999999999,0|4,0:0|0:0,0:0:0:0:
288,320,63858,5,4,0:0:0:0:
296,220,64233,1,8,0:0:0:0:
368,148,64608,1,0,0:0:0:0:
456,196,64983,2,0,P|468:140|448:88,2,99.9999999999999,8|0|8,0:0|0:0|0:0,0:0:0:0:
420,288,66108,2,0,P|376:280|308:296,1,99.9999999999999,0|8,0:0|0:0,0:0:0:0:
228,320,66858,5,0,0:0:0:0:
128,308,67233,1,8,0:0:0:0:
56,240,67608,1,0,0:0:0:0:
88,144,67983,2,0,P|55:115|34:48,2,99.9999999999999,8|0|8,0:0|0:0|0:0,0:0:0:0:
132,56,69108,1,0,0:0:0:0:
212,112,69483,1,8,0:0:0:0:
296,56,69858,6,0,P|364:36|448:60,1,150,4|4,0:0|0:0,0:0:0:0:
368,188,70983,1,0,0:0:0:0:
280,236,71358,2,0,P|212:256|128:232,1,150,4|4,0:0|0:0,0:0:0:0:
208,104,72483,1,2,0:0:0:0:
304,132,72858,6,0,P|376:188|376:292,1,200,8|0,0:0|0:0,0:0:0:0:
296,348,73983,1,8,0:0:0:0:
200,316,74358,2,0,P|162:316|130:334,2,74.9999999999999,8|8|8,0:0|0:0|0:0,0:0:0:0:
72,240,75483,1,8,0:0:0:0:
28,152,75858,6,0,L|180:152,1,150,4|4,0:0|0:0,0:0:0:0:
296,56,76983,1,8,0:0:0:0:
196,56,77358,2,0,L|44:56,1,150,4|4,0:0|0:0,0:0:0:0:
160,152,78483,1,8,0:0:0:0:
244,204,78858,6,0,P|344:248|424:184,1,200,4|0,0:0|0:0,0:0:0:0:
420,104,79983,1,8,0:0:0:0:
332,56,80358,2,0,P|320:108|336:160,1,99.9999999999999,0|8,0:0|0:0,0:0:0:0:
256,192,81108,12,4,83358,0:0:0:0:
88,180,84108,6,0,L|168:268,1,99.9999999999999,0|8,0:0|0:0,0:0:0:0:
228,324,84858,1,0,0:0:0:0:
304,260,85233,1,8,0:0:0:0:
256,172,85608,2,0,P|304:160|356:176,1,99.9999999999999,0|8,0:0|0:0,0:0:0:0:
440,124,86358,6,0,L|440:232,1,99.9999999999999,0|8,0:0|0:0,0:0:0:0:
440,324,87108,2,0,L|320:324,1,99.9999999999999,0|8,0:0|0:0,0:0:0:0:
256,192,87858,12,0,89358,0:0:0:0:
