osu file format v12

[General]
AudioFilename: raise.mp3
AudioLeadIn: 1500
PreviewTime: 51105
Countdown: 0
SampleSet: Soft
StackLeniency: 0.7
Mode: 0
LetterboxInBreaks: 0
WidescreenStoryboard: 0

[Editor]
Bookmarks: 6480,9855,11355,11542,14355,15292,15480,15667,15855,19980,25792,27855,29917,30105,30292,30480,30855,31230,32730,34230,34917,36292,60855,61230,61605,61980,72855,87292,87386,87480
DistanceSpacing: 1.5
BeatDivisor: 4
GridSize: 4
TimelineZoom: 1.899999

[Metadata]
Title:Raise (TV Size)
TitleUnicode:Raise (TV Size)
Artist:Ogura Yui
ArtistUnicode:小倉 唯
Creator:Sellenite
Version:Champion
Source:Campione!
Tags:カンピオーネ! ~まつろわぬ神々と神殺しの魔王~ ending ed まりや ゆり mariya yuri Kawaiwkyik yf_bmp
BeatmapID:384411
BeatmapSetID:156948

[Difficulty]
HPDrainRate:7
CircleSize:4
OverallDifficulty:8
ApproachRate:9
SliderMultiplier:1.9
SliderTickRate:1

[Events]
//Background and Video events
Video,159,"campione.flv"
0,0,"bg.jpg",0,0
//Break Periods
//Storyboard Layer 0 (Background)
//Storyboard Layer 1 (Fail)
//Storyboard Layer 2 (Pass)
//Storyboard Layer 3 (Foreground)
//Storyboard Sound Samples
//Background Colour Transformations
3,100,163,162,255

[TimingPoints]
-642,375,4,2,1,40,1,0
2264,-100,4,2,1,42,0,0
2639,-100,4,2,1,44,0,0
2826,-100,4,2,1,46,0,0
3014,-100,4,2,1,48,0,0
3201,-100,4,2,1,50,0,0
3483,-100,4,2,1,45,0,0
3764,-100,4,2,1,50,0,0
3951,-100,4,2,1,45,0,0
4514,-100,4,2,1,50,0,0
4701,-100,4,2,1,45,0,0
5358,-100,4,2,1,50,0,0
6108,-100,4,2,1,52,0,0
6170,-100,4,2,1,54,0,0
6295,-100,4,2,1,56,0,0
6420,-100,4,2,1,58,0,0
6483,-100,4,2,1,50,0,0
6858,-100,4,1,1,50,0,0
6951,-100,4,2,1,50,0,0
10608,-100,4,2,1,60,0,0
10701,-100,4,2,1,50,0,0
11264,-100,4,2,1,60,0,0
11358,-100,4,2,1,54,0,0
11733,-100,4,2,1,56,0,0
12108,-100,4,2,2,38,0,0
12201,-100,4,2,2,37,0,0
12295,-100,4,2,2,36,0,0
12389,-100,4,2,2,35,0,0
12483,-100,4,2,2,34,0,0
12576,-100,4,2,2,32,0,0
12670,-100,4,2,2,31,0,0
12764,-100,4,2,2,30,0,0
12858,-133.333333333333,4,1,1,50,0,0
12951,-133.333333333333,4,2,1,30,0,0
24670,-100,4,2,3,30,0,0
24858,-100,4,2,3,50,0,0
24951,-100,4,2,3,30,0,0
25139,-100,4,2,3,50,0,0
25326,-100,4,2,3,30,0,0
25514,-100,4,2,3,50,0,0
25701,-100,4,2,3,30,0,0
25889,-100,4,2,3,50,0,0
26076,-100,4,2,3,30,0,0
26264,-100,4,2,3,50,0,0
26451,-100,4,2,3,30,0,0
26639,-100,4,2,3,50,0,0
26826,-100,4,2,3,30,0,0
27014,-100,4,2,3,50,0,0
27201,-100,4,2,3,30,0,0
27389,-100,4,2,3,50,0,0
27576,-100,4,2,3,30,0,0
27764,-100,4,2,3,50,0,0
28326,-100,4,2,3,30,0,0
28514,-100,4,2,3,50,0,0
28701,-100,4,2,3,30,0,0
28889,-100,4,2,3,50,0,0
29076,-100,4,2,3,30,0,0
29264,-100,4,2,3,50,0,0
29826,-100,4,2,3,30,0,0
30014,-100,4,2,3,50,0,0
30201,-100,4,2,3,30,0,0
30389,-100,4,2,3,50,0,0
30576,-100,4,2,3,30,0,0
30764,-100,4,2,3,50,0,0
30951,-100,4,2,3,30,0,0
31139,-100,4,2,3,50,0,0
31326,-100,4,2,3,30,0,0
31514,-100,4,2,3,50,0,0
32076,-100,4,2,3,30,0,0
32264,-100,4,2,3,50,0,0
32451,-100,4,2,3,30,0,0
32639,-100,4,2,3,50,0,0
32826,-100,4,2,3,30,0,0
33014,-100,4,2,3,50,0,0
33576,-100,4,2,3,30,0,0
33764,-100,4,2,3,50,0,0
33951,-100,4,2,3,30,0,0
34139,-100,4,2,3,50,0,0
34326,-100,4,2,3,30,0,0
34514,-100,4,2,3,50,0,0
34701,-100,4,2,3,30,0,0
34889,-100,4,2,3,50,0,0
35076,-100,4,2,3,30,0,0
35264,-100,4,2,3,50,0,0
35451,-100,4,2,3,30,0,0
35639,-100,4,2,3,50,0,0
36014,-100,4,2,3,50,0,0
36201,-100,4,2,3,30,0,0
36295,-100,4,2,3,50,0,0
36389,-100,4,2,3,30,0,0
36483,-100,4,2,3,50,0,0
36576,-100,4,2,3,30,0,0
36670,-100,4,2,3,50,0,0
36764,-100,4,2,3,30,0,0
37045,-100,4,2,3,30,0,0
37139,-117.647058823529,4,2,1,60,0,0
37889,-117.647058823529,4,2,1,50,0,0
38076,-117.647058823529,4,2,1,40,0,0
38639,-117.647058823529,4,2,1,50,0,0
38826,-117.647058823529,4,2,1,40,0,0
39201,-117.647058823529,4,2,1,50,0,0
39576,-117.647058823529,4,2,1,40,0,0
39764,-117.647058823529,4,2,1,50,0,0
39951,-117.647058823529,4,2,1,40,0,0
40889,-100,4,2,1,50,0,0
41920,-100,4,2,1,40,0,0
42014,-100,4,2,1,50,0,0
42483,-100,4,2,1,60,0,0
51483,-100,4,1,1,80,0,0
51576,-100,4,2,1,60,0,0
51858,-100,4,2,1,80,0,1
60201,-100,4,2,1,5,0,1
60295,-100,4,2,1,80,0,1
63483,-100,4,1,1,80,0,0
63576,-100,4,2,1,80,0,0
63858,-100,4,2,1,80,0,1
69764,-100,4,2,1,80,0,0
69858,-100,4,2,1,80,0,1
69951,-100,4,2,1,80,0,0
75858,-100,4,2,1,80,0,1
75951,-100,4,2,1,80,0,0
82795,-100,4,2,2,40,0,0
82889,-100,4,2,2,38,0,0
82983,-100,4,2,2,36,0,0
83076,-100,4,2,2,34,0,0
83170,-100,4,2,2,32,0,0
83264,-100,4,2,2,30,0,0
83358,-100,4,2,1,50,0,0
89264,-100,4,2,1,5,0,0
89451,-100,4,2,1,60,0,0

[Colours]
Combo1 : 255,255,128
Combo2 : 128,255,128
Combo3 : 255,128,128
Combo4 : 128,128,255

[HitObjects]
165,90,670,38,0,L|112:88,2,31.6666666666667
216,90,858,2,0,L|332:90,1,95,4|0,0:0|0:0,0:0:0:0:
412,191,1233,1,0,0:0:0:0:
280,244,1420,1,0,0:0:0:0:
142,205,1608,2,0,P|130:249|150:313,1,95,0|0,0:0|0:0,0:0:0:0:
164,336,1889,2,0,L|260:336,1,95,0|0,0:0|0:0,0:0:0:0:
288,336,2170,1,0,0:0:0:0:
424,292,2358,5,2,0:0:0:0:
476,160,2545,1,2,0:0:0:0:
334,138,2733,1,0,0:0:0:0:
345,279,2920,1,0,0:0:0:0:
404,149,3108,1,0,0:0:0:0:
252,84,3295,1,0,0:0:0:0:
252,84,3389,1,0,0:0:0:0:
252,84,3483,2,0,L|252:216,1,95,0|8,0:0|0:0,0:0:0:0:
252,321,3858,5,4,0:0:0:0:
151,220,4045,1,2,0:0:0:0:
151,220,4139,1,2,0:0:0:0:
320,92,4420,1,8,0:0:0:0:
252,220,4608,1,4,0:0:0:0:
151,119,4795,1,2,0:0:0:0:
151,119,4889,1,2,0:0:0:0:
352,191,5170,5,2,0:0:0:0:
352,191,5264,1,2,0:0:0:0:
352,191,5358,2,0,P|396:224|424:296,1,95,4|4,0:0|0:0,0:0:0:0:
288,320,5733,1,4,0:0:0:0:
187,219,5920,2,0,L|235:219,1,47.5,4|0,0:0|0:0,0:0:0:0:
311,148,6108,2,0,L|264:148,1,47.5,4|4,0:0|0:0,0:0:0:0:
184,80,6295,2,0,L|231:80,1,47.5,4|4,0:0|0:0,0:0:0:0:
312,12,6483,2,0,L|280:12,5,31.6666666666667
352,12,6858,6,0,P|392:40|416:84,1,95,4|0,0:0|0:0,0:0:0:0:
375,216,7233,2,0,P|335:188|311:144,1,95,2|0,0:0|0:0,0:0:0:0:
312,291,7608,1,2,0:0:0:0:
211,190,7795,2,0,L|212:260,1,47.5
211,309,7983,2,0,P|164:320|108:304,1,95,0|0,0:0|0:0,0:0:0:0:
18,208,8358,5,8,0:0:0:0:
148,148,8545,1,8,0:0:0:0:
32,64,8733,2,0,L|82:166,1,95,0|2,0:0|0:0,0:0:0:0:
212,116,9108,2,0,P|256:104|312:104,1,95,2|2,0:0|0:0,0:0:0:0:
332,108,9389,1,2,0:0:0:0:
360,116,9483,1,0,0:0:0:0:
288,240,9670,1,2,0:0:0:0:
152,196,9858,6,12,L|152:308,1,95,8|0,0:0|0:0,0:0:0:0:
152,319,10139,1,8,0:0:0:0:
152,347,10233,1,0,0:0:0:0:
244,240,10420,1,8,0:0:0:0:
80,96,10608,1,8,0:0:0:0:
212,44,10795,1,0,0:0:0:0:
212,44,10889,1,8,0:0:0:0:
212,44,10983,2,12,P|256:36|312:44,1,95,0|8,0:0|0:0,0:0:0:0:
456,123,11358,6,0,P|444:76|456:11,1,95,8|8,0:0|0:0,0:0:0:0:
356,142,11733,2,0,P|356:196|326:272,1,95,8|8,0:0|0:0,0:0:0:0:
333,258,12014,1,8,0:0:0:0:
319,283,12108,5,10,0:0:0:0:
300,304,12201,1,10,0:0:0:0:
276,320,12295,1,10,0:0:0:0:
250,333,12389,1,10,0:0:0:0:
221,338,12483,1,10,0:0:0:0:
192,338,12576,1,10,0:0:0:0:
163,333,12670,1,10,0:0:0:0:
136,322,12764,1,10,0:0:0:0:
110,308,12858,6,0,P|66:243|59:162,1,142.500005435944,4|0,0:0|0:0,0:0:0:0:
101,84,13420,2,0,P|145:149|152:230,1,142.500005435944,8|0,0:0|0:0,0:0:0:0:
57,181,13983,5,0,0:0:0:0:
101,84,14170,1,8,0:0:0:0:
203,115,14358,2,0,P|277:135|362:103,1,142.500005435944,8|0,0:0|0:0,0:0:0:0:
433,69,14920,1,8,0:0:0:0:
396,280,15295,5,2,0:0:0:0:
320,204,15483,1,2,0:0:0:0:
213,204,15670,1,2,0:0:0:0:
137,279,15858,2,0,P|60:296|-16:264,1,142.500005435944,8|0,0:0|0:0,0:0:0:0:
72,196,16420,5,8,0:0:0:0:
72,196,16514,1,0,0:0:0:0:
72,196,16608,2,0,P|104:180|164:180,1,71.2500027179719,0|0,0:0|0:0,0:0:0:0:
190,189,16889,2,0,P|238:198|298:189,1,106.875004076958,0|8,0:0|0:0,0:0:0:0:
400,164,17358,6,0,L|464:234,1,71.2500027179719,8|2,0:0|0:0,0:0:0:0:
344,248,17733,2,0,L|380:335,1,71.2500027179719,2|8,0:0|0:0,0:0:0:0:
264,308,18108,2,0,L|268:402,1,71.2500027179719,2|2,0:0|0:0,0:0:0:0:
164,348,18483,1,2,0:0:0:0:
96,224,18670,1,0,0:0:0:0:
80,200,18764,1,0,0:0:0:0:
72,172,18858,6,0,P|64:108|80:48,2,106.875004076958,8|0|8,0:0|0:0|0:0,0:0:0:0:
168,124,19608,2,0,L|260:124,2,71.2500027179719,2|2|2,0:0|0:0|0:0,0:0:0:0:
228,36,20170,1,8,0:0:0:0:
328,76,20358,6,0,P|340:132|320:196,2,106.875004076958,8|8|8,0:0|0:0|0:0,0:0:0:0:
416,136,21108,2,0,B|400:200|449:277,1,142.500005435944,2|8,0:0|0:0,0:0:0:0:
344,244,21670,1,0,0:0:0:0:
320,232,21764,1,0,0:0:0:0:
292,224,21858,2,0,P|264:220|208:228,1,71.2500027179719,8|2,0:0|0:0,0:0:0:0:
132,284,22233,2,0,P|96:288|61:284,1,71.2500027179719,2|8,0:0|0:0,0:0:0:0:
28,184,22608,1,2,0:0:0:0:
120,132,22795,2,0,P|155:127|190:131,1,71.2500027179719,2|2,0:0|0:0,0:0:0:0:
288,172,23170,1,8,0:0:0:0:
396,168,23358,6,0,P|444:140|484:96,1,106.875004076958,8|8,0:0|0:0,0:0:0:0:
320,76,23920,2,0,L|268:76,2,35.625001358986,8|2|8,0:0|0:0|0:0,0:0:0:0:
296,180,24295,2,0,L|272:272,1,71.2500027179719
376,308,24670,1,0,0:0:0:0:
140,216,24858,6,0,P|96:208|45:216,1,95,4|0,0:0|0:0,0:0:0:0:
147,316,25233,2,0,P|191:324|242:316,1,95,8|0,0:0|0:0,0:0:0:0:
196,180,25608,1,8,0:0:0:0:
328,128,25795,2,0,P|376:108|428:60,1,95,0|8,0:0|0:0,0:0:0:0:
272,44,26170,1,0,0:0:0:0:
196,180,26358,6,0,P|188:232|200:304,1,95,8|0,0:0|0:0,0:0:0:0:
320,340,26733,2,0,P|326:293|320:240,1,95,8|0,0:0|0:0,0:0:0:0:
288,100,27108,1,8,0:0:0:0:
404,184,27295,2,0,L|488:244,1,95,0|8,0:0|0:0,0:0:0:0:
484,96,27670,1,0,0:0:0:0:
484,96,27858,6,0,P|412:48|288:52,1,190,8|8,0:0|0:0,0:0:0:0:
208,140,28420,1,0,0:0:0:0:
344,188,28608,2,0,P|352:140|328:76,1,95,8|0,0:0|0:0,0:0:0:0:
208,40,28983,2,0,L|84:92,1,95,8|0,0:0|0:0,0:0:0:0:
180,208,29358,6,0,L|98:315,1,95,8|0,0:0|0:0,0:0:0:0:
104,308,29639,1,0,0:0:0:0:
88,332,29733,1,8,0:0:0:0:
228,308,29920,2,0,P|280:300|344:320,1,95,0|8,0:0|0:0,0:0:0:0:
444,236,30295,1,0,0:0:0:0:
444,236,30389,1,0,0:0:0:0:
444,236,30483,1,8,0:0:0:0:
444,93,30670,6,0,L|444:141,1,47.5,0|0,0:0|0:0,0:0:0:0:
376,160,30858,2,0,P|328:172|264:144,1,95,8|0,0:0|0:0,0:0:0:0:
160,92,31233,2,0,P|121:119|91:155,1,95,8|0,0:0|0:0,0:0:0:0:
0,268,31608,2,0,P|90:292|181:268,1,190,8|8,0:0|0:0,0:0:0:0:
244,140,32170,1,0,0:0:0:0:
116,76,32358,6,0,P|96:148|124:224,1,142.5,8|0,0:0|0:0,0:0:0:0:
176,252,32733,2,0,P|188:204|160:152,1,95,8|0,0:0|0:0,0:0:0:0:
272,60,33108,2,0,P|368:56|464:104,1,190,8|8,0:0|0:0,0:0:0:0:
451,236,33670,1,0,0:0:0:0:
324,304,33858,6,0,P|304:232|328:164,1,142.5,8|0,0:0|0:0,0:0:0:0:
364,112,34233,2,0,P|320:120|264:108,1,95,8|0,0:0|0:0,0:0:0:0:
144,48,34608,2,0,P|160:120|132:204,1,142.5
96,236,34983,2,0,L|208:236,1,95,8|0,0:0|0:0,0:0:0:0:
352,156,35358,2,0,L|304:156,1,47.5,8|0,0:0|0:0,0:0:0:0:
180,88,35639,2,0,L|227:88,1,47.5,8|0,0:0|0:0,0:0:0:0:
100,24,35920,2,0,P|80:92|120:172,1,142.5,8|0,0:0|0:0,0:0:0:0:
200,156,36295,2,0,L|240:156,3,31.6666666666667
268,232,36670,6,0,L|240:272,1,47.5,8|0,0:0|0:0,0:0:0:0:
188,352,36858,1,4,0:0:0:0:
384,352,37233,6,0,L|501:352,2,80.750001540184,2|8|2,0:0|0:0|0:0,0:0:0:0:
292,260,37795,1,0,0:0:0:0:
388,180,37983,2,0,P|432:188|500:168,1,80.750001540184,8|2,0:0|0:0,0:0:0:0:
356,84,38358,2,0,P|312:76|248:92,1,80.750001540184,8|2,0:0|0:0,0:0:0:0:
136,112,38733,2,0,P|128:71|148:24,1,80.750001540184,8|0,0:0|0:0,0:0:0:0:
228,128,39014,2,0,P|244:200|224:256,1,121.125002310276,2|8,0:0|0:0,0:0:0:0:
124,188,39483,5,8,0:0:0:0:
344,172,39670,1,2,0:0:0:0:
268,352,39858,1,8,0:0:0:0:
136,112,40233,5,2,0:0:0:0:
248,276,40420,1,8,0:0:0:0:
368,112,40608,2,0,L|268:112,1,80.750001540184,2|0,0:0|0:0,0:0:0:0:
380,256,40983,2,0,P|432:276|505:257,1,95,8|0,0:0|0:0,0:0:0:0:
464,64,41358,6,0,L|436:184,1,95,8|0,0:0|0:0,0:0:0:0:
344,296,41733,2,0,L|328:196,1,95,0|8,0:0|0:0,0:0:0:0:
324,172,42014,1,0,0:0:0:0:
320,144,42108,1,0,0:0:0:0:
316,116,42201,1,0,0:0:0:0:
312,88,42295,1,0,0:0:0:0:
308,60,42389,1,0,0:0:0:0:
304,32,42483,1,4,0:0:0:0:
48,312,42858,5,0,0:0:0:0:
152,228,43045,1,0,0:0:0:0:
152,228,43139,1,0,0:0:0:0:
152,228,43233,1,12,0:0:0:0:
336,328,43420,1,2,0:0:0:0:
472,176,43608,5,2,0:0:0:0:
276,244,43795,1,0,0:0:0:0:
276,244,43889,1,0,0:0:0:0:
276,244,43983,1,12,0:0:0:0:
104,112,44170,1,2,0:0:0:0:
352,40,44358,5,0,0:0:0:0:
376,228,44545,1,0,0:0:0:0:
376,228,44639,1,0,0:0:0:0:
376,228,44733,1,12,0:0:0:0:
96,180,45108,5,4,0:2:0:0:
292,268,45389,1,4,0:2:0:0:
320,56,45670,1,4,0:2:0:0:
180,80,45858,2,0,P|216:168|168:268,1,190,8|2,0:0|0:0,0:0:0:0:
48,296,46420,1,2,0:0:0:0:
140,184,46608,2,8,P|208:176|296:192,1,142.5,8|0,0:0|0:0,0:0:0:0:
348,212,46983,1,2,0:0:0:0:
264,352,47170,1,2,0:0:0:0:
140,184,47358,1,2,0:0:0:0:
348,212,47545,6,0,B|416:216|416:216|476:168|512:84,1,190,8|0,0:0|0:0,0:0:0:0:
336,32,48108,1,8,0:0:0:0:
216,108,48295,2,0,P|168:112|120:108,1,95,0|8,0:0|0:0,0:0:0:0:
384,88,48670,5,0,0:0:0:0:
404,108,48764,1,0,0:0:0:0:
420,132,48858,2,0,P|436:172|436:240,1,95,12|8,0:0|0:0,0:0:0:0:
68,304,49420,1,4,0:0:0:0:
284,40,49795,1,4,0:0:0:0:
432,348,50170,1,4,0:0:0:0:
244,136,50545,5,2,0:0:0:0:
206,274,50733,1,2,0:0:0:0:
379,172,50920,1,2,0:0:0:0:
342,311,51108,1,10,0:0:0:0:
244,136,51295,2,0,L|192:184,1,47.5,2|0,0:0|0:0,0:0:0:0:
141,236,51483,2,0,L|28:128,1,142.5,4|0,0:0|0:0,0:0:0:0:
121,55,51858,6,0,P|166:65|211:51,1,95,4|0,0:0|0:0,0:0:0:0:
345,185,52233,1,8,0:0:0:0:
211,318,52420,2,0,L|248:284,1,47.5
314,217,52608,2,0,L|346:317,1,95
408,276,52889,1,0,0:0:0:0:
448,216,52983,2,0,P|456:172|446:116,1,95,8|0,0:0|0:0,0:0:0:0:
288,20,53358,6,0,P|280:64|290:120,1,95,0|0,0:0|0:0,0:0:0:0:
300,140,53639,1,0,0:0:0:0:
316,164,53733,1,8,0:0:0:0:
144,84,53920,2,0,L|92:132,2,47.5
276,220,54295,2,0,L|240:180,1,47.5
168,240,54483,2,0,P|156:308|112:368,1,142.5,8|0,0:0|0:0,0:0:0:0:
196,328,54858,6,0,L|292:328,1,95,0|0,0:0|0:0,0:0:0:0:
204,72,55233,1,8,0:0:0:0:
128,184,55420,1,0,0:0:0:0:
128,184,55514,1,0,0:0:0:0:
128,184,55608,2,0,P|200:200|284:180,1,142.5,0|0,0:0|0:0,0:0:0:0:
332,120,55983,2,0,P|384:112|436:124,1,95,8|0,0:0|0:0,0:0:0:0:
376,304,56358,6,0,P|328:312|272:300,1,95
192,240,56639,2,0,L|140:264,1,47.5,0|8,0:0|0:0,0:0:0:0:
299,189,56920,5,2,0:0:0:0:
39,311,57108,1,2,0:0:0:0:
181,61,57295,1,2,0:0:0:0:
214,344,57483,1,2,0:0:0:0:
18,134,57670,1,2,0:0:0:0:
300,188,57858,6,0,L|121:273,1,190,12|8,0:0|0:0,0:0:0:0:
244,56,58420,1,2,0:0:0:0:
232,220,58608,1,0,0:0:0:0:
96,64,58795,2,0,L|148:120,1,47.5,2|2,0:0|0:0,0:0:0:0:
180,160,58983,1,8,0:0:0:0:
376,160,59170,2,0,L|304:160,1,47.5
384,244,59358,6,0,P|424:288|480:320,1,95,2|0,0:0|0:0,0:0:0:0:
264,284,59733,2,0,P|248:336|200:380,1,95,8|2,0:0|0:0,0:0:0:0:
32,366,60108,2,0,L|79:366,1,47.5,0|2,0:0|0:0,0:0:0:0:
156,288,60295,2,0,L|108:288,1,47.5,2|2,0:0|0:0,0:0:0:0:
80,168,60483,2,0,L|176:168,1,95,8|0,0:0|0:0,0:0:0:0:
328,48,60858,5,8,0:0:0:0:
400,168,61045,1,2,0:0:0:0:
400,168,61139,1,2,0:0:0:0:
400,168,61233,2,0,P|436:136|464:80,1,95,0|0,0:0|0:0,0:0:0:0:
436,284,61608,2,0,P|397:292|341:284,1,95,8|2,0:0|0:0,0:0:0:0:
268,72,61983,5,8,0:0:0:0:
376,204,62170,1,8,0:0:0:0:
244,312,62358,1,0,0:0:0:0:
136,180,62545,1,2,0:0:0:0:
252,168,62639,6,0,L|296:224,1,47.5,8|0,0:0|0:0,0:0:0:0:
256,375,62920,1,8,0:0:0:0:
114,299,63108,5,8,0:0:0:0:
115,271,63201,1,0,0:0:0:0:
113,242,63295,1,0,0:0:0:0:
105,214,63389,1,0,0:0:0:0:
98,186,63483,1,4,0:0:0:0:
84,160,63576,1,0,0:0:0:0:
67,136,63670,1,0,0:0:0:0:
49,114,63764,1,0,0:0:0:0:
25,97,63858,6,0,P|121:109|213:65,1,190,4|8,0:0|0:0,0:0:0:0:
105,214,64420,1,0,0:0:0:0:
264,308,64608,2,0,L|359:308,1,95,0|0,0:0|0:0,0:0:0:0:
384,244,64889,1,0,0:0:0:0:
360,180,64983,2,0,L|264:180,1,95,8|0,0:0|0:0,0:0:0:0:
80,140,65358,6,0,P|68:188|88:244,1,95,0|0,0:0|0:0,0:0:0:0:
268,180,65733,1,8,0:0:0:0:
152,32,65920,1,0,0:0:0:0:
360,180,66108,2,0,P|376:104|356:36,1,142.5,0|0,0:0|0:0,0:0:0:0:
184,116,66483,2,0,P|168:192|188:260,1,142.5,8|0,0:0|0:0,0:0:0:0:
292,348,66858,6,0,P|300:296|276:232,1,95,0|0,0:0|0:0,0:0:0:0:
184,116,67233,1,8,0:0:0:0:
292,256,67420,2,0,L|328:208,1,47.5
396,112,67608,2,0,P|436:140|524:152,1,95,0|0,0:0|0:0,0:0:0:0:
448,340,67983,2,0,L|448:220,1,95,8|0,0:0|0:0,0:0:0:0:
345,34,68358,6,0,P|358:97|330:179,1,142.5,0|0,0:0|0:0,0:0:0:0:
248,128,68733,2,0,P|208:120|132:136,1,95,8|2,0:0|0:0,0:0:0:0:
320,292,69108,5,2,0:0:0:0:
104,76,69295,1,2,0:0:0:0:
336,116,69483,1,8,0:0:0:0:
144,240,69670,1,8,0:0:0:0:
449,220,69858,5,4,0:0:0:0:
449,220,69951,1,0,0:0:0:0:
362,362,70139,1,4,0:0:0:0:
248,128,70420,1,4,0:0:0:0:
176,360,70795,1,0,0:0:0:0:
356,256,70983,5,8,0:0:0:0:
48,256,71170,1,8,0:0:0:0:
316,120,71358,1,4,0:0:0:0:
204,312,71639,1,4,0:0:0:0:
68,64,71920,6,0,P|136:32|256:44,1,190,4|0,0:0|0:0,0:0:0:0:
276,52,72389,1,2,0:0:0:0:
300,68,72483,1,2,0:0:0:0:
381,186,72670,1,0,0:0:0:0:
381,186,72764,1,0,0:0:0:0:
381,186,72858,6,0,P|340:204|252:204,1,95,8|0,0:0|0:0,0:0:0:0:
144,144,73233,2,8,L|116:236,1,95
92,316,73514,2,0,L|240:316,1,142.5,0|8,0:0|0:0,0:0:0:0:
144,144,73983,1,8,0:0:0:0:
280,248,74170,1,0,0:0:0:0:
264,28,74358,6,0,P|284:88|340:136,1,95,8|0,0:0|0:0,0:0:0:0:
352,164,74639,2,0,L|200:164,1,142.5,8|8,0:0|0:0,0:0:0:0:
66,164,75108,2,0,L|46:232,1,47.5,8|0,0:0|0:0,0:0:0:0:
178,308,75295,2,0,L|202:232,1,47.5,0|0,0:0|0:0,0:0:0:0:
162,124,75483,2,0,L|122:248,1,95,8|8,0:0|0:0,0:0:0:0:
328,192,75858,6,0,L|423:192,1,95,4|0,0:0|0:0,0:0:0:0:
480,280,76139,2,0,L|432:280,1,47.5,4|0,0:0|0:0,0:0:0:0:
480,80,76420,2,0,L|480:127,1,47.5,4|0,0:0|0:0,0:0:0:0:
265,127,76795,1,2,0:0:0:0:
368,228,76983,2,0,P|336:256|260:272,1,95,8|8,0:0|0:0,0:0:0:0:
232,60,77358,5,6,0:0:0:0:
172,336,77639,1,4,0:0:0:0:
8,104,77920,1,4,0:0:0:0:
164,212,78108,6,0,L|192:232,3,31.6666666666667,0|0|0|2,0:0|0:0|0:0|0:0,0:0:0:0:
200,160,78389,2,0,L|232:100,1,47.5,2|2,0:0|0:0,0:0:0:0:
360,160,78670,1,0,0:0:0:0:
376,184,78764,1,0,0:0:0:0:
388,208,78858,6,0,P|396:256|384:304,1,95,8|0,0:0|0:0,0:0:0:0:
248,256,79233,1,8,0:0:0:0:
120,316,79420,1,0,0:0:0:0:
120,316,79514,2,0,B|168:356|168:356|280:356,1,142.5,8|0,0:0|0:0,0:0:0:0:
344,252,79983,2,0,L|344:132,1,95,8|0,0:0|0:0,0:0:0:0:
208,116,80358,5,8,0:0:0:0:
56,276,80545,1,2,0:0:0:0:
84,280,80639,2,0,L|172:292,1,47.5,2|0,0:0|0:0,0:0:0:0:
312,104,80920,1,2,0:0:0:0:
312,104,81014,1,2,0:0:0:0:
312,104,81108,5,2,0:0:0:0:
444,332,81389,1,2,0:0:0:0:
96,184,81670,1,2,0:0:0:0:
184,304,81858,5,2,0:0:0:0:
460,116,82139,1,2,0:0:0:0:
164,52,82420,1,2,0:0:0:0:
264,180,82608,5,2,0:0:0:0:
368,68,82795,1,10,0:0:0:0:
384,92,82889,1,10,0:0:0:0:
396,120,82983,1,10,0:0:0:0:
404,148,83076,1,10,0:0:0:0:
408,176,83170,1,10,0:0:0:0:
412,204,83264,1,10,0:0:0:0:
412,232,83358,6,0,P|408:284|392:328,1,95,4|0,0:0|0:0,0:0:0:0:
260,272,83733,2,0,P|222:301|192:350,1,95,8|0,0:0|0:0,0:0:0:0:
112,176,84108,1,8,0:0:0:0:
276,96,84295,1,8,0:0:0:0:
276,96,84389,2,0,B|304:148|304:148|304:196|264:252,1,142.5,8|8,0:0|0:0,0:0:0:0:
132,164,84858,5,8,0:0:0:0:
252,364,85045,1,8,0:0:0:0:
452,188,85233,1,8,0:0:0:0:
184,300,85420,1,8,0:0:0:0:
316,64,85608,1,8,0:0:0:0:
376,212,85795,1,8,0:0:0:0:
376,212,85889,2,0,B|324:240|324:240|272:236|224:188,1,142.5,8|8,0:0|0:0,0:0:0:0:
316,64,86358,5,8,0:0:0:0:
104,200,86545,1,2,0:0:0:0:
104,200,86639,1,2,0:0:0:0:
104,200,86733,1,2,0:0:0:0:
256,104,86920,1,8,0:0:0:0:
396,316,87108,5,8,0:0:0:0:
426,150,87295,1,2,0:0:0:0:
432,120,87389,1,2,0:0:0:0:
436,92,87483,1,2,0:0:0:0:
144,132,87670,1,8,0:0:0:0:
284,316,87858,5,8,0:0:0:0:
304,148,88045,2,0,L|380:248,1,95,2|8,0:0|0:0,0:0:0:0:
212,268,88420,1,0,0:0:0:0:
212,268,88514,1,0,0:0:0:0:
212,268,88608,1,0,0:0:0:0:
256,192,88701,12,2,89358,0:0:0:0:
