osu file format v14

[General]
AudioFilename: Raise.mp3
AudioLeadIn: 1500
PreviewTime: 51121
Countdown: 0
SampleSet: Soft
StackLeniency: 0.7
Mode: 0
LetterboxInBreaks: 0
WidescreenStoryboard: 0

[Editor]
DistanceSpacing: 1
BeatDivisor: 4
GridSize: 8
TimelineZoom: 1

[Metadata]
Title:Raise
TitleUnicode:Raise
Artist:Ogura Yui
ArtistUnicode:小倉唯
Creator:ShiraKai
Version:Normal
Source:カンピオーネ! 〜まつろわぬ神々と神殺しの魔王〜
Tags:kaCha Ryafuka Tari taris campione! ending tv size
BeatmapID:389464
BeatmapSetID:64481

[Difficulty]
HPDrainRate:4
CircleSize:3
OverallDifficulty:4
ApproachRate:5
SliderMultiplier:1.2
SliderTickRate:1

[Events]
//Background and Video events
Video,225,"movie.avi"
0,0,"bg.jpg",0,0
//Break Periods
//Storyboard Layer 0 (Background)
//Storyboard Layer 1 (Fail)
//Storyboard Layer 2 (Pass)
//Storyboard Layer 3 (Foreground)
//Storyboard Sound Samples

[TimingPoints]
-629,375,4,2,2,40,1,0
3871,-100,4,2,1,40,0,0
6777,-100,4,1,1,50,0,0
6964,-100,4,2,1,50,0,0
12496,-100,4,2,1,40,0,0
23371,-100,4,2,1,50,0,0
51871,-100,4,2,1,70,0,1
63777,-100,4,2,1,70,0,0
63871,-100,4,2,1,70,0,1
69871,-100,4,2,1,50,0,1
70527,-100,4,2,1,70,0,1
71371,-100,4,2,1,50,0,1
72027,-100,4,2,1,70,0,1
75871,-100,4,2,1,50,0,1
76527,-100,4,2,1,70,0,1
77371,-100,4,2,1,50,0,1
78027,-100,4,2,1,70,0,1
81121,-100,4,2,1,50,0,0

[Colours]
Combo1 : 128,128,192
Combo2 : 255,0,0
Combo3 : 255,255,255
Combo4 : 255,255,0

[HitObjects]
35,141,871,6,0,P|90:153|161:134,1,120,4|0,0:0|0:0,0:0:0:0:
229,47,1621,2,0,P|284:35|355:54,1,120,2|0,0:0|0:0,0:0:0:0:
451,105,2371,1,2,0:0:0:0:
349,169,2746,1,0,0:0:0:0:
455,223,3121,1,2,0:0:0:0:
471,341,3496,1,0,0:0:0:0:
354,305,3871,6,0,P|295:296|236:306,1,120,8|0,0:0|0:0,0:0:0:0:
123,346,4621,2,0,L|145:212,1,120,8|0,0:0|0:0,0:0:0:0:
233,149,5371,2,0,L|213:30,2,120,8|8|8,0:0|0:0|0:0,0:0:0:0:
258,266,6496,1,2,3:0:0:0:
361,327,6871,6,0,P|420:328|478:311,1,120,4|0,0:0|0:0,0:0:0:0:
463,190,7621,2,0,L|344:207,1,120,8|0,0:0|0:0,0:0:0:0:
224,219,8371,2,0,P|213:188|195:164,1,60,8|0,0:0|0:0,0:0:0:0:
170,112,8746,2,0,P|136:106|107:89,1,60,8|0,0:0|0:0,0:0:0:0:
57,74,9121,2,0,L|44:202,1,120,8|0,0:0|0:0,0:0:0:0:
52,315,9871,6,0,P|111:327|189:308,1,120,4|0,1:0|0:0,0:0:0:0:
275,262,10621,2,0,P|325:228|366:160,1,120,8|0,0:0|0:0,0:0:0:0:
273,94,11371,2,0,P|222:127|181:195,2,120,8|8|8,0:0|0:0|0:0,0:0:0:0:
390,68,12496,5,0,3:0:0:0:
479,151,12871,2,0,P|488:235|474:346,1,180,4|2,0:0|0:0,0:0:0:0:
311,261,13996,1,0,0:0:0:0:
213,331,14371,2,0,P|125:320|61:252,1,180,8|2,0:0|0:0,0:0:0:0:
103,81,15496,5,0,0:0:0:0:
210,28,15871,2,0,P|298:39|362:107,1,180,8|2,0:0|0:0,0:0:0:0:
479,235,16996,2,0,L|456:302,1,60,0|8,0:0|0:0,0:0:0:0:
438,348,17371,2,0,P|354:376|266:343,1,180,8|2,0:0|0:0,0:0:0:0:
57,136,18871,6,0,P|51:92|63:40,2,90,8|0|2,0:0|0:0|0:0,0:0:0:0:
233,172,19996,2,0,L|302:197,1,60,8|8,0:0|0:0,0:0:0:0:
342,219,20371,2,0,P|348:263|336:315,2,90,8|8|2,0:0|0:0|0:0,0:0:0:0:
44,262,21871,6,8,B|90:248|134:263|134:263|180:277|221:263,1,180,8|2,0:0|0:0,0:0:0:0:
368,160,22996,2,0,L|431:172,1,60,8|8,0:0|0:0,0:0:0:0:
487,170,23371,2,0,P|496:125|480:68,2,90,8|8|8,0:0|0:0|0:0,0:0:0:0:
376,312,24496,5,2,0:0:0:0:
275,245,24871,2,0,L|239:125,1,120,4|8,0:0|0:0,0:0:0:0:
128,79,25621,1,8,0:0:0:0:
146,197,25996,1,8,0:0:0:0:
34,155,26371,2,0,L|27:293,1,120,8|8,0:0|0:0,0:0:0:0:
119,357,27121,2,0,P|177:366|236:354,1,120,8|8,0:0|0:0,0:0:0:0:
289,325,27683,1,0,0:0:0:0:
311,269,27871,6,0,P|366:295|436:312,1,120,8|8,0:0|0:0,0:0:0:0:
462,193,28621,2,0,P|407:166|337:150,1,120,8|8,0:0|0:0,0:0:0:0:
244,94,29371,2,0,P|187:104|126:89,1,120,8|8,0:0|0:0,0:0:0:0:
84,130,29933,2,0,L|93:249,1,120,8|0,0:0|0:0,0:0:0:0:
96,310,30496,1,8,0:0:0:0:
198,375,30871,6,0,L|233:247,1,120,8|8,0:0|0:0,0:0:0:0:
257,142,31621,2,0,P|314:130|372:145,1,120,8|8,0:0|0:0,0:0:0:0:
408,193,32183,1,0,0:0:0:0:
453,232,32371,2,0,L|470:113,2,120,8|8|8,0:0|0:0|0:0,0:0:0:0:
342,279,33496,1,8,0:0:0:0:
225,308,33871,6,0,L|101:295,1,120,8|8,0:0|0:0,0:0:0:0:
56,185,34621,2,0,L|129:84,1,120,8|8,0:0|0:0,0:0:0:0:
244,109,35371,2,0,L|284:200,2,90,8|8|8,0:0|0:0|0:0,0:0:0:0:
341,39,36308,1,8,0:0:0:0:
398,56,36496,2,0,L|454:183,1,120,8|4,0:0|0:0,0:0:0:0:
340,311,37433,6,0,P|282:323|223:313,1,120,8|8,0:0|0:0,0:0:0:0:
168,288,37996,1,10,0:0:0:0:
62,344,38371,2,0,B|47:307|61:259|61:259|77:210|62:167,1,180,8|8,0:0|0:0,0:0:0:0:
6,60,39308,1,8,0:0:0:0:
48,16,39496,2,0,P|107:14|162:37,1,120,10|12,0:0|0:0,0:0:0:0:
287,166,40433,6,0,P|346:168|401:145,1,120,8|8,0:0|0:0,0:0:0:0:
443,102,40996,1,10,0:0:0:0:
364,11,41371,2,0,B|333:42|328:79|328:79|272:59|230:87,1,180,4|8,0:0|0:0,0:0:0:0:
183,124,42121,2,0,P|131:98|102:46,1,120,8|6,0:0|0:0,0:0:0:0:
59,156,42871,6,0,B|59:187|42:216|42:216|59:246|58:283,1,120,0|4,0:0|0:0,0:0:0:0:
162,328,43621,2,0,B|193:328|222:345|222:345|252:328|289:329,1,120,0|4,0:0|0:0,0:0:0:0:
389,290,44371,2,0,B|389:259|406:230|406:230|389:200|390:163,1,120,0|4,0:0|0:0,0:0:0:0:
386,56,45121,6,0,P|431:51|472:67,2,90,4|4|4,0:0|0:0|0:0,0:0:0:0:
341,95,45871,2,0,P|283:105|224:95,1,120,4|8,0:0|0:0,0:0:0:0:
115,42,46621,2,0,P|70:37|29:53,2,90,12|8|8,0:0|0:0|0:0,0:0:0:0:
225,95,47558,2,0,P|232:154|220:212,1,120,12|8,0:0|0:0,0:0:0:0:
185,262,48121,2,0,P|244:267|300:288,1,120,12|8,0:0|0:0,0:0:0:0:
402,349,48871,6,0,L|447:309,1,60,12|12,0:0|0:0,0:0:0:0:
369,218,49433,1,12,0:0:0:0:
420,109,49808,1,12,0:0:0:0:
342,17,50183,1,12,0:0:0:0:
70,144,51121,5,0,0:0:0:0:
165,217,51496,1,2,3:0:0:0:
59,268,51871,6,0,P|97:313|161:330,1,120,4|8,0:0|0:0,0:0:0:0:
265,282,52621,2,0,P|303:237|367:220,1,120,0|8,0:0|0:0,0:0:0:0:
418,234,53183,1,0,0:0:0:0:
464,195,53371,2,0,P|481:133|450:73,1,120,0|8,0:0|0:0,0:0:0:0:
358,20,54121,1,0,0:0:0:0:
241,49,54496,1,8,0:0:0:0:
126,12,54871,6,0,L|83:131,1,120,4|8,0:0|0:0,0:0:0:0:
59,179,55433,2,0,L|1:213,2,60
119,171,55996,2,0,L|194:181,1,60,8|0,0:0|0:0,0:0:0:0:
236,192,56371,2,0,P|219:251|240:312,1,120,0|8,0:0|0:0,0:0:0:0:
343,359,57121,2,0,P|399:375|456:358,1,120,0|8,0:0|0:0,0:0:0:0:
494,312,57683,1,0,0:0:0:0:
512,254,57871,6,0,B|508:223|508:223|515:156|515:156|511:120,1,120,4|8,0:1|0:0,0:0:0:0:
405,82,58621,2,0,B|402:103|402:103|409:170|409:170|405:201,1,120,0|8,0:0|0:0,0:0:0:0:
296,252,59371,2,0,B|292:221|292:221|299:154|299:154|296:132,1,120,0|8,0:1|0:0,0:0:0:0:
196,66,60121,2,0,B|193:87|193:87|200:154|200:154|196:185,1,120,0|8,0:0|0:0,0:0:0:0:
146,294,60871,6,0,P|93:266|65:214,1,120,0|4,0:0|0:0,0:0:0:0:
94,161,61433,1,0,0:0:0:0:
72,105,61621,2,0,P|100:53|152:25,1,120,0|4,0:0|0:0,0:0:0:0:
271,14,62371,2,0,P|316:5|371:19,2,90,8|8|8,0:0|0:0|0:0,0:0:0:0:
217,42,63121,5,8,0:0:0:0:
264,152,63496,1,8,0:0:0:0:
353,231,63871,6,0,B|393:242|431:233|431:233|438:255|432:274,1,120,4|8,0:0|0:0,0:0:0:0:
341,352,64621,2,0,L|221:345,1,120,0|8,0:0|0:0,0:0:0:0:
161,345,65183,1,0,0:0:0:0:
100,348,65371,2,0,B|114:319|118:288|118:288|122:256|138:235,1,120,0|8,0:0|0:0,0:0:0:0:
215,143,66121,1,0,0:0:0:0:
331,114,66496,1,8,0:0:0:0:
238,37,66871,6,0,P|175:26|112:36,1,120,4|8,0:0|0:0,0:0:0:0:
63,53,67433,2,0,L|12:17,2,60
98,101,67996,2,0,L|102:173,1,60,8|0,0:0|0:0,0:0:0:0:
116,218,68371,2,0,P|175:232|241:215,1,120,0|8,0:0|0:0,0:0:0:0:
310,130,69121,1,0,0:0:0:0:
399,50,69496,6,0,L|416:129,1,60,8|8,0:0|0:0,0:0:0:0:
424,167,69871,2,0,P|472:180|528:161,2,90,12|8|12,0:0|0:0|0:0,0:0:0:0:
310,130,70808,1,0,0:0:0:0:
257,99,70996,6,0,L|171:98,1,60,8|8,0:0|0:0,0:0:0:0:
140,118,71371,2,0,P|131:74|144:32,2,90,12|8|12,0:0|0:0|0:0,0:0:0:0:
170,233,72308,2,0,L|231:228,1,60,0|8,0:0|0:0,0:0:0:0:
348,217,72871,6,0,P|365:276|346:332,1,120,4|8,0:0|0:0,0:0:0:0:
225,348,73621,2,0,L|105:334,1,120,0|8,0:0|0:0,0:0:0:0:
54,224,74371,2,0,P|20:252|0:291,2,90,8|8|8,0:0|0:0|0:0,0:0:0:0:
112,241,75121,2,0,B|125:214|124:181|124:181|123:149|136:124,1,120,8|8,0:0|0:0,0:0:0:0:
177,81,75683,1,8,0:0:0:0:
193,23,75871,6,0,P|148:14|104:22,2,90,4|4|4,0:0|0:0|0:0,0:0:0:0:
282,173,76996,1,8,0:0:0:0:
374,249,77371,2,0,P|419:257|471:245,2,90,4|4|4,0:0|0:0|0:0,0:0:0:0:
193,250,78496,1,8,0:0:0:0:
81,293,78871,6,0,L|68:148,1,120,0|8,0:0|0:0,0:0:0:0:
80,52,79621,2,0,P|139:39|216:66,1,120,0|8,0:0|0:0,0:0:0:0:
232,101,80183,1,0,0:0:0:0:
277,140,80371,2,0,P|336:153|413:126,1,120,0|8,0:0|0:0,0:0:0:0:
256,192,81121,12,4,83371,1:0:0:0:
262,154,84121,6,0,P|238:208|238:268,1,120,8|0,0:0|0:0,0:0:0:0:
356,285,84871,2,0,P|374:260|381:231,1,60,8|0,0:0|0:0,0:0:0:0:
374,172,85246,2,0,P|364:132|364:100,1,60,8|0,0:0|0:0,0:0:0:0:
368,53,85621,2,0,P|309:60|250:55,1,120,8|0,0:0|0:0,0:0:0:0:
140,4,86371,6,0,L|90:131,1,120,4|0,0:0|0:0,0:0:0:0:
204,166,87121,2,0,L|97:250,1,120,8|0,0:0|0:0,0:0:0:0:
183,335,87871,2,0,L|48:355,1,120,8|8,0:0|0:0,0:0:0:0:
4,359,88433,2,0,P|14:330|21:301,1,60,8|4,0:0|0:1,0:0:0:0:
