osu file format v14

[General]
AudioFilename: Raise.mp3
AudioLeadIn: 1500
PreviewTime: 51121
Countdown: 0
SampleSet: Soft
StackLeniency: 0.7
Mode: 0
LetterboxInBreaks: 0
WidescreenStoryboard: 0

[Editor]
DistanceSpacing: 1
BeatDivisor: 4
GridSize: 4
TimelineZoom: 2.1

[Metadata]
Title:Raise
TitleUnicode:Raise
Artist:Ogura Yui
ArtistUnicode:小倉唯
Creator:ShiraKai
Version:Athena
Source:カンピオーネ! 〜まつろわぬ神々と神殺しの魔王〜
Tags:kaCha Ryafuka Tari taris campione! ending tv size
BeatmapID:189746
BeatmapSetID:64481

[Difficulty]
HPDrainRate:7
CircleSize:4
OverallDifficulty:7
ApproachRate:9
SliderMultiplier:1.9
SliderTickRate:1

[Events]
//Background and Video events
Video,225,"movie.avi"
0,0,"bg.jpg",0,0
//Break Periods
//Storyboard Layer 0 (Background)
//Storyboard Layer 1 (Fail)
//Storyboard Layer 2 (Pass)
//Storyboard Layer 3 (Foreground)
//Storyboard Sound Samples

[TimingPoints]
-629,375,4,2,2,40,1,0
2933,-100,4,2,1,40,0,0
3121,-100,4,2,2,40,0,0
4433,-100,4,2,1,40,0,0
4621,-100,4,2,2,40,0,0
6496,-100,4,2,1,40,0,0
6871,-100,4,2,1,50,0,0
8464,-100,4,2,2,50,0,0
8652,-100,4,2,1,50,0,0
10058,-100,4,2,2,50,0,0
10246,-100,4,2,1,50,0,0
10808,-100,4,2,2,50,0,0
10996,-100,4,2,1,50,0,0
12402,-100,4,2,1,20,0,0
12871,-166.666666666667,4,2,1,40,0,0
23371,-125,4,2,1,40,0,0
23558,-125,4,2,1,10,0,0
23652,-125,4,2,1,40,0,0
23839,-125,4,2,1,10,0,0
23933,-125,4,2,1,40,0,0
24214,-125,4,2,1,10,0,0
24308,-111.111111111111,4,2,1,30,0,0
24683,-111.111111111111,4,2,1,40,0,0
24871,-100,4,2,1,50,0,0
36214,-100,4,2,1,10,0,0
36308,-100,4,3,1,40,0,0
36871,-100,4,2,1,45,0,0
42871,-100,4,2,1,50,0,0
47371,-100,4,2,1,30,0,0
47558,-100,4,2,1,50,0,0
48871,-100,4,2,1,55,0,0
51121,-100,4,2,1,60,0,0
51496,-83.3333333333333,4,2,1,60,0,0
51871,-100,4,2,1,70,0,1
61996,-100,4,2,1,75,0,1
62183,-100,4,2,1,70,0,1
63308,-100,4,2,1,50,0,1
63402,-100,4,2,1,70,0,1
63777,-100,4,2,1,70,0,0
63871,-100,4,2,1,70,0,1
66496,-100,4,2,1,50,0,1
66871,-100,4,2,1,70,0,1
69496,-100,4,2,1,60,0,1
69683,-100,4,2,1,70,0,1
69871,-83.3333333333333,4,2,1,70,0,1
70433,-90.9090909090909,4,2,1,70,0,1
70808,-90.9090909090909,4,2,1,60,0,1
71371,-83.3333333333333,4,2,1,70,0,1
71933,-90.9090909090909,4,2,1,70,0,1
72308,-100,4,2,1,70,0,1
76808,-100,4,2,1,60,0,1
77371,-100,4,2,1,70,0,1
80933,-100,4,2,1,35,0,1
81121,-76.9230769230769,4,2,1,40,0,0
81308,-76.9230769230769,4,2,1,45,0,0
81402,-76.9230769230769,4,2,1,50,0,0
81589,-76.9230769230769,4,2,1,55,0,0
82621,-100,4,2,1,60,0,0
82996,-100,4,2,1,70,0,0
83371,-100,4,2,1,60,0,0
86558,-100,4,2,2,60,0,0
86746,-100,4,2,1,60,0,0
87308,-100,4,2,2,60,0,0
87496,-100,4,2,1,60,0,0
88527,-133.333333333333,4,2,1,60,0,0
89277,-133.333333333333,4,2,1,15,0,0

[Colours]
Combo1 : 128,128,192
Combo2 : 255,0,0
Combo3 : 255,255,255
Combo4 : 255,255,0

[HitObjects]
123,144,683,6,0,L|89:158,2,31.6666666666667,4|4|4,3:0|3:0|3:0,0:0:0:0:
132,106,871,2,0,P|178:122|232:116,1,95,4|0,1:0|0:0,0:0:0:0:
186,40,1246,1,0,0:0:0:0:
218,203,1433,1,2,0:0:0:0:
302,82,1621,2,0,P|348:66|402:72,1,95,2|2,0:0|0:0,0:0:0:0:
431,74,1902,2,0,P|406:143|432:211,1,142.5,0|2,0:0|0:0,0:0:0:0:
503,291,2371,5,2,0:0:0:0:
352,232,2558,1,2,0:0:0:0:
512,325,2746,1,2,0:0:0:0:
488,141,2933,1,2,0:0:0:0:
316,250,3121,2,0,P|270:266|216:260,1,95,2|0,0:0|0:0,0:0:0:0:
187,258,3402,2,0,P|212:189|186:121,1,142.5,2|8,0:0|3:0,0:0:0:0:
70,51,3871,5,8,3:0:0:0:
137,189,4058,1,2,0:0:0:0:
137,189,4152,2,0,L|289:176,1,142.5,2|2,0:0|0:0,0:0:0:0:
361,25,4621,5,8,3:0:0:0:
179,113,4808,1,2,0:0:0:0:
179,113,4902,2,0,L|331:100,1,142.5,2|2,0:0|0:0,0:0:0:0:
454,126,5371,5,8,3:0:0:0:
361,25,5558,1,2,0:0:0:0:
377,163,5746,1,8,3:0:0:0:
447,41,5933,2,0,L|505:44,1,47.5,2|2,0:0|0:0,0:0:0:0:
320,100,6121,5,8,3:0:0:0:
309,108,6214,1,8,3:0:0:0:
297,116,6308,1,8,3:0:0:0:
285,124,6402,1,8,3:0:0:0:
273,132,6496,2,0,L|246:96,5,31.6666666666667,2|0|0|0|0|0,3:0|3:0|3:0|3:0|3:0|3:0,0:0:0:0:
272,168,6871,6,0,P|259:215|220:254,1,95,4|0,1:0|0:0,0:0:0:0:
100,180,7246,2,0,P|147:167|200:182,1,95,8|0,0:0|0:0,0:0:0:0:
201,325,7621,2,0,P|166:290|152:236,1,95,8|0,0:0|0:0,0:0:0:0:
100,180,7902,2,0,P|119:108|91:42,1,142.5,8|8,0:0|0:0,0:0:0:0:
10,208,8371,5,4,1:0:0:0:
158,107,8558,1,2,0:0:0:0:
106,272,8746,1,0,0:0:0:0:
44,111,8933,1,8,0:0:0:0:
190,205,9121,2,0,P|238:218|294:206,1,95,4|0,1:0|0:0,0:0:0:0:
332,142,9402,2,0,P|367:204|342:268,1,142.5,8|0,0:0|0:0,0:0:0:0:
253,352,9871,5,4,0:0:0:0:
190,205,10058,1,2,0:0:0:0:
190,205,10152,1,2,0:0:0:0:
190,205,10246,2,0,L|92:192,1,95,8|0,0:0|0:0,0:0:0:0:
170,300,10621,5,8,0:0:0:0:
240,128,10808,1,2,0:0:0:0:
240,128,10902,1,2,0:0:0:0:
240,128,10996,2,0,L|142:115,1,95,8|0,0:0|0:0,0:0:0:0:
58,31,11371,6,0,P|30:73|18:123,1,95,8|0,0:0|0:0,0:0:0:0:
96,217,11746,2,0,L|193:204,1,95,8|0,0:0|0:0,0:0:0:0:
240,127,12027,2,0,P|276:192|255:266,1,142.5,8|0,0:0|0:0,0:0:0:0:
241,287,12402,5,8,3:0:0:0:
255,322,12496,1,8,3:0:0:0:
292,326,12589,1,8,3:0:0:0:
325,308,12683,1,8,3:0:0:0:
362,312,12777,1,8,3:0:0:0:
388,343,12871,6,0,B|365:289|412:241|383:174,1,170.999994781494,4|2,0:0|0:0,0:0:0:0:
301,37,13808,1,0,0:0:0:0:
306,122,13996,2,0,P|338:113|367:97,1,56.9999982604981,0|8,0:0|3:0,0:0:0:0:
301,37,14371,6,0,L|187:35,1,113.999996520996,8|0,3:0|0:0,0:0:0:0:
80,102,14933,2,0,B|123:103|123:103|154:126|196:124,1,113.999996520996,2|0,0:0|0:0,0:0:0:0:
142,313,15496,5,0,0:0:0:0:
85,249,15683,1,0,0:0:0:0:
181,211,15871,2,0,B|224:196|275:218|275:218|326:236|348:222,1,170.999994781494,8|2,3:0|0:0,0:0:0:0:
380,195,16527,1,0,0:0:0:0:
380,195,16621,2,0,P|391:151|376:97,2,85.4999973907472,0|0|8,0:0|0:0|3:0,0:0:0:0:
401,301,17371,6,0,P|450:273|479:221,1,113.999996520996,8|0,3:0|0:0,0:0:0:0:
289,145,17933,2,0,P|277:200|291:254,1,113.999996520996,2|0,0:0|0:0,0:0:0:0:
309,350,18496,1,0,0:0:0:0:
206,310,18683,5,0,0:0:0:0:
206,310,18777,1,0,0:0:0:0:
206,310,18871,2,0,P|161:305|111:280,1,85.4999973907472,4|0,0:3|0:0,0:0:0:0:
24,342,19433,2,0,B|45:314|45:314|53:235,1,113.999996520996,2|0,0:0|0:0,0:0:0:0:
76,155,19996,2,0,P|47:153|19:160,1,56.9999982604981,0|4,0:0|0:3,0:0:0:0:
187,212,20371,6,0,P|187:167|173:121,1,85.4999973907472,4|4,3:0|3:0,0:0:0:0:
85,73,20933,2,0,P|166:97|248:77,1,170.999994781494,2|0,0:0|0:0,0:0:0:0:
317,1,21683,1,0,0:0:0:0:
317,1,21777,1,0,0:0:0:0:
317,1,21871,6,0,P|347:49|343:113,1,113.999996520996,8|0,3:0|0:0,0:0:0:0:
308,211,22433,2,0,P|363:217|413:192,1,113.999996520996,2|0,0:0|0:0,0:0:0:0:
453,99,22996,1,0,0:0:0:0:
503,271,23183,1,0,0:0:0:0:
503,271,23277,1,0,0:0:0:0:
503,271,23371,6,0,P|465:271|429:283,1,76,4|0,3:0|0:0,0:0:0:0:
355,332,23652,2,0,P|317:332|281:320,1,76,4|0,0:3|0:0,0:0:0:0:
212,264,23933,2,0,L|88:286,1,114,8|0,0:3|0:0,0:0:0:0:
72,304,24308,6,0,L|52:341,2,42.7499986953736,2|0|2,0:0|0:0|0:0,0:0:0:0:
90,180,24683,1,0,0:0:0:0:
213,264,24871,6,0,P|258:275|304:266,1,95,12|0,0:0|0:0,0:0:0:0:
426,299,25246,2,0,L|392:200,1,95,8|0,0:0|0:0,0:0:0:0:
349,95,25621,1,8,0:0:0:0:
262,195,25808,1,0,0:0:0:0:
282,16,25996,1,8,0:0:0:0:
435,122,26183,1,0,0:0:0:0:
262,195,26371,6,0,L|248:101,1,95,8|0,0:0|0:0,0:0:0:0:
154,21,26746,2,0,L|138:114,1,95,8|0,0:0|0:0,0:0:0:0:
89,324,27121,1,8,0:0:0:0:
149,224,27308,2,0,L|55:209,2,95,0|8|4,0:0|0:0|3:0,0:0:0:0:
218,130,27871,6,0,B|284:124|284:124|345:163|404:117,1,190,8|8,0:0|0:0,0:0:0:0:
466,29,28433,2,0,L|404:45,1,47.5
340,67,28621,2,0,L|332:177,1,95,8|0,0:0|0:0,0:0:0:0:
375,330,28996,2,0,P|396:285|388:224,1,95,8|0,0:0|0:0,0:0:0:0:
253,184,29371,5,8,0:0:0:0:
286,353,29558,1,0,0:0:0:0:
176,248,29746,1,8,0:0:0:0:
318,264,29933,1,0,0:0:0:0:
318,264,30027,1,0,0:0:0:0:
318,264,30121,5,8,0:0:0:0:
187,342,30308,1,0,0:0:0:0:
253,184,30496,1,8,0:0:0:0:
375,330,30683,1,0,0:0:0:0:
375,330,30777,1,0,0:0:0:0:
375,330,30871,6,0,L|411:236,1,95,8|0,0:0|0:0,0:0:0:0:
465,107,31246,2,0,P|418:104|365:77,1,95,8|0,0:0|0:0,0:0:0:0:
243,30,31621,2,0,P|153:37|120:122,1,190,8|8,0:0|0:0,0:0:0:0:
167,245,32183,1,0,0:0:0:0:
285,161,32371,6,0,L|205:111,1,95,8|0,0:0|0:0,0:0:0:0:
72,244,32746,2,0,L|167:245,1,95,8|0,0:0|0:0,0:0:0:0:
285,310,33121,2,0,L|205:360,1,95,8|0,0:0|0:0,0:0:0:0:
158,168,33496,1,8,0:0:0:0:
252,237,33683,1,0,0:0:0:0:
252,237,33871,6,0,P|321:237|365:184,1,142.5,8|0,0:0|0:0,0:0:0:0:
372,146,34246,2,0,P|419:148|464:165,1,95,8|0,0:0|0:0,0:0:0:0:
285,162,34621,2,0,L|278:19,1,142.5,8|0,0:0|0:0,0:0:0:0:
255,49,34996,2,0,P|208:59|161:54,1,95,8|0,0:0|0:0,0:0:0:0:
41,22,35371,6,0,L|20:127,1,95,12|0,0:0|0:0,0:0:0:0:
10,161,35652,2,0,P|54:151|104:156,1,95,8|0,0:0|0:0,0:0:0:0:
151,164,35933,2,0,P|219:184|290:159,1,142.5,8|0,0:0|0:0,0:0:0:0:
347,116,36308,2,0,P|354:129|360:144,3,31.6666666666667
320,235,36683,1,0,0:0:0:0:
320,235,36777,1,0,0:0:0:0:
320,235,36871,6,0,L|500:173,1,190,4|0,3:2|0:0,0:0:0:0:
433,293,37433,1,8,0:0:0:0:
347,116,37621,6,0,L|257:146,1,95,0|8,0:0|0:0,0:0:0:0:
146,205,37996,1,10,0:0:0:0:
146,205,38183,1,0,0:0:0:0:
60,57,38371,5,4,0:0:0:0:
188,131,38558,1,0,0:0:0:0:
60,205,38746,1,0,0:0:0:0:
146,57,38933,5,8,0:0:0:0:
17,131,39121,1,0,0:0:0:0:
146,205,39308,1,8,0:0:0:0:
44,34,39496,5,10,0:0:0:0:
40,230,39683,1,0,0:0:0:0:
188,131,39871,1,4,0:0:0:0:
188,131,40246,5,0,0:0:0:0:
260,249,40433,1,8,0:0:0:0:
349,134,40621,2,0,P|268:90|181:144,1,190,0|10,0:0|0:0,0:0:0:0:
323,313,41183,1,0,0:0:0:0:
323,313,41371,6,0,P|370:317|412:295,1,95,4|0,0:0|0:0,0:0:0:0:
349,133,41746,2,0,P|337:180|354:235,1,95,8|0,0:0|0:0,0:0:0:0:
467,359,42121,1,0,0:0:0:0:
492,330,42214,1,0,0:0:0:0:
502,293,42308,1,0,0:0:0:0:
494,255,42402,1,0,0:0:0:0:
468,226,42496,2,0,P|410:193|343:231,1,142.5,12|0,0:0|0:0,0:0:0:0:
319,251,42871,6,0,P|269:267|216:249,1,95,8|0,0:0|0:0,0:0:0:0:
167,197,43152,1,0,0:0:0:0:
167,197,43246,2,0,P|117:181|64:199,1,95,4|0,0:0|0:0,0:0:0:0:
113,362,43621,6,0,L|118:262,1,95,8|0,0:0|0:0,0:0:0:0:
167,197,43902,1,0,0:0:0:0:
167,197,43996,2,0,P|182:155|170:108,1,95,4|0,0:0|0:0,0:0:0:0:
51,0,44371,6,0,P|36:42|48:89,1,95,8|0,0:0|0:0,0:0:0:0:
106,150,44652,1,0,0:0:0:0:
106,150,44746,2,0,L|218:159,1,95,4|0,0:0|0:0,0:0:0:0:
309,208,45121,6,0,P|308:159|327:116,1,95,4|0,0:0|0:0,0:0:0:0:
354,77,45402,2,0,L|199:67,1,142.5,4|4,0:0|0:0,0:0:0:0:
390,176,45871,6,0,L|491:168,1,95,12|0,0:0|0:0,0:0:0:0:
410,326,46246,1,8,0:0:0:0:
309,208,46433,1,0,0:0:0:0:
309,208,46527,1,0,0:0:0:0:
309,208,46621,2,0,L|246:279,1,95,8|0,0:0|0:0,0:0:0:0:
230,324,46902,2,0,P|186:266|116:253,1,142.5,8|8,0:0|0:0,0:0:0:0:
18,303,47371,5,8,3:0:0:0:
144,330,47558,2,0,L|227:159,1,190,12|8,0:0|0:0,0:0:0:0:
134,26,48121,2,0,L|111:118,1,95,12|0,0:0|0:0,0:0:0:0:
85,230,48496,1,8,0:0:0:0:
227,159,48683,1,0,0:0:0:0:
227,159,48777,1,0,0:0:0:0:
227,159,48871,5,12,0:0:0:0:
75,334,49058,1,12,0:0:0:0:
75,334,49433,5,12,0:0:0:0:
163,63,49808,1,12,0:0:0:0:
346,281,50183,1,12,0:0:0:0:
179,220,51121,5,0,1:0:0:0:
262,310,51308,2,0,L|215:320,1,47.5
131,355,51496,2,0,B|129:333|129:333|136:309|136:309|142:272|131:228|139:185,1,170.999994781494,2|0,3:0|0:0,0:0:0:0:
145,139,51871,6,0,P|96:129|61:93,1,95,4|0,0:0|0:0,0:0:0:0:
158,19,52246,1,8,0:0:0:0:
279,137,52433,2,0,L|256:96,1,47.5
322,35,52621,2,0,L|376:135,1,95
436,168,52902,1,0,0:0:0:0:
436,168,52996,2,0,P|449:123|434:68,1,95,8|0,0:0|0:0,0:0:0:0:
259,219,53371,6,0,P|248:264|262:310,1,95,0|0,0:0|0:0,0:0:0:0:
319,369,53652,1,0,0:0:0:0:
319,369,53746,1,8,0:0:0:0:
416,252,53933,1,0,0:0:0:0:
416,252,54027,1,0,0:0:0:0:
416,252,54121,5,8,0:0:0:0:
259,219,54308,2,0,L|234:259,1,47.5
194,337,54496,1,0,1:0:0:0:
84,231,54683,1,0,3:0:0:0:
198,72,54871,6,0,P|151:64|104:73,1,95,4|0,0:0|0:0,0:0:0:0:
191,188,55246,1,8,0:0:0:0:
293,57,55433,2,0,P|305:81|324:104,1,47.5
396,154,55621,2,0,P|365:189|359:236,1,95
426,304,55902,1,0,0:0:0:0:
426,304,55996,2,0,P|471:292|504:259,1,95,8|0,0:0|0:0,0:0:0:0:
397,154,56371,6,0,L|286:148,1,95
215,146,56652,1,0,0:0:0:0:
215,146,56746,1,8,0:0:0:0:
94,250,56933,1,0,0:0:0:0:
94,250,57027,1,0,0:0:0:0:
94,250,57121,1,8,0:0:0:0:
194,346,57308,1,0,0:0:0:0:
148,88,57496,6,0,P|126:129|129:177,1,95,8|0,0:0|0:0,0:0:0:0:
275,359,57871,2,0,P|268:312|239:275,1,95,4|0,0:1|0:0,0:0:0:0:
129,176,58246,1,8,0:0:0:0:
108,347,58433,1,0,0:0:0:0:
240,275,58621,2,0,P|255:231|253:172,1,95
251,103,58902,1,0,0:0:0:0:
251,103,58996,1,8,0:0:0:0:
128,94,59183,6,0,P|149:85|170:73,1,47.5
235,23,59371,2,0,P|279:27|332:69,1,95,4|0,0:1|0:0,0:0:0:0:
401,189,59746,1,8,0:0:0:0:
251,103,59933,1,0,0:0:0:0:
389,22,60121,2,0,P|415:62|419:109,1,95
401,189,60402,1,0,0:0:0:0:
401,189,60496,2,0,P|369:220|354:286,1,95,8|0,0:0|0:0,0:0:0:0:
476,353,60871,6,0,L|428:244,1,95
401,189,61152,1,0,0:0:0:0:
401,189,61246,1,12,0:0:0:0:
263,120,61433,1,0,0:0:0:0:
353,266,61621,1,0,0:0:0:0:
454,110,61808,1,0,0:0:0:0:
302,194,61996,1,12,0:0:0:0:
228,45,62183,1,0,0:0:0:0:
123,116,62371,6,0,P|76:123|29:118,1,95,8|0,0:0|0:0,0:0:0:0:
33,214,62652,2,0,P|79:206|126:211,1,95,8|0,0:0|0:0,0:0:0:0:
213,238,62933,1,8,0:0:0:0:
273,339,63121,5,8,0:0:0:0:
305,226,63308,2,0,P|305:210|302:194,3,31.6666666666667,8|8|8|2,0:0|0:0|0:0|3:0,3:0:0:0:
281,104,63683,1,8,0:0:0:0:
297,59,63777,1,8,0:0:0:0:
341,40,63871,6,0,P|388:41|431:67,1,95,12|0,0:0|0:0,0:0:0:0:
302,194,64246,1,8,0:0:0:0:
454,190,64433,2,0,L|449:142,1,47.5
368,116,64621,2,0,L|381:225,1,95,0|0,0:0|0:0,0:0:0:0:
360,305,64902,1,0,0:0:0:0:
360,305,64996,2,0,P|308:318|255:306,1,95,8|0,0:0|0:0,0:0:0:0:
106,371,65371,6,0,P|122:302|110:232,1,142.5
74,201,65746,2,0,P|64:154|74:99,1,95,8|0,0:0|0:0,0:0:0:0:
135,6,66121,5,8,0:0:0:0:
220,123,66308,1,0,0:0:0:0:
220,123,66402,1,0,0:0:0:0:
220,123,66496,2,0,P|260:63|340:56,1,142.5,4|0,1:0|0:0,0:0:0:0:
400,100,66871,6,0,P|412:52|401:5,1,95,4|0,0:0|0:0,0:0:0:0:
309,137,67246,1,8,0:0:0:0:
453,222,67433,2,0,L|465:176,1,47.5
400,100,67621,2,0,L|376:208,1,95
356,287,67902,1,0,0:0:0:0:
356,287,67996,2,0,P|307:275|245:296,1,95,8|0,0:0|0:0,0:0:0:0:
51,346,68371,6,0,P|100:358|162:337,1,95,4|0,0:0|0:0,0:0:0:0:
192,292,68652,1,0,0:0:0:0:
192,292,68746,1,8,0:0:0:0:
134,114,68933,1,0,0:0:0:0:
12,217,69121,1,0,0:0:0:0:
180,206,69308,1,0,0:0:0:0:
36,122,69496,1,12,0:0:0:0:
97,276,69683,1,8,0:0:0:0:
134,114,69871,6,0,L|262:91,1,113.999996520996,12|0,0:0|0:0,0:0:0:0:
314,41,70152,2,0,P|328:96|308:149,1,113.999996520996,8|0,0:0|0:0,0:0:0:0:
390,8,70433,2,0,P|407:109|369:206,1,209.000006378174,12|0,0:0|0:0,0:0:0:0:
263,349,70996,1,8,0:0:0:0:
409,305,71183,1,8,0:0:0:0:
409,305,71277,1,0,0:0:0:0:
409,305,71371,6,0,P|405:250|368:205,1,113.999996520996,12|0,0:0|0:0,0:0:0:0:
296,159,71652,2,0,P|245:184|188:181,1,113.999996520996,8|0,0:0|0:0,0:0:0:0:
21,137,71933,2,0,B|79:148|127:119|127:119|175:94|230:109,1,209.000006378174,12|0,0:0|0:0,0:0:0:0:
223,107,72402,1,0,0:0:0:0:
223,107,72496,1,8,0:0:0:0:
374,124,72683,6,0,L|378:172,1,47.5
438,62,72871,2,0,P|372:37|305:70,1,142.5,4|0,0:0|0:0,0:0:0:0:
309,65,73246,1,8,0:0:0:0:
378,172,73433,1,0,0:0:0:0:
378,172,73527,2,0,L|487:174,1,95,0|0,0:0|0:0,0:0:0:0:
503,187,73808,1,0,0:0:0:0:
385,343,73996,1,8,0:0:0:0:
299,188,74183,1,0,0:0:0:0:
251,262,74371,6,0,P|301:279|354:255,1,95,8|0,0:0|0:0,0:0:0:0:
378,172,74652,2,0,P|397:215|437:240,1,95,8|0,0:0|0:0,0:0:0:0:
385,343,74933,1,8,0:0:0:0:
299,188,75121,5,8,0:0:0:0:
299,188,75214,1,8,0:0:0:0:
299,188,75308,1,0,0:0:0:0:
299,188,75402,1,8,0:0:0:0:
299,188,75496,6,0,L|244:182,1,47.5,8|0,0:0|0:0,0:0:0:0:
175,111,75683,2,0,L|232:109,1,47.5,8|0,0:0|0:0,0:0:0:0:
293,44,75871,6,0,L|179:24,1,95,4|0,0:0|0:0,0:0:0:0:
103,61,76152,2,0,P|90:109|98:155,1,95,4|0,0:0|0:0,0:0:0:0:
26,35,76433,2,0,P|11:105|25:184,1,142.5,4|0,0:0|0:0,0:0:0:0:
24,262,76808,6,0,P|47:259|68:247,1,47.5,8|0,0:0|0:0,0:0:0:0:
153,196,76996,2,0,P|144:218|145:242,1,47.5,8|0,0:0|0:0,0:0:0:0:
146,342,77183,2,0,P|132:323|112:312,1,47.5,8|0,0:0|0:0,0:0:0:0:
224,280,77371,6,0,P|239:236|238:189,1,95,4|0,0:0|0:0,0:0:0:0:
227,157,77652,1,4,0:0:0:0:
110,93,77933,2,0,L|170:104,1,47.5,4|0,0:0|0:0,0:0:0:0:
310,132,78121,2,0,P|303:85|280:39,1,95,8|0,0:0|0:0,0:0:0:0:
252,36,78402,1,0,0:0:0:0:
252,36,78496,1,8,0:0:0:0:
330,164,78683,5,0,0:0:0:0:
364,181,78777,1,0,0:0:0:0:
402,178,78871,2,0,P|452:169|489:119,1,95,12|0,0:0|0:0,0:0:0:0:
380,50,79246,1,8,0:0:0:0:
292,241,79433,1,0,0:0:0:0:
308,275,79527,2,0,P|355:293|409:285,1,95
411,374,79808,2,0,P|454:355|485:319,1,95,0|8,0:0|0:0,0:0:0:0:
330,165,80183,5,0,0:0:0:0:
190,279,80371,1,0,0:0:0:0:
110,138,80558,1,0,0:0:0:0:
110,138,80652,1,0,0:0:0:0:
110,138,80746,2,0,L|214:127,1,95,8|0,0:0|0:0,0:0:0:0:
83,50,81121,6,0,P|32:84|10:142,1,123.499994346619,12|0,0:0|0:0,0:0:0:0:
72,218,81402,2,0,L|208:201,1,123.499994346619,12|0,0:0|0:0,0:0:0:0:
272,146,81683,2,0,L|330:165,1,61.7499971733095,8|0,0:0|0:0,0:0:0:0:
372,247,81871,2,0,P|411:200|412:140,1,123.499994346619,12|0,0:0|0:0,0:0:0:0:
365,59,82152,2,0,L|229:44,1,123.499994346619,12|0,0:0|0:0,0:0:0:0:
150,90,82433,2,0,L|106:143,1,61.7499971733095,8|0,0:0|0:0,0:0:0:0:
26,230,82621,6,0,L|74:219,3,47.5,12|0|8|0,0:2|0:0|0:0|0:0,0:0:0:0:
107,251,82996,1,4,0:3:0:0:
153,260,83089,1,0,0:0:0:0:
196,239,83183,1,4,3:0:0:0:
243,244,83277,1,0,0:0:0:0:
267,284,83371,5,4,1:0:0:0:
211,143,83558,1,0,0:0:0:0:
267,326,83746,1,8,0:0:0:0:
305,167,83933,1,0,0:0:0:0:
403,273,84121,2,0,L|453:188,1,95,8|0,0:0|0:0,0:0:0:0:
496,134,84402,2,0,P|426:139|369:99,1,142.5,8|8,0:0|0:0,0:0:0:0:
211,143,84871,5,8,0:0:0:0:
298,12,85058,1,0,0:0:0:0:
334,187,85246,1,8,0:0:0:0:
187,120,85433,1,0,0:0:0:0:
368,98,85621,2,0,L|334:189,1,95,8|0,0:0|0:0,0:0:0:0:
269,243,85902,2,0,P|203:217|123:255,1,142.5,8|0,0:0|0:0,0:0:0:0:
204,330,86371,5,8,0:0:0:0:
281,132,86558,1,2,0:0:0:0:
281,132,86652,1,2,0:0:0:0:
281,132,86746,2,0,L|178:119,1,95,8|0,0:0|0:0,0:0:0:0:
138,239,87121,5,8,0:0:0:0:
101,56,87308,1,2,0:0:0:0:
101,56,87402,1,2,0:0:0:0:
101,56,87496,2,0,L|197:44,1,95,8|0,0:0|0:0,0:0:0:0:
361,202,87871,5,4,0:0:0:0:
277,49,88058,1,0,0:0:0:0:
226,218,88246,1,12,0:0:0:0:
424,132,88433,1,0,0:0:0:0:
424,132,88527,6,0,B|446:96|428:63|448:25|448:25|429:-2|429:-2|395:-9|395:-9|381:4|381:4|365:12|365:12|365:29|365:29|355:41|355:41|358:60|358:60|352:79,1,285.000010871888,12|0,0:0|0:0,0:0:0:0:
