osu file format v13

[General]
AudioFilename: [Ending] Campione! [Osu] .mp3
AudioLeadIn: 0
PreviewTime: 51167
Countdown: 0
SampleSet: Normal
StackLeniency: 0.7
Mode: 1
LetterboxInBreaks: 0
WidescreenStoryboard: 0

[Editor]
DistanceSpacing: 0.8
BeatDivisor: 4
GridSize: 8
TimelineZoom: 1.1

[Metadata]
Title:Raise
TitleUnicode:Raise
Artist:Ogura Yui
ArtistUnicode:小倉 唯
Creator:Morshu
Version:Muzukashii
Source:カンピオーネ!
Tags:Campione ! ~まつろわぬ神々と神殺しの魔王~ ending
BeatmapID:291858
BeatmapSetID:57724

[Difficulty]
HPDrainRate:4
CircleSize:5
OverallDifficulty:4
ApproachRate:3
SliderMultiplier:1.4
SliderTickRate:1

[Events]
//Background and Video events
0,0,"CampioneBG1.jpg",0,90
//Break Periods
//Storyboard Layer 0 (Background)
//Storyboard Layer 1 (Fail)
//Storyboard Layer 2 (Pass)
//Storyboard Layer 3 (Foreground)
//Storyboard Sound Samples
//Background Colour Transformations
3,100,163,162,255

[TimingPoints]
930,374.999849624061,4,1,0,100,1,0
51930,-100,4,1,0,100,0,1
77992,-100,4,1,0,100,0,0

[HitObjects]
256,192,6929,5,4,0:0:0:0:
256,192,8242,1,0,0:0:0:0:
256,192,8429,1,8,0:0:0:0:
256,192,9367,1,0,0:0:0:0:
256,192,9554,1,8,0:0:0:0:
256,192,9742,1,0,0:0:0:0:
256,192,9929,1,8,0:0:0:0:
256,192,10304,1,0,0:0:0:0:
256,192,10679,1,0,0:0:0:0:
256,192,11054,1,0,0:0:0:0:
256,192,11429,1,8,0:0:0:0:
256,192,11804,1,0,0:0:0:0:
256,192,12179,1,8,0:0:0:0:
256,192,12367,5,0,0:0:0:0:
256,192,12554,1,0,0:0:0:0:
256,192,12742,1,0,0:0:0:0:
256,192,12929,1,8,0:0:0:0:
256,192,13492,1,8,0:0:0:0:
256,192,13867,1,0,0:0:0:0:
256,192,14054,1,0,0:0:0:0:
256,192,14242,1,0,0:0:0:0:
256,192,14429,1,8,0:0:0:0:
256,192,14992,1,8,0:0:0:0:
256,192,15367,1,0,0:0:0:0:
256,192,15554,1,0,0:0:0:0:
256,192,15742,1,8,0:0:0:0:
256,192,15929,1,8,0:0:0:0:
256,192,16492,1,8,0:0:0:0:
256,192,16679,1,8,0:0:0:0:
256,192,16961,1,8,0:0:0:0:
256,192,17241,1,0,0:0:0:0:
256,192,17429,1,8,0:0:0:0:
256,192,18742,1,0,0:0:0:0:
256,192,18836,1,0,0:0:0:0:
256,192,18930,1,8,0:0:0:0:
256,192,19211,1,0,0:0:0:0:
256,192,19492,1,12,0:0:0:0:
256,192,20054,1,8,0:0:0:0:
256,192,20242,1,0,0:0:0:0:
256,192,20429,1,8,0:0:0:0:
256,192,20711,1,8,0:0:0:0:
256,192,20992,1,4,0:0:0:0:
256,192,21742,1,0,0:0:0:0:
256,192,21929,1,0,0:0:0:0:
256,192,22492,1,8,0:0:0:0:
256,192,22867,1,0,0:0:0:0:
256,192,23054,1,8,0:0:0:0:
256,192,23242,1,8,0:0:0:0:
256,192,23429,1,4,0:0:0:0:
256,192,23992,1,12,0:0:0:0:
256,192,24367,1,0,0:0:0:0:
256,192,24554,1,0,0:0:0:0:
256,192,24742,1,0,0:0:0:0:
256,192,24929,1,8,0:0:0:0:
256,192,25492,1,8,0:0:0:0:
256,192,25867,1,0,0:0:0:0:
256,192,26054,1,0,0:0:0:0:
256,192,26242,1,0,0:0:0:0:
256,192,26429,1,8,0:0:0:0:
256,192,26992,1,8,0:0:0:0:
256,192,27367,1,0,0:0:0:0:
256,192,27554,1,0,0:0:0:0:
256,192,27742,1,8,0:0:0:0:
256,192,27929,1,8,0:0:0:0:
256,192,28492,1,8,0:0:0:0:
256,192,28679,1,8,0:0:0:0:
256,192,28961,1,8,0:0:0:0:
256,192,29241,1,0,0:0:0:0:
256,192,29429,1,8,0:0:0:0:
256,192,30742,1,0,0:0:0:0:
256,192,30836,1,0,0:0:0:0:
256,192,30929,1,0,0:0:0:0:
256,192,31304,1,4,0:0:0:0:
256,192,31679,1,12,0:0:0:0:
256,192,32242,1,0,0:0:0:0:
256,192,32429,1,8,0:0:0:0:
256,192,32711,1,8,0:0:0:0:
256,192,32992,1,0,0:0:0:0:
256,192,33180,1,8,0:0:0:0:
256,192,33742,1,0,0:0:0:0:
256,192,33929,1,12,0:0:0:0:
256,192,34211,1,8,0:0:0:0:
256,192,34492,1,0,0:0:0:0:
256,192,34680,1,12,0:0:0:0:
256,192,34961,1,8,0:0:0:0:
256,192,35242,1,0,0:0:0:0:
256,192,35429,1,4,0:0:0:0:
256,192,36929,1,12,0:0:0:0:
256,192,37304,5,0,0:0:0:0:
256,192,37492,1,0,0:0:0:0:
256,192,37679,1,8,0:0:0:0:
256,192,38054,1,0,0:0:0:0:
256,192,38148,1,0,0:0:0:0:
256,192,38242,1,0,0:0:0:0:
256,192,38429,1,0,0:0:0:0:
256,192,38804,1,8,0:0:0:0:
256,192,38992,1,0,0:0:0:0:
256,192,39179,1,8,0:0:0:0:
256,192,39367,1,8,0:0:0:0:
256,192,39554,1,0,0:0:0:0:
256,192,39742,1,0,0:0:0:0:
256,192,39836,1,8,0:0:0:0:
256,192,39929,1,0,0:0:0:0:
256,192,40304,1,0,0:0:0:0:
256,192,40492,1,8,0:0:0:0:
256,192,40679,1,8,0:0:0:0:
256,192,41054,1,0,0:0:0:0:
256,192,41242,1,8,0:0:0:0:
256,192,41429,1,8,0:0:0:0:
256,192,41617,1,12,0:0:0:0:
256,192,41804,1,0,0:0:0:0:
256,192,41992,1,8,0:0:0:0:
256,192,42086,1,0,0:0:0:0:
256,192,42929,1,0,0:0:0:0:
256,192,43211,1,4,0:0:0:0:
256,192,43679,1,0,0:0:0:0:
256,192,43961,1,12,0:0:0:0:
256,192,44429,1,0,0:0:0:0:
256,192,44711,1,12,0:0:0:0:
256,192,45179,1,8,0:0:0:0:
256,192,45461,1,4,0:0:0:0:
256,192,45741,1,4,0:0:0:0:
256,192,45929,1,12,0:0:0:0:
256,192,46679,1,0,0:0:0:0:
256,192,46961,1,0,0:0:0:0:
256,192,47242,1,8,0:0:0:0:
256,192,48554,1,4,0:0:0:0:
256,192,48929,1,12,0:0:0:0:
256,192,49117,1,4,0:0:0:0:
256,192,49492,1,12,0:0:0:0:
256,192,49867,1,12,0:0:0:0:
256,192,50242,1,12,0:0:0:0:
256,192,51179,1,0,0:0:0:0:
256,192,51554,1,8,0:0:0:0:
256,192,51929,1,12,0:0:0:0:
256,192,52492,1,0,0:0:0:0:
256,192,52679,1,8,0:0:0:0:
256,192,52961,1,8,0:0:0:0:
256,192,53242,1,0,0:0:0:0:
256,192,53429,1,0,0:0:0:0:
256,192,53711,1,8,0:0:0:0:
256,192,54179,1,0,0:0:0:0:
256,192,54554,1,8,0:0:0:0:
256,192,54929,1,8,0:0:0:0:
256,192,55492,1,0,0:0:0:0:
256,192,55679,1,8,0:0:0:0:
256,192,55961,1,0,0:0:0:0:
256,192,56242,1,0,0:0:0:0:
256,192,56429,1,0,0:0:0:0:
256,192,56711,1,8,0:0:0:0:
256,192,57554,1,8,0:0:0:0:
256,192,57742,1,0,0:0:0:0:
256,192,57929,1,0,0:0:0:0:
256,192,58304,1,0,0:0:0:0:
256,192,58492,1,0,0:0:0:0:
256,192,58679,1,8,0:0:0:0:
256,192,58867,1,8,0:0:0:0:
256,192,58961,1,0,0:0:0:0:
256,192,59242,1,0,0:0:0:0:
256,192,59429,1,0,0:0:0:0:
256,192,59804,1,0,0:0:0:0:
256,192,59992,1,0,0:0:0:0:
256,192,60179,1,8,0:0:0:0:
256,192,60367,1,8,0:0:0:0:
256,192,60461,1,0,0:0:0:0:
256,192,60929,1,8,0:0:0:0:
256,192,61211,1,0,0:0:0:0:
256,192,61492,1,0,0:0:0:0:
256,192,61679,1,0,0:0:0:0:
256,192,61867,1,0,0:0:0:0:
256,192,62054,1,8,0:0:0:0:
256,192,62242,1,8,0:0:0:0:
256,192,62429,1,4,0:0:0:0:
256,192,62711,1,4,0:0:0:0:
256,192,63179,1,0,0:0:0:0:
256,192,63554,1,8,0:0:0:0:
256,192,63929,1,12,0:0:0:0:
256,192,64492,1,0,0:0:0:0:
256,192,64679,1,8,0:0:0:0:
256,192,64961,1,8,0:0:0:0:
256,192,65242,1,8,0:0:0:0:
256,192,65429,1,0,0:0:0:0:
256,192,65711,1,8,0:0:0:0:
256,192,66179,1,0,0:0:0:0:
256,192,66554,1,8,0:0:0:0:
256,192,66929,1,8,0:0:0:0:
256,192,67492,1,0,0:0:0:0:
256,192,67679,1,8,0:0:0:0:
256,192,67961,1,0,0:0:0:0:
256,192,68242,1,0,0:0:0:0:
256,192,68429,1,0,0:0:0:0:
256,192,68711,1,8,0:0:0:0:
256,192,69554,1,8,0:0:0:0:
256,192,69742,1,0,0:0:0:0:
256,192,69929,1,4,0:0:0:0:
256,192,70211,1,4,0:0:0:0:
256,192,70492,1,4,0:0:0:0:
256,192,71054,1,0,0:0:0:0:
256,192,71242,1,0,0:0:0:0:
256,192,71429,1,12,0:0:0:0:
256,192,71711,1,4,0:0:0:0:
256,192,71992,1,4,0:0:0:0:
256,192,72742,1,0,0:0:0:0:
256,192,72929,1,8,0:0:0:0:
256,192,73304,1,8,0:0:0:0:
256,192,73585,1,0,0:0:0:0:
256,192,73867,1,8,0:0:0:0:
256,192,74054,1,8,0:0:0:0:
256,192,74242,1,0,0:0:0:0:
256,192,74429,1,0,0:0:0:0:
256,192,74617,1,0,0:0:0:0:
256,192,74711,1,0,0:0:0:0:
256,192,75554,1,8,0:0:0:0:
256,192,75742,1,0,0:0:0:0:
256,192,75929,1,4,0:0:0:0:
256,192,76211,1,4,0:0:0:0:
256,192,76492,1,12,0:0:0:0:
256,192,77054,1,8,0:0:0:0:
256,192,77242,1,0,0:0:0:0:
256,192,77429,1,4,0:0:0:0:
256,192,77711,1,12,0:0:0:0:
256,192,77992,1,12,0:0:0:0:
256,192,78742,1,0,0:0:0:0:
256,192,78929,1,8,0:0:0:0:
256,192,79304,1,8,0:0:0:0:
256,192,79585,1,0,0:0:0:0:
256,192,79867,1,8,0:0:0:0:
256,192,80054,1,8,0:0:0:0:
256,192,80242,1,0,0:0:0:0:
256,192,80429,1,0,0:0:0:0:
256,192,80617,1,0,0:0:0:0:
256,192,80711,12,0,83429,0:0:0:0:
