osu file format v12

[General]
AudioFilename: miracle rush.mp3
AudioLeadIn: 2000
PreviewTime: 60282
Countdown: 0
SampleSet: Normal
StackLeniency: 0.7
Mode: 0
LetterboxInBreaks: 0

[Editor]
DistanceSpacing: 1
BeatDivisor: 2
GridSize: 4

[Metadata]
Title:MIRACLE RUSH (TV Size)
TitleUnicode:MIRACLE RUSH (TV Size)
Artist:Ogura Yui
ArtistUnicode:小倉唯
Creator:Holy
Version:Normal
Source:Saki: Achiga-hen - episode of side-A
Tags:Opening StylipS Cuvelia
BeatmapID:225806
BeatmapSetID:81318

[Difficulty]
HPDrainRate:3
CircleSize:3
OverallDifficulty:4
ApproachRate:4
SliderMultiplier:0.999999999999999
SliderTickRate:2

[Events]
//Background and Video events
0,0,"waa.jpg",1,1
Video,0,"guha.avi"
//Break Periods
//Storyboard Layer 0 (Background)
//Storyboard Layer 1 (Fail)
//Storyboard Layer 2 (Pass)
//Storyboard Layer 3 (Foreground)
//Storyboard Sound Samples
//Background Colour Transformations
3,100,0,0,0

[TimingPoints]
1010,357.142857142857,4,2,1,40,1,0
3867,-100,4,2,1,50,0,0
5653,-100,4,2,1,60,0,0
12438,-100,4,2,1,70,0,0
23510,-100,4,1,1,60,0,0
61009,-100,4,1,1,70,0,1
69849,-100,4,1,2,70,0,1
70027,-100,4,1,1,70,0,1
71724,-100,4,1,1,70,0,0
72438,-100,4,1,1,70,0,1
83867,-100,4,2,1,60,0,0
93867,-100,4,2,1,40,0,0
94938,-100,4,2,1,30,0,0

[Colours]
Combo1 : 142,255,156
Combo2 : 255,250,149
Combo3 : 102,153,255
Combo4 : 255,162,241

[HitObjects]
312,312,653,2,2,L|284:216,1,99.9999999999999,2|2,0:0|0:0,0:0:0:0:
228,76,1545,1,0,0:0:0:0:
164,152,1902,2,0,L|160:204,1,50,0|2,0:0|0:0,0:0:0:0:
304,152,2617,6,0,L|352:132,2,50
260,172,3152,1,2,0:0:0:0:
164,152,3510,2,0,L|120:116,1,50,0|2,0:0|0:0,0:0:0:0:
68,200,4045,2,0,P|52:248|72:292,1,99.9999999999999
120,308,4581,2,0,P|168:320|220:312,2,99.9999999999999,2|0|2,0:0|0:0|0:0,0:0:0:0:
124,108,6010,6,0,L|224:108,1,99.9999999999999
284,28,6724,2,0,P|344:112|432:104,1,200,4|0,0:0|0:0,0:0:0:0:
488,192,7795,1,0,0:0:0:0:
388,204,8152,2,0,P|436:288|392:380,1,200,4|0,0:0|0:0,0:0:0:0:
340,292,9224,1,0,0:0:0:0:
244,272,9581,6,0,P|168:328|84:272,1,200,2|2,0:0|0:0,0:0:0:0:
164,216,10653,1,0,0:0:0:0:
86,143,11010,2,0,P|164:92|240:148,1,200,2|2,0:0|0:0,0:0:0:0:
344,144,12081,2,0,L|388:120,1,50,4|0,0:0|0:0,0:0:0:0:
432,96,12438,6,0,P|448:144|432:192,1,99.9999999999999,4|8,0:0|0:0,0:0:0:0:
348,240,13153,2,0,P|332:192|344:144,1,99.9999999999999,0|8,0:0|0:0,0:0:0:0:
296,164,13688,2,0,P|316:232|288:308,1,150,0|8,0:0|0:0,0:0:0:0:
228,228,14581,1,0,0:0:0:0:
176,140,14938,1,8,0:0:0:0:
232,60,15295,5,4,0:0:0:0:
320,112,15653,1,8,0:0:0:0:
368,200,16010,2,0,L|416:220,2,50,0|0|8,0:0|0:0|0:0,0:0:0:0:
344,244,16545,2,0,P|236:300|132:244,1,250
84,160,17795,6,0,P|44:188|24:240,1,99.9999999999999,0|4,0:0|0:0,0:0:0:0:
72,324,18510,1,8,0:0:0:0:
132,244,18867,2,0,P|180:224|212:188,1,99.9999999999999,0|8,0:0|0:0,0:0:0:0:
204,88,19581,5,0,0:0:0:0:
288,140,19938,2,0,L|328:172,1,50,8|0,0:0|0:0,0:0:0:0:
368,200,20295,2,0,P|384:248|372:296,1,99.9999999999999,0|4,0:0|0:0,0:0:0:0:
296,360,21010,5,4,0:0:0:0:
212,304,21367,1,8,0:0:0:0:
132,360,21724,2,2,L|96:324,1,50
140,232,22260,1,4,0:0:0:0:
384,172,23152,6,0,P|348:140|296:128,1,99.9999999999999,4|4,0:0|0:0,0:0:0:0:
208,88,23867,5,4,0:0:0:0:
188,132,24045,2,0,P|184:228|212:272,1,150
288,336,24938,1,8,0:0:0:0:
376,284,25295,2,0,P|416:248|432:204,2,99.9999999999999,0|8|0,0:0|0:0|0:0,0:0:0:0:
288,336,26367,2,0,L|288:232,1,99.9999999999999,12|0,0:0|0:0,0:0:0:0:
288,136,27081,6,0,B|332:112|332:112|432:112|432:112|476:140,1,200,8|8,0:0|0:0,0:0:0:0:
424,224,28152,1,0,0:0:0:0:
352,292,28510,2,0,L|256:320,1,99.9999999999999,8|0,0:0|0:0,0:0:0:0:
180,256,29224,2,0,P|172:208|180:152,1,99.9999999999999,12|0,0:0|0:0,0:0:0:0:
188,108,29760,5,0,0:0:0:0:
228,140,29938,2,0,P|272:168|320:188,1,99.9999999999999,8|0,0:0|0:0,0:0:0:0:
408,228,30652,2,0,P|428:276|420:324,2,99.9999999999999,8|0|8,0:0|0:0|0:0,0:0:0:0:
316,188,31724,2,0,P|360:160|384:120,1,99.9999999999999,0|8,0:0|0:0,0:0:0:0:
288,92,32438,5,0,0:0:0:0:
196,128,32795,2,0,L|148:216,1,99.9999999999999,8|0,0:0|0:0,0:0:0:0:
220,260,33510,1,8,0:0:0:0:
124,292,33867,2,0,L|72:280,2,50,0|0|8,0:0|0:0|0:0,0:0:0:0:
84,200,34581,1,0,0:0:0:0:
152,128,34938,2,0,L|240:176,1,99.9999999999999,12|0,0:0|0:0,0:0:0:0:
316,240,35652,6,0,L|308:188,1,50,8|0,0:0|0:0,0:0:0:0:
328,144,36010,2,0,P|380:164|420:148,1,99.9999999999999,0|8,0:0|0:0,0:0:0:0:
456,184,36545,1,0,0:0:0:0:
484,224,36724,1,0,0:0:0:0:
404,284,37081,2,0,L|392:336,2,50,8|0|0,0:0|0:0|0:0,0:0:0:0:
304,268,37795,2,0,L|204:268,1,99.9999999999999,8|0,0:0|0:0,0:0:0:0:
108,244,38510,6,0,L|92:196,1,50,8|0,0:0|0:0,0:0:0:0:
132,164,38867,2,0,L|152:216,1,50
192,184,39224,2,0,P|244:188|292:176,1,99.9999999999999,8|0,0:0|0:0,0:0:0:0:
344,260,39938,2,0,P|396:236|408:192,1,99.9999999999999,8|0,0:0|0:0,0:0:0:0:
388,152,40474,1,0,0:0:0:0:
348,116,40652,2,0,P|360:64|348:20,1,99.9999999999999,8|0,0:0|0:0,0:0:0:0:
272,84,41367,5,8,0:0:0:0:
272,184,41724,2,0,P|256:228|272:284,2,99.9999999999999,0|8|0,0:0|0:0|0:0,0:0:0:0:
344,252,42795,2,0,P|370:294|412:324,1,99.9999999999999,8|0,0:0|0:0,0:0:0:0:
444,228,43510,2,0,P|412:188|368:160,1,99.9999999999999,8|0,0:0|0:0,0:0:0:0:
272,184,44224,5,8,0:0:0:0:
200,112,44581,2,0,L|160:76,2,50,0|0|8,0:0|0:0|0:0,0:0:0:0:
176,156,45117,2,0,P|152:224|184:292,1,150
260,228,46010,2,0,P|312:212|352:228,1,99.9999999999999,0|0,0:0|0:0,0:0:0:0:
404,312,46724,5,4,0:0:0:0:
464,232,47081,2,0,P|472:180|456:136,1,99.9999999999999,2|0,0:0|0:0,0:0:0:0:
376,76,47795,1,2,0:0:0:0:
372,172,48152,2,0,P|324:188|280:172,1,99.9999999999999,0|2,0:0|0:0,0:0:0:0:
196,228,48867,2,0,P|184:180|200:132,1,99.9999999999999,0|2,0:0|0:0,0:0:0:0:
112,84,49581,5,0,0:0:0:0:
64,172,49938,2,0,L|28:268,2,99.9999999999999,2|0|2,0:0|0:0|0:0,0:0:0:0:
112,84,51010,2,0,P|160:72|212:80,1,99.9999999999999,0|2,0:0|0:0,0:0:0:0:
228,176,51724,2,0,P|277:183|325:171,1,99.9999999999999,0|6,0:0|0:0,0:0:0:0:
360,76,52438,6,0,L|432:144,1,99.9999999999999,4|6,0:0|0:0,0:0:0:0:
368,220,53152,1,0,0:0:0:0:
300,296,53510,2,0,P|252:280|208:296,1,99.9999999999999,2|0,0:0|0:0,0:0:0:0:
112,336,54224,1,2,0:0:0:0:
48,260,54581,1,0,0:0:0:0:
140,220,54938,1,6,0:0:0:0:
208,292,55295,2,0,P|280:268|328:212,2,150,12|12|12,0:0|0:0|0:0,0:0:0:0:
228,192,56724,5,0,0:0:0:0:
132,172,57081,2,0,P|120:124|136:72,2,99.9999999999999,8|4|8,0:0|0:0|0:0,0:0:0:0:
176,264,58152,1,4,0:0:0:0:
308,192,58688,1,4,0:0:0:0:
180,112,59224,1,4,0:0:0:0:
280,96,59581,6,2,L|332:80,1,50,2|0,0:0|0:0,0:0:0:0:
344,128,59938,2,0,L|392:116,1,50,2|0,0:0|0:0,0:0:0:0:
440,104,60295,2,0,P|484:200|448:280,1,200,0|4,0:0|0:0,0:0:0:0:
352,252,61367,1,2,0:0:0:0:
280,180,61724,6,0,P|232:160|188:180,1,99.9999999999999,0|2,0:0|0:0,0:0:0:0:
152,212,62260,1,0,0:0:0:0:
116,248,62438,2,0,P|68:260|16:248,1,99.9999999999999,0|2,0:0|0:0,0:0:0:0:
44,152,63152,1,0,0:0:0:0:
124,104,63510,2,0,L|148:60,1,50,2|0,0:0|0:0,0:0:0:0:
176,100,63867,2,0,P|224:116|272:104,1,99.9999999999999,0|2,0:0|0:0,0:0:0:0:
356,52,64581,6,0,L|396:20,1,50
432,56,64938,2,0,L|392:88,1,50
436,112,65295,2,0,P|444:160|432:212,1,99.9999999999999,2|0,0:0|0:0,0:0:0:0:
380,296,66010,1,0,0:0:0:0:
292,344,66367,1,6,0:0:0:0:
264,248,66724,6,0,P|216:232|168:248,1,99.9999999999999,4|2,0:0|0:0,0:0:0:0:
124,268,67260,1,0,0:0:0:0:
88,220,67438,2,0,P|72:168|88:128,2,99.9999999999999,0|2|0,0:0|0:0|0:0,0:0:0:0:
160,148,68510,2,0,L|148:48,1,99.9999999999999,2|0,0:0|0:0,0:0:0:0:
88,128,69224,1,2,0:0:0:0:
148,48,69581,6,0,P|244:20|336:52,1,200
400,136,70652,1,2,0:0:0:0:
360,164,70831,2,0,L|272:224,1,99.9999999999999,0|4,0:0|0:0,0:0:0:0:
236,248,71367,1,6,0:0:0:0:
148,200,71724,2,0,P|136:152|152:104,1,99.9999999999999,0|2,0:0|0:0,0:0:0:0:
244,140,72438,6,0,P|292:124|340:140,1,99.9999999999999,4|2,0:0|0:0,0:0:0:0:
412,204,73153,2,0,L|428:252,2,50
356,288,73867,1,0,0:0:0:0:
312,200,74224,1,2,0:0:0:0:
240,268,74581,6,0,L|264:312,3,50,0|0|2|0,0:0|0:0|0:0|0:0,0:0:0:0:
312,296,75295,2,0,P|324:248|312:200,1,99.9999999999999,0|2,0:0|0:0,0:0:0:0:
236,132,76010,2,0,P|224:180|236:228,1,99.9999999999999,0|2,0:0|0:0,0:0:0:0:
312,200,76724,1,0,0:0:0:0:
316,100,77081,1,2,0:0:0:0:
236,44,77438,1,0,0:0:0:0:
148,92,77795,1,2,0:0:0:0:
60,140,78153,6,0,P|52:88|60:40,1,99.9999999999999,4|2,0:0|0:0,0:0:0:0:
148,92,78867,2,0,P|156:144|148:192,1,99.9999999999999,0|2,0:0|0:0,0:0:0:0:
196,180,79402,2,0,P|196:104|240:36,1,150,0|2,0:0|0:0,0:0:0:0:
320,100,80295,1,0,0:0:0:0:
380,180,80653,1,2,0:0:0:0:
292,228,81010,6,0,P|244:216|196:228,1,99.9999999999999,0|2,0:0|0:0,0:0:0:0:
120,296,81724,2,0,L|80:264,2,50,0|0|0,0:0|0:0|0:0,0:0:0:0:
156,332,82260,2,0,P|208:348|252:336,1,99.9999999999999
292,312,82795,1,8,0:0:0:0:
220,192,83867,6,0,P|204:144|216:96,1,99.9999999999999,4|8,0:0|0:0,0:0:0:0:
304,120,84581,2,0,L|404:144,2,99.9999999999999,0|8|0,0:0|0:0|0:0,0:0:0:0:
324,208,85653,2,4,P|340:256|332:304,1,99.9999999999999,8|0,0:0|0:0,0:0:0:0:
248,340,86367,1,12,0:0:0:0:
208,264,86724,6,4,P|188:216|152:184,1,99.9999999999999,0|8,0:0|0:0,0:0:0:0:
72,128,87438,1,4,0:0:0:0:
48,84,87617,2,0,P|96:96|144:84,1,99.9999999999999,4|4,0:0|0:0,0:0:0:0:
216,156,88331,5,0,0:0:0:0:
248,196,88510,1,0,0:0:0:0:
296,188,88688,1,0,0:0:0:0:
328,148,88867,2,0,L|428:168,2,99.9999999999999,0|8|4,0:0|0:0|0:0,0:0:0:0:
280,60,89938,1,0,0:0:0:0:
180,48,90295,2,0,L|136:72,1,50,4|0,0:0|0:0,0:0:0:0:
160,116,90653,2,0,L|204:92,1,50,0|4,0:0|0:0,0:0:0:0:
256,192,91010,12,0,96724,0:0:0:0:
