osu file format v12

[General]
AudioFilename: miracle rush.mp3
AudioLeadIn: 2000
PreviewTime: 60282
Countdown: 0
SampleSet: Soft
StackLeniency: 0.6
Mode: 0
LetterboxInBreaks: 0

[Editor]
DistanceSpacing: 0.8
BeatDivisor: 4
GridSize: 4

[Metadata]
Title:MIRACLE RUSH (TV Size)
TitleUnicode:MIRACLE RUSH (TV Size)
Artist:Ogura Yui
ArtistUnicode:小倉唯
Creator:Holy
Version:Insane
Source:Saki: Achiga-hen - episode of side-A
Tags:Opening StylipS Cuvelia
BeatmapID:225805
BeatmapSetID:81318

[Difficulty]
HPDrainRate:7
CircleSize:4
OverallDifficulty:7
ApproachRate:9
SliderMultiplier:1.8
SliderTickRate:2

[Events]
//Background and Video events
0,0,"waa.jpg",1,1
Video,0,"guha.avi"
//Break Periods
//Storyboard Layer 0 (Background)
//Storyboard Layer 1 (Fail)
//Storyboard Layer 2 (Pass)
//Storyboard Layer 3 (Foreground)
//Storyboard Sound Samples
//Background Colour Transformations
3,100,0,0,0

[TimingPoints]
1010,357.142857142857,4,2,1,40,1,0
4224,-100,4,2,1,50,0,0
5295,-100,4,2,1,60,0,0
12438,-100,4,2,1,70,0,0
18152,-100,4,2,1,80,0,0
23152,-100,4,1,1,60,0,0
23152,-100,4,1,1,80,0,0
23688,-100,4,1,1,60,0,0
29223,-83.3333333333333,4,1,1,60,0,0
29401,-100,4,1,1,60,0,0
46366,-125,4,1,1,60,0,0
46723,-100,4,1,1,60,0,0
53420,-100,4,1,2,60,0,0
53599,-100,4,1,1,60,0,0
58866,-83.3333333333333,4,1,1,60,0,0
59044,-100,4,1,1,60,0,0
59224,-76.9230769230769,4,1,1,60,0,0
59402,-100,4,1,1,60,0,0
61009,-100,4,1,1,70,0,1
71366,-83.3333333333333,4,1,1,70,0,1
71544,-100,4,1,1,70,0,1
71724,-100,4,1,1,70,0,0
72438,-100,4,1,1,70,0,1
76010,-83.3333333333333,4,1,1,70,0,1
76724,-100,4,1,1,70,0,1
78152,-76.9230769230769,4,1,1,70,0,1
78867,-100,4,1,1,70,0,1
82884,-100,4,2,1,70,0,1
83509,-100,4,1,1,70,0,1
83867,-100,4,2,1,60,0,0
87438,-100,4,2,1,50,0,0
87795,-100,4,2,1,60,0,0
88510,-76.9230769230769,4,2,1,60,0,0
89581,-76.9230769230769,4,2,1,65,0,0
90652,-100,4,2,1,60,0,0
93867,-100,4,2,1,40,0,0
94938,-100,4,2,1,30,0,0

[Colours]
Combo1 : 142,255,156
Combo2 : 255,250,149
Combo3 : 102,153,255
Combo4 : 255,162,241

[HitObjects]
160,240,652,1,2,0:0:0:0:
192,256,742,1,2,0:0:0:0:
228,256,831,1,2,0:0:0:0:
260,240,920,1,2,0:0:0:0:
284,212,1009,2,0,P|296:168|288:124,2,90,2|2|0,0:0|0:0|0:0,0:0:0:0:
364,156,1545,2,0,P|360:110|337:71,2,90,2|0|0,0:0|0:0|0:0,0:0:0:0:
444,136,2081,6,0,P|440:232|376:284,1,180,2|0,0:0|0:0,0:0:0:0:
300,240,2617,1,0,0:0:0:0:
220,284,2795,2,0,L|164:212,1,90
80,176,3152,2,0,L|140:108,1,90,2|0,0:0|0:0,0:0:0:0:
220,152,3509,1,0,0:0:0:0:
300,240,3688,6,0,P|348:164|304:96,1,180,2|0,0:0|0:0,0:0:0:0:
172,64,4224,1,0,0:0:0:0:
208,192,4402,1,0,0:0:0:0:
304,96,4581,1,2,0:0:0:0:
364,216,4760,1,0,0:0:0:0:
252,144,4938,1,0,0:0:0:0:
264,280,5117,1,0,0:0:0:0:
264,280,5295,6,0,P|140:312|56:212,1,270,2|0,0:0|0:0,0:0:0:0:
148,116,6009,2,0,L|104:36,1,90
252,144,6367,2,0,L|340:172,1,90,0|0,0:0|0:0,0:0:0:0:
408,108,6724,6,0,P|444:192|408:268,1,180,4|0,0:0|0:0,0:0:0:0:
292,200,7438,1,0,0:0:0:0:
196,284,7617,2,0,P|196:240|228:200,1,90
264,268,7974,1,0,0:0:0:0:
112,192,8152,6,0,L|32:144,1,90,4|0,0:0|0:0,0:0:0:0:
160,96,8510,2,0,L|244:60,1,90
236,152,8867,1,0,0:0:0:0:
316,192,9045,2,0,P|328:148|316:104,2,90
172,260,9581,6,0,P|148:172|172:88,1,180,4|0,0:0|0:0,0:0:0:0:
172,88,10117,1,0,0:0:0:0:
240,140,10295,2,0,L|312:196,1,90
300,284,10652,2,0,L|228:228,1,90
160,168,11010,5,2,0:0:0:0:
172,88,11188,1,0,0:0:0:0:
84,192,11367,1,0,0:0:0:0:
228,228,11545,1,0,0:0:0:0:
92,108,11724,1,2,0:0:0:0:
240,140,11902,1,0,0:0:0:0:
144,256,12081,2,0,L|160:168,1,90,4|0,0:0|0:0,0:0:0:0:
228,228,12438,5,4,0:0:0:0:
312,192,12617,2,0,P|324:144|312:104,2,90,0|8|0,0:0|0:0|0:0,0:0:0:0:
420,112,13152,2,0,P|464:192|420:260,1,180,2|8,0:0|0:0,0:0:0:0:
344,304,13688,1,0,0:0:0:0:
208,316,13867,6,0,L|228:228,1,90
144,192,14224,1,8,0:0:0:0:
212,132,14402,2,0,L|232:44,2,90,0|2|0,0:0|0:0|0:0,0:0:0:0:
120,240,14938,1,12,0:0:0:0:
280,160,15117,1,0,0:0:0:0:
364,264,15295,6,0,P|340:304|312:336,1,90,4|0,0:0|0:0,0:0:0:0:
224,232,15652,2,0,P|187:261|150:281,1,90,8|0,0:0|0:0,0:0:0:0:
136,148,16009,2,0,P|95:170|54:184,2,90,0|0|8,0:0|0:0|0:0,0:0:0:0:
224,232,16545,2,0,P|256:144|224:68,1,180
136,148,17081,2,0,L|76:80,1,90,8|0,0:0|0:0,0:0:0:0:
156,36,17438,1,0,0:0:0:0:
320,108,17617,2,0,P|352:76|376:36,2,90,0|8|0,0:0|0:0|0:0,0:0:0:0:
264,180,18152,6,0,P|304:256|264:336,1,180,4|8,0:0|0:0,0:0:0:0:
265,334,18688,1,0,0:0:0:0:
196,220,18867,1,0,0:0:0:0:
132,340,19045,1,0,0:0:0:0:
248,268,19224,1,8,0:0:0:0:
112,268,19402,2,0,P|72:192|112:112,1,180
184,60,19938,1,8,0:0:0:0:
256,116,20117,5,0,0:0:0:0:
256,116,20206,1,0,0:0:0:0:
256,116,20295,2,0,L|316:184,1,90
192,236,20652,2,0,L|176:324,1,90,8|0,0:0|0:0,0:0:0:0:
260,296,21009,5,0,0:0:0:0:
156,160,21188,1,0,0:0:0:0:
236,172,21367,1,8,0:0:0:0:
116,228,21545,1,0,0:0:0:0:
120,92,21724,1,2,0:0:0:0:
252,60,21902,1,2,0:0:0:0:
252,60,22259,6,0,P|320:116|404:96,1,180
352,48,22795,2,0,P|392:28|436:32,1,90,8|0,0:0|0:0,0:0:0:0:
488,108,23152,1,4,0:0:0:0:
336,332,23509,1,4,0:0:0:0:
100,204,23867,5,4,0:0:0:0:
164,268,24045,1,0,0:0:0:0:
248,240,24224,2,0,L|304:168,1,90,8|0,0:0|0:0,0:0:0:0:
216,144,24581,2,0,P|206:94|212:52,1,90
300,52,24938,1,8,0:0:0:0:
412,132,25117,1,0,0:0:0:0:
324,232,25295,5,0,0:0:0:0:
216,144,25474,2,0,L|152:76,1,90,0|8,0:0|0:0,0:0:0:0:
156,80,25831,1,0,0:0:0:0:
72,184,26009,2,0,L|104:268,1,90
196,272,26367,6,0,P|276:236|356:272,1,180,8|0,0:0|0:0,0:0:0:0:
472,204,26902,2,0,L|432:120,1,90,0|8,0:0|0:0,0:0:0:0:
400,40,27259,1,0,0:0:0:0:
332,156,27438,2,0,P|324:112|332:68,1,90
332,68,27795,2,0,P|309:107|269:130,1,90,8|0,0:0|0:0,0:0:0:0:
184,152,28152,5,0,0:0:0:0:
148,68,28331,1,0,0:0:0:0:
92,192,28509,1,8,0:0:0:0:
148,68,28688,1,0,0:0:0:0:
204,240,28867,1,0,0:0:0:0:
124,280,29045,1,0,0:0:0:0:
256,320,29224,6,0,P|304:228|256:136,1,215.999993408203,12|0,0:0|0:0,0:0:0:0:
256,136,29759,1,0,0:0:0:0:
328,84,29938,2,0,L|392:20,1,90,8|0,0:0|0:0,0:0:0:0:
428,104,30295,2,0,B|380:192|432:276,1,180,0|8,0:0|0:0,0:0:0:0:
340,264,30831,2,0,L|256:308,1,90
172,288,31188,5,0,0:0:0:0:
172,288,31367,2,0,P|184:240|176:200,1,90,8|0,0:0|0:0,0:0:0:0:
96,240,31724,2,0,B|40:152|100:72,1,180,0|8,0:0|0:0,0:0:0:0:
100,72,32259,1,0,0:0:0:0:
204,148,32438,6,0,P|212:192|204:236,2,90,0|0|8,0:0|0:0|0:0,0:0:0:0:
180,60,32974,2,0,P|264:32|348:60,1,180
348,60,33509,1,8,0:0:0:0:
408,128,33688,6,0,L|468:200,2,90
320,136,34224,2,0,P|292:224|328:304,1,180,8|0,0:0|0:0,0:0:0:0:
348,328,34670,5,0,0:0:0:0:
380,344,34759,1,0,0:0:0:0:
416,344,34849,1,0,0:0:0:0:
444,324,34938,1,12,0:0:0:0:
464,292,35027,1,0,0:0:0:0:
468,256,35117,1,0,0:0:0:0:
464,220,35206,1,0,0:0:0:0:
452,188,35295,1,0,0:0:0:0:
404,108,35474,5,0,0:0:0:0:
280,164,35652,2,0,L|224:88,1,90,8|0,0:0|0:0,0:0:0:0:
96,64,36009,2,0,L|74:151,1,90
228,92,36367,1,8,0:0:0:0:
160,208,36545,1,0,0:0:0:0:
248,236,36724,1,0,0:0:0:0:
76,240,36902,2,0,P|68:192|76:152,2,90,0|8|0,0:0|0:0|0:0,0:0:0:0:
192,312,37438,2,0,L|272:360,1,90
384,288,37795,6,0,P|420:208|384:128,1,180,8|0,0:0|0:0,0:0:0:0:
304,172,38331,1,0,0:0:0:0:
236,232,38510,1,8,0:0:0:0:
168,172,38688,1,0,0:0:0:0:
100,228,38867,2,0,P|58:253|20:276,1,90
88,156,39224,2,0,P|40:165|-4:173,1,90,8|0,0:0|0:0,0:0:0:0:
84,68,39581,5,0,0:0:0:0:
168,172,39760,1,0,0:0:0:0:
232,52,39938,1,8,0:0:0:0:
296,172,40117,1,0,0:0:0:0:
392,76,40295,2,0,L|476:112,1,90
400,160,40652,6,0,P|360:236|400:320,1,180,4|0,0:0|0:0,0:0:0:0:
472,280,41188,2,0,P|480:236|472:192,2,90,0|8|0,0:0|0:0|0:0,0:0:0:0:
388,244,41724,1,0,0:0:0:0:
316,296,41902,1,0,0:0:0:0:
240,244,42081,2,0,P|228:196|240:156,2,90,8|0|0,0:0|0:0|0:0,0:0:0:0:
316,196,42617,1,0,0:0:0:0:
392,308,42795,1,8,0:0:0:0:
468,196,42974,1,0,0:0:0:0:
392,224,43152,2,0,L|392:180|392:128,2,90,0|0|8,0:0|0:0|0:0,0:0:0:0:
120,140,43867,6,0,P|112:192|120:228,2,90,0|0|8,0:0|0:0|0:0,0:0:0:0:
256,132,44402,2,0,P|264:80|256:44,2,90
232,264,44938,1,8,0:0:0:0:
192,184,45117,1,6,0:0:0:0:
332,296,45474,1,6,0:0:0:0:
244,296,45652,5,0,0:0:0:0:
224,296,45742,1,0,0:0:0:0:
208,296,45831,1,0,0:0:0:0:
192,296,45920,1,0,0:0:0:0:
172,296,46010,2,0,L|128:296,3,45
112,296,46367,2,0,L|76:296,3,36
32,296,46724,6,0,P|24:248|36:208,1,90,4|0,0:0|0:0,0:0:0:0:
136,120,47081,2,0,P|144:168|132:208,1,90,2|0,0:0|0:0,0:0:0:0:
68,140,47438,2,0,P|64:92|84:52,1,90,0|0,0:0|0:0,0:0:0:0:
216,128,47795,2,0,P|207:175|182:209,1,90,2|0,0:0|0:0,0:0:0:0:
136,120,48152,2,0,P|156:76|188:52,1,90
328,168,48510,2,0,P|308:212|276:236,1,90,2|0,0:0|0:0,0:0:0:0:
204,308,48867,5,0,0:0:0:0:
240,168,49045,1,0,0:0:0:0:
356,304,49224,2,0,P|312:320|264:316,1,90,2|0,0:0|0:0,0:0:0:0:
112,140,49581,2,0,B|100:188|112:232,1,90
192,192,49938,1,2,0:0:0:0:
192,100,50117,1,0,0:0:0:0:
336,64,50295,2,0,B|347:105|335:153,1,90
448,316,50652,1,2,0:0:0:0:
448,228,50831,1,0,0:0:0:0:
348,292,51010,6,0,L|256:292,1,90,0|0,0:0|0:0,0:0:0:0:
96,216,51367,1,2,0:0:0:0:
184,216,51545,1,0,0:0:0:0:
348,144,51724,2,0,L|256:144,1,90,0|0,0:0|0:0,0:0:0:0:
140,80,52081,1,6,0:0:0:0:
260,144,52260,1,0,0:0:0:0:
140,208,52438,5,0,0:0:0:0:
64,144,52617,2,0,P|56:100|64:56,2,90,0|2|0,0:0|0:0|0:0,0:0:0:0:
100,228,53152,1,0,0:0:0:0:
48,300,53331,2,0,P|136:324|220:300,1,180
300,336,53867,2,0,L|384:288,1,90,4|0,0:0|0:0,0:0:0:0:
220,208,54224,2,0,L|304:160,1,90,2|0,0:0|0:0,0:0:0:0:
296,252,54581,2,0,L|380:204,1,90
224,108,54938,6,0,L|308:60,2,90,6|0|4,0:0|0:0|0:0,0:0:0:0:
108,176,55474,1,0,0:0:0:0:
148,96,55652,1,8,0:0:0:0:
60,104,55831,2,0,L|28:20,2,90,0|4|0,0:0|0:0|0:0,0:0:0:0:
60,104,56367,1,8,0:0:0:0:
28,188,56545,2,0,P|24:280|84:340,2,180,0|8|0,0:0|0:0|0:0,0:0:0:0:
116,212,57438,6,0,L|200:248,1,90,4|0,0:0|0:0,0:0:0:0:
212,132,57795,2,0,L|292:84,1,90,8|0,0:0|0:0,0:0:0:0:
376,120,58152,5,2,0:0:0:0:
300,284,58331,2,0,L|276:196,1,90
376,120,58688,1,2,0:0:0:0:
212,132,58867,2,0,L|112:176,1,107.999996704102
124,348,59224,2,0,L|72:240,1,116.999994644165,2|0,0:0|0:0,0:0:0:0:
256,76,59581,21,0,0:0:0:0:
200,244,59760,1,0,0:0:0:0:
352,144,59938,1,0,0:0:0:0:
160,144,60117,1,0,0:0:0:0:
312,244,60295,1,4,0:0:0:0:
256,168,60474,1,0,0:0:0:0:
256,348,60652,1,0,0:0:0:0:
412,256,60831,1,0,0:0:0:0:
348,324,61010,6,0,P|336:280|312:244,1,90,4|0,0:0|0:0,0:0:0:0:
256,120,61367,2,0,L|172:156,1,90,2|0,0:0|0:0,0:0:0:0:
108,272,61724,1,0,0:0:0:0:
56,148,61902,2,0,P|48:104|56:56,2,90,0|2|0,0:0|0:0|0:0,0:0:0:0:
168,40,62438,2,0,P|212:64|244:88,1,90,0|0,0:0|0:0,0:0:0:0:
192,256,62795,2,0,P|148:232|116:208,1,90,2|0,0:0|0:0,0:0:0:0:
248,180,63152,5,0,0:0:0:0:
304,304,63331,1,0,0:0:0:0:
332,220,63510,1,2,0:0:0:0:
192,256,63688,1,0,0:0:0:0:
112,96,63867,2,0,P|104:140|112:184,1,90,0|0,0:0|0:0,0:0:0:0:
264,248,64224,1,2,0:0:0:0:
368,104,64402,1,0,0:0:0:0:
444,268,64581,6,0,P|452:224|444:180,1,90
292,84,64938,2,0,P|284:128|292:172,1,90,2|0,0:0|0:0,0:0:0:0:
360,232,65295,1,0,0:0:0:0:
180,208,65474,1,0,0:0:0:0:
340,152,65652,1,2,0:0:0:0:
216,272,65831,1,0,0:0:0:0:
268,120,66010,5,4,0:0:0:0:
256,144,66099,1,0,0:0:0:0:
248,168,66188,1,0,0:0:0:0:
256,192,66277,1,0,0:0:0:0:
268,216,66367,1,6,0:0:0:0:
284,236,66456,1,0,0:0:0:0:
296,260,66545,1,0,0:0:0:0:
296,288,66635,1,0,0:0:0:0:
288,316,66724,5,4,0:0:0:0:
180,356,66902,1,0,0:0:0:0:
100,248,67081,1,2,0:0:0:0:
204,164,67260,1,0,0:0:0:0:
156,288,67438,1,4,0:0:0:0:
108,160,67617,2,0,P|100:116|112:72,2,90,0|2|0,0:0|0:0|0:0,0:0:0:0:
180,216,68152,6,0,P|200:260|232:288,1,90,4|0,0:0|0:0,0:0:0:0:
280,204,68510,1,2,0:0:0:0:
368,192,68688,2,0,P|348:148|316:120,2,90
356,280,69224,1,2,0:0:0:0:
288,340,69402,1,0,0:0:0:0:
200,316,69581,6,0,P|164:284|136:252,1,90,4|0,0:0|0:0,0:0:0:0:
212,140,69938,2,0,P|256:136|304:140,1,90,2|0,0:0|0:0,0:0:0:0:
364,260,70295,2,0,P|340:288|300:324,2,90,4|0|2,0:0|0:0|0:0,0:0:0:0:
400,176,70831,2,0,P|400:84|332:84,1,180
260,132,71367,2,0,L|172:196,1,107.999996704102,2|0,0:0|0:0,0:0:0:0:
108,316,71724,6,0,L|84:276,1,45
152,236,71902,2,0,L|172:193,1,45
108,144,72081,2,0,L|92:100,1,45,2|0,0:0|0:0,0:0:0:0:
168,72,72260,2,0,L|184:24,1,45
256,56,72438,2,0,P|344:36|432:56,1,180,4|2,0:0|0:0,0:0:0:0:
368,128,72974,1,0,0:0:0:0:
280,284,73152,6,0,P|272:236|280:196,1,90
296,108,73510,1,2,0:0:0:0:
248,32,73688,1,0,0:0:0:0:
184,200,73867,2,0,P|144:120|184:44,1,180,4|2,0:0|0:0,0:0:0:0:
182,45,74402,1,0,0:0:0:0:
268,192,74581,6,0,L|296:104,1,90
436,220,74938,2,0,L|400:136,1,90,2|0,0:0|0:0,0:0:0:0:
348,260,75295,2,0,P|268:304|192:264,1,180,4|2,0:0|0:0,0:0:0:0:
194,267,75831,1,0,0:0:0:0:
68,224,76010,2,0,L|108:124,1,107.999996704102
216,128,76367,2,0,B|248:128|248:128|288:144|288:144|324:144,1,107.999996704102,2|0,0:0|0:0,0:0:0:0:
388,84,76724,1,0,0:0:0:0:
432,256,76902,2,0,P|441:210|432:164,2,90,0|2|0,0:0|0:0|0:0,0:0:0:0:
356,304,77438,5,0,0:0:0:0:
348,304,77527,1,0,0:0:0:0:
340,304,77617,1,0,0:0:0:0:
332,304,77706,1,0,0:0:0:0:
324,304,77795,1,0,0:0:0:0:
316,304,77885,1,0,0:0:0:0:
308,304,77974,1,0,0:0:0:0:
300,304,78063,1,0,0:0:0:0:
292,304,78152,2,0,B|260:304|260:304|228:324|228:324|180:324,1,116.999994644165
96,244,78510,6,0,B|128:244|128:244|160:224|160:224|208:224,1,116.999994644165,2|0,0:0|0:0,0:0:0:0:
296,228,78867,1,0,0:0:0:0:
228,112,79045,1,0,0:0:0:0:
184,288,79224,1,2,0:0:0:0:
112,172,79402,1,0,0:0:0:0:
112,172,79581,2,0,P|104:128|108:84,2,90,0|0|2,0:0|0:0|0:0,0:0:0:0:
184,224,80117,1,0,0:0:0:0:
72,300,80295,2,0,L|160:320,1,90
276,256,80652,2,0,L|368:276,1,90,2|0,0:0|0:0,0:0:0:0:
456,120,81010,5,0,0:0:0:0:
396,188,81188,1,0,0:0:0:0:
372,188,81277,1,0,0:0:0:0:
348,188,81367,1,2,0:0:0:0:
276,136,81545,1,0,0:0:0:0:
254,143,81635,1,0,0:0:0:0:
233,151,81724,1,2,0:0:0:0:
212,159,81813,1,0,0:0:0:0:
190,166,81902,1,0,0:0:0:0:
169,174,81992,1,0,0:0:0:0:
148,182,82081,1,2,0:0:0:0:
80,124,82260,22,0,P|72:80|84:36,2,90,0|0|2,0:0|0:0|0:0,0:0:0:0:
124,204,82795,1,2,0:0:0:0:
216,308,82974,5,2,0:0:0:0:
248,224,83152,1,2,0:0:0:0:
312,288,83331,1,2,0:0:0:0:
368,216,83510,1,2,0:0:0:0:
416,292,83688,1,0,0:0:0:0:
240,120,83867,6,0,P|324:112|356:32,1,180,4|8,0:0|0:0,0:0:0:0:
472,168,84402,1,0,0:0:0:0:
416,292,84581,2,0,L|368:216,2,90,0|0|8,0:0|0:0|0:0,0:0:0:0:
312,144,85117,2,0,P|228:108|148:140,1,180
96,212,85652,1,8,0:0:0:0:
148,288,85831,5,0,0:0:0:0:
148,288,85920,1,0,0:0:0:0:
148,288,86010,1,4,0:0:0:0:
236,312,86188,5,0,0:0:0:0:
236,312,86277,1,0,0:0:0:0:
236,312,86367,1,4,0:0:0:0:
324,336,86545,5,0,0:0:0:0:
324,336,86635,1,0,0:0:0:0:
324,336,86725,2,0,L|300:248,1,90,12|0,0:0|0:0,0:0:0:0:
268,120,87081,1,0,0:0:0:0:
388,180,87259,1,0,0:0:0:0:
356,96,87438,1,6,0:0:0:0:
224,220,87617,1,6,0:0:0:0:
224,220,87974,2,0,P|152:176|164:92,1,180,4|0,0:0|0:0,0:0:0:0:
216,144,88509,2,0,P|268:148|308:144,1,90
432,56,88867,5,0,0:0:0:0:
420,84,88956,1,0,0:0:0:0:
424,112,89045,1,0,0:0:0:0:
436,140,89134,1,0,0:0:0:0:
452,164,89224,1,8,0:0:0:0:
452,192,89313,1,0,0:0:0:0:
444,220,89402,1,0,0:0:0:0:
428,244,89492,1,0,0:0:0:0:
408,268,89581,5,4,0:0:0:0:
380,280,89670,1,0,0:0:0:0:
352,284,89759,1,0,0:0:0:0:
324,276,89849,1,0,0:0:0:0:
296,264,89938,1,8,0:0:0:0:
268,252,90027,1,0,0:0:0:0:
240,252,90117,1,0,0:0:0:0:
212,260,90206,1,0,0:0:0:0:
184,272,90295,5,4,0:0:0:0:
84,332,90474,1,2,0:0:0:0:
52,248,90652,1,0,0:0:0:0:
104,176,90831,1,6,0:0:0:0:
256,192,91009,12,0,96724,0:0:0:0:
