osu file format v12

[General]
AudioFilename: miracle rush.mp3
AudioLeadIn: 2000
PreviewTime: 60282
Countdown: 0
SampleSet: Normal
StackLeniency: 0.7
Mode: 0
LetterboxInBreaks: 0

[Editor]
DistanceSpacing: 1.2
BeatDivisor: 4
GridSize: 4

[Metadata]
Title:MIRACLE RUSH (TV Size)
TitleUnicode:MIRACLE RUSH (TV Size)
Artist:Ogura Yui
ArtistUnicode:小倉唯
Creator:Holy
Version:Hard
Source:Saki: Achiga-hen - episode of side-A
Tags:Opening StylipS Cuvelia
BeatmapID:226085
BeatmapSetID:81318

[Difficulty]
HPDrainRate:5
CircleSize:4
OverallDifficulty:6
ApproachRate:7
SliderMultiplier:1.4
SliderTickRate:2

[Events]
//Background and Video events
0,0,"waa.jpg",1,1
Video,0,"guha.avi"
//Break Periods
//Storyboard Layer 0 (Background)
//Storyboard Layer 1 (Fail)
//Storyboard Layer 2 (Pass)
//Storyboard Layer 3 (Foreground)
//Storyboard Sound Samples
//Background Colour Transformations
3,100,0,0,0

[TimingPoints]
1010,357.142857142857,4,2,1,40,1,0
4224,-100,4,2,1,50,0,0
5652,-100,4,2,1,60,0,0
12438,-100,4,2,1,70,0,0
18152,-100,4,2,1,80,0,0
23152,-100,4,2,1,60,0,0
23510,-100,4,1,1,60,0,0
61009,-100,4,1,1,70,0,1
71724,-100,4,1,1,70,0,0
72438,-100,4,1,1,70,0,1
83867,-100,4,2,1,60,0,0
93867,-100,4,2,1,40,0,0
94938,-100,4,2,1,30,0,0

[Colours]
Combo1 : 142,255,156
Combo2 : 255,250,149
Combo3 : 102,153,255
Combo4 : 255,162,241

[HitObjects]
208,232,652,1,0,0:0:0:0:
208,216,742,1,0,0:0:0:0:
208,200,831,1,0,0:0:0:0:
208,184,920,1,0,0:0:0:0:
208,168,1010,2,0,L|208:96,2,70
276,148,1545,2,0,P|336:116|336:48,1,140,2|0,0:0|0:0,0:0:0:0:
276,80,2081,1,2,0:0:0:0:
88,176,2617,6,0,P|76:208|72:244,2,70
164,212,3152,2,0,P|176:180|180:144,2,70,2|0|0,0:0|0:0|0:0,0:0:0:0:
132,292,3688,2,0,P|188:328|248:296,1,140,2|0,0:0|0:0,0:0:0:0:
296,228,4224,6,0,L|336:168,1,70
376,96,4581,1,2,0:0:0:0:
416,168,4760,1,0,0:0:0:0:
392,248,4938,1,0,0:0:0:0:
320,296,5117,2,0,P|284:300|248:296,1,70
208,148,6010,6,0,P|198:110|200:72,1,70,2|0,0:0|0:0,0:0:0:0:
280,100,6367,2,0,P|296:136|296:168,1,70
236,228,6724,2,0,P|172:256|108:232,1,140,4|0,0:0|0:0,0:0:0:0:
248,328,7438,2,0,P|284:332|320:328,1,70
360,256,7795,2,0,P|324:252|288:256,1,70
208,260,8153,2,0,P|192:192|216:128,1,140,4|0,0:0|0:0,0:0:0:0:
380,84,8867,5,0,0:0:0:0:
344,160,9045,1,0,0:0:0:0:
404,220,9224,1,0,0:0:0:0:
360,292,9403,1,0,0:0:0:0:
280,320,9581,2,0,P|212:300|148:320,1,140,4|0,0:0|0:0,0:0:0:0:
64,172,10295,5,2,0:0:0:0:
144,200,10474,2,0,L|212:184,1,70
296,168,10831,1,0,0:0:0:0:
352,104,11010,2,0,P|380:168|360:236,1,140,2|0,0:0|0:0,0:0:0:0:
204,288,11724,2,0,P|136:264|68:292,1,140,2|0,0:0|0:0,0:0:0:0:
104,120,12438,6,0,P|136:108|172:96,1,70,4|0,0:0|0:0,0:0:0:0:
224,160,12795,2,0,P|260:168|296:160,2,70,8|0|2,0:0|0:0|0:0,0:0:0:0:
224,160,13510,1,8,0:0:0:0:
148,192,13688,2,0,P|116:260|148:312,1,140
188,252,14224,2,0,L|260:252,1,70,8|0,0:0|0:0,0:0:0:0:
368,256,14581,1,2,0:0:0:0:
364,92,14938,6,0,L|304:56,1,70,8|0,0:0|0:0,0:0:0:0:
256,124,15295,2,0,L|192:156,1,70,4|0,0:0|0:0,0:0:0:0:
164,76,15652,2,0,L|100:48,2,70,8|0|0,0:0|0:0|0:0,0:0:0:0:
108,136,16188,2,0,L|44:168,1,70,0|8,0:0|0:0,0:0:0:0:
124,240,16545,6,0,P|192:264|256:240,1,140,0|0,0:0|0:0,0:0:0:0:
324,252,17081,2,0,L|320:180,1,70,8|0,0:0|0:0,0:0:0:0:
308,96,17438,1,0,0:0:0:0:
260,36,17617,1,0,0:0:0:0:
184,36,17795,1,8,0:0:0:0:
136,96,17974,1,0,0:0:0:0:
184,156,18152,5,4,0:0:0:0:
64,196,18510,2,0,L|100:260,1,70,8|0,0:0|0:0,0:0:0:0:
132,316,18867,1,0,0:0:0:0:
204,272,19045,1,0,0:0:0:0:
276,316,19224,1,8,0:0:0:0:
348,276,19402,2,0,P|372:216|348:148,1,140
304,96,19938,5,8,0:0:0:0:
244,156,20117,1,0,0:0:0:0:
180,100,20295,2,0,L|132:48,2,70,0|0|8,0:0|0:0|0:0,0:0:0:0:
244,156,20831,1,0,0:0:0:0:
164,180,21010,6,0,P|124:236|132:304,1,140,0|8,0:0|0:0,0:0:0:0:
284,232,21724,2,2,L|304:300,1,70
384,152,22260,1,4,0:0:0:0:
232,84,22617,2,0,L|184:32,2,70,0|8|0,0:0|0:0|0:0,0:0:0:0:
276,140,23152,1,4,0:0:0:0:
212,264,23510,1,4,0:0:0:0:
172,128,23867,5,4,0:0:0:0:
120,64,24045,1,0,0:0:0:0:
72,136,24224,2,0,P|67:171|72:208,1,70,8|0,0:0|0:0,0:0:0:0:
120,276,24581,1,0,0:0:0:0:
188,224,24760,1,0,0:0:0:0:
248,280,24938,2,0,L|312:248,1,70,8|0,0:0|0:0,0:0:0:0:
384,212,25295,5,0,0:0:0:0:
384,212,25474,1,0,0:0:0:0:
404,132,25652,1,8,0:0:0:0:
404,132,25831,1,0,0:0:0:0:
320,148,26010,1,0,0:0:0:0:
180,172,26367,6,0,P|160:104|184:40,1,140,8|0,0:0|0:0,0:0:0:0:
184,40,26902,1,0,0:0:0:0:
252,80,27081,2,0,P|284:96|308:124,1,70,8|0,0:0|0:0,0:0:0:0:
304,204,27438,2,0,P|272:188|248:160,1,70
280,20,27795,2,0,P|312:36|336:64,1,70,8|0,0:0|0:0,0:0:0:0:
380,132,28152,5,0,0:0:0:0:
444,188,28331,1,0,0:0:0:0:
380,240,28510,1,8,0:0:0:0:
432,304,28688,1,0,0:0:0:0:
364,352,28867,1,0,0:0:0:0:
208,292,29224,6,0,P|144:280|72:296,1,140,8|0,0:0|0:0,0:0:0:0:
32,220,29760,1,0,0:0:0:0:
76,148,29938,1,8,0:0:0:0:
32,76,30117,1,0,0:0:0:0:
108,36,30295,2,0,P|180:24|248:36,1,140,0|8,0:0|0:0,0:0:0:0:
312,188,31010,5,0,0:0:0:0:
312,188,31188,2,0,P|280:196|244:208,2,70,0|8|0,0:0|0:0|0:0,0:0:0:0:
364,124,31724,2,0,P|404:180|372:240,1,140,0|8,0:0|0:0,0:0:0:0:
212,276,32438,6,0,P|144:300|84:276,1,140,0|8,0:0|0:0,0:0:0:0:
148,220,32974,2,0,P|88:196|20:220,1,140
20,220,33510,1,8,0:0:0:0:
52,160,33688,1,0,0:0:0:0:
248,240,34045,1,0,0:0:0:0:
248,240,34224,1,8,0:0:0:0:
64,340,34581,1,0,0:0:0:0:
52,160,34938,1,12,0:0:0:0:
224,144,35295,1,0,0:0:0:0:
300,140,35474,5,0,0:0:0:0:
224,212,35652,2,0,P|216:172|224:144,1,70,8|0,0:0|0:0,0:0:0:0:
300,72,36010,2,0,P|308:112|300:140,1,70
224,212,36367,1,8,0:0:0:0:
128,172,36545,1,0,0:0:0:0:
80,240,36724,2,0,P|80:280|84:312,1,70
168,304,37081,2,0,P|168:264|164:232,1,70,8|0,0:0|0:0,0:0:0:0:
165,234,37438,1,0,0:0:0:0:
292,68,37795,6,0,B|334:65|334:65|380:84|396:136,1,140,8|0,0:0|0:0,0:0:0:0:
420,216,38331,1,0,0:0:0:0:
396,296,38510,1,8,0:0:0:0:
320,336,38688,1,0,0:0:0:0:
248,296,38867,2,0,P|236:256|244:228,2,70,0|0|8,0:0|0:0|0:0,0:0:0:0:
160,316,39403,1,0,0:0:0:0:
108,244,39581,2,0,L|38:247,1,70
84,168,39938,2,0,L|14:159,2,70,8|0|0,0:0|0:0|0:0,0:0:0:0:
152,92,40653,6,0,P|216:120|284:116,1,140,8|0,0:0|0:0,0:0:0:0:
236,48,41188,2,0,L|304:28,2,70,0|8|0,0:0|0:0|0:0,0:0:0:0:
152,92,41724,2,0,P|84:80|12:96,1,140,0|8,0:0|0:0,0:0:0:0:
100,256,42438,1,0,0:0:0:0:
184,280,42617,1,0,0:0:0:0:
264,256,42795,2,0,L|320:208,1,70,8|0,0:0|0:0,0:0:0:0:
268,132,43153,2,0,L|232:192,1,70
164,216,43510,2,0,L|144:144,1,70,8|0,0:0|0:0,0:0:0:0:
136,68,43867,5,0,0:0:0:0:
212,32,44045,1,0,0:0:0:0:
296,32,44224,1,8,0:0:0:0:
372,68,44403,1,0,0:0:0:0:
420,136,44581,2,0,L|468:80,2,70,0|0|8,0:0|0:0|0:0,0:0:0:0:
336,148,45117,2,0,P|312:212|336:280,1,140
392,216,45653,1,0,0:0:0:0:
256,316,46010,1,0,0:0:0:0:
120,216,46367,1,0,0:0:0:0:
256,120,46724,6,0,P|268:80|268:48,1,70
340,40,47081,2,0,P|348:80|368:108,1,70
316,160,47438,2,0,P|304:192|300:228,1,70
288,296,47795,1,0,0:0:0:0:
232,252,47974,1,0,0:0:0:0:
204,316,48153,2,0,P|168:320|132:316,1,70
68,292,48510,2,0,P|64:252|72:224,1,70
104,160,48867,2,0,L|107:90,2,70,0|0|2,0:0|0:0|0:0,0:0:0:0:
272,84,49581,6,0,P|336:108|404:88,1,140,0|2,0:0|0:0,0:0:0:0:
360,260,50295,1,0,0:0:0:0:
284,224,50474,1,0,0:0:0:0:
228,288,50653,1,2,0:0:0:0:
164,232,50831,1,0,0:0:0:0:
104,292,51010,2,0,P|84:228|112:164,1,140,0|2,0:0|0:0,0:0:0:0:
268,108,51724,2,0,L|328:68,1,70
332,152,52081,2,0,L|402:134,1,70,2|0,0:0|0:0,0:0:0:0:
392,220,52438,6,0,B|376:288|376:288|340:294|340:294|312:320,1,140,0|2,0:0|0:0,0:0:0:0:
315,317,52974,1,0,0:0:0:0:
268,248,53153,1,0,0:0:0:0:
208,304,53331,2,0,P|148:336|88:304,1,140,0|2,0:0|0:0,0:0:0:0:
72,224,53867,2,0,L|44:160,1,70
128,160,54224,2,0,L|148:92,2,70,2|0|0,0:0|0:0|0:0,0:0:0:0:
152,240,54760,5,0,0:0:0:0:
228,280,54938,1,2,0:0:0:0:
284,216,55117,1,0,0:0:0:0:
212,172,55295,2,0,P|200:104|224:40,1,140,6|0,0:0|0:0,0:0:0:0:
272,108,55831,2,0,P|316:164|380:180,2,140,2|0|2,0:0|0:0|0:0,0:0:0:0:
356,92,56724,2,0,B|424:56|496:96,1,140,0|2,0:0|0:0,0:0:0:0:
452,168,57260,1,0,0:0:0:0:
480,248,57438,1,0,0:0:0:0:
396,240,57617,2,0,P|360:244|324:240,2,70,0|2|0,0:0|0:0|0:0,0:0:0:0:
364,164,58153,5,2,0:0:0:0:
276,180,58331,2,0,L|244:116,1,70
160,148,58688,1,2,0:0:0:0:
76,188,58867,2,0,B|44:124,1,70
68,36,59224,2,0,B|140:56,1,70,2|0,0:0|0:0,0:0:0:0:
135,56,59581,5,0,0:0:0:0:
216,84,59760,1,0,0:0:0:0:
284,36,59938,1,0,0:0:0:0:
356,80,60117,1,0,0:0:0:0:
428,36,60295,1,0,0:0:0:0:
460,112,60474,2,0,P|468:148|464:180,2,70
388,156,61010,6,0,P|316:156|268:200,1,140,4|0,0:0|0:0,0:0:0:0:
268,200,61545,1,0,0:0:0:0:
240,280,61724,1,8,0:0:0:0:
184,216,61903,1,0,0:0:0:0:
124,276,62081,1,0,0:0:0:0:
104,196,62260,1,0,0:0:0:0:
104,196,62438,2,0,P|156:148|224:140,1,140,8|0,0:0|0:0,0:0:0:0:
384,96,63153,6,0,L|336:156,1,70,8|0,0:0|0:0,0:0:0:0:
268,200,63510,2,0,L|312:256,1,70,0|0,0:0|0:0,0:0:0:0:
388,224,63867,2,0,P|388:296|336:328,1,140,12|0,0:0|0:0,0:0:0:0:
252,328,64403,1,0,0:0:0:0:
180,288,64581,2,0,L|144:220,1,70,8|0,0:0|0:0,0:0:0:0:
216,176,64938,2,0,L|252:116,1,70,0|0,0:0|0:0,0:0:0:0:
156,92,65295,2,0,P|136:160|148:228,1,140,4|0,0:0|0:0,0:0:0:0:
180,288,65831,1,0,0:0:0:0:
276,248,66010,6,0,L|296:220,3,35,8|0|0|0,0:0|0:0|0:0|0:0,0:0:0:0:
332,216,66367,2,0,L|352:188,3,35,0|0|0|0,0:0|0:0|0:0|0:0,0:0:0:0:
376,160,66724,5,8,0:0:0:0:
304,116,66903,1,0,0:0:0:0:
240,172,67081,1,4,0:0:0:0:
172,120,67260,1,0,0:0:0:0:
108,176,67438,2,0,P|84:244|112:304,1,140,8|0,0:0|0:0,0:0:0:0:
176,356,67974,1,0,0:0:0:0:
228,292,68153,2,0,L|184:236,1,70,8|0,0:0|0:0,0:0:0:0:
240,172,68510,1,4,0:0:0:0:
292,240,68688,2,0,L|328:176,1,70,0|8,0:0|0:0,0:0:0:0:
460,340,69224,6,0,L|436:272,1,70,0|0,0:0|0:0,0:0:0:0:
408,196,69581,1,8,0:0:0:0:
264,88,69938,2,0,L|200:120,1,70,4|0,0:0|0:0,0:0:0:0:
128,160,70295,1,8,0:0:0:0:
68,100,70474,1,0,0:0:0:0:
148,76,70653,1,0,0:0:0:0:
128,160,70831,2,0,P|104:224|124:292,1,140,8|0,0:0|0:0,0:0:0:0:
124,292,71367,1,4,0:0:0:0:
272,216,71724,6,0,L|252:188,3,35
232,156,72081,2,0,L|212:128,3,35,0|0|0|0,0:0|0:0|0:0|0:0,0:0:0:0:
188,100,72438,2,0,B|124:120|124:120|88:188,1,140,4|0,0:0|0:0,0:0:0:0:
200,272,73153,1,8,0:0:0:0:
272,320,73331,1,0,0:0:0:0:
336,268,73510,1,0,0:0:0:0:
396,328,73688,1,0,0:0:0:0:
444,260,73867,2,0,P|468:192|444:128,1,140,12|0,0:0|0:0,0:0:0:0:
284,180,74581,6,0,L|344:140,1,70,8|0,0:0|0:0,0:0:0:0:
284,80,74938,2,0,L|224:120,1,70
156,164,75295,2,0,P|132:224|156:292,1,140,12|0,0:0|0:0,0:0:0:0:
156,292,75831,1,0,0:0:0:0:
228,244,76010,1,8,0:0:0:0:
272,316,76188,2,0,L|212:356,2,70
340,268,76724,2,0,P|372:200|344:148,1,140,12|0,0:0|0:0,0:0:0:0:
236,236,77438,6,0,L|208:260,3,35,8|0|0|0,0:0|0:0|0:0|0:0,0:0:0:0:
184,284,77795,2,0,L|156:304,3,35,0|0|0|0,0:0|0:0|0:0|0:0,0:0:0:0:
128,324,78153,2,0,B|84:316|68:272|68:272|92:220,1,140,4|0,0:0|0:0,0:0:0:0:
228,188,78867,2,0,P|248:120|228:56,1,140,8|0,0:0|0:0,0:0:0:0:
60,76,79581,2,0,B|52:120|52:120|28:136|28:164|28:164|52:204,1,140,12|0,0:0|0:0,0:0:0:0:
188,104,80295,2,0,B|246:97|246:97|268:69|268:69|320:56,1,140,8|0,0:0|0:0,0:0:0:0:
416,192,81010,5,12,0:0:0:0:
280,292,81367,1,0,0:0:0:0:
124,232,81724,1,8,0:0:0:0:
288,200,82081,1,0,0:0:0:0:
328,124,82260,1,0,0:0:0:0:
164,88,82617,2,0,L|92:112,1,70,0|2,0:0|0:0,0:0:0:0:
308,152,83867,6,0,P|332:216|308:280,1,140,4|8,0:0|0:0,0:0:0:0:
232,248,84402,1,0,0:0:0:0:
152,216,84581,1,0,0:0:0:0:
72,188,84760,2,0,L|52:116,1,70,0|8,0:0|0:0,0:0:0:0:
136,128,85117,2,0,B|204:148|276:128,1,140
348,76,85653,1,8,0:0:0:0:
388,152,85831,1,0,0:0:0:0:
388,152,85920,1,0,0:0:0:0:
388,152,86010,1,8,0:0:0:0:
348,228,86188,2,0,P|320:252|292:268,2,70,0|12|0,0:0|0:0|0:0,0:0:0:0:
280,180,86724,6,0,P|216:160|148:180,1,140,0|8,0:0|0:0,0:0:0:0:
252,312,87438,1,4,0:0:0:0:
172,336,87617,2,0,L|120:280,1,70,4|0,0:0|0:0,0:0:0:0:
200,244,87974,2,0,P|228:184|192:120,1,140,4|0,0:0|0:0,0:0:0:0:
148,184,88510,2,0,L|92:228,1,70,8|0,0:0|0:0,0:0:0:0:
200,244,88867,2,0,L|256:200,1,70
272,96,89224,2,0,L|216:140,1,70,8|0,0:0|0:0,0:0:0:0:
148,184,89581,5,4,0:0:0:0:
104,256,89760,1,0,0:0:0:0:
184,284,89938,1,8,0:0:0:0:
228,212,90117,1,0,0:0:0:0:
284,264,90295,2,0,P|304:296|336:316,1,70,4|0,0:0|0:0,0:0:0:0:
400,268,90652,1,8,0:0:0:0:
340,180,90831,1,4,0:0:0:0:
256,192,91010,12,0,96724,0:0:0:0:
