osu file format v12

[General]
AudioFilename: miracle rush.mp3
AudioLeadIn: 2000
PreviewTime: 60282
Countdown: 0
SampleSet: Normal
StackLeniency: 0.7
Mode: 0
LetterboxInBreaks: 0

[Editor]
DistanceSpacing: 1
BeatDivisor: 2
GridSize: 4

[Metadata]
Title:MIRACLE RUSH (TV Size)
TitleUnicode:MIRACLE RUSH (TV Size)
Artist:Ogura Yui
ArtistUnicode:小倉唯
Creator:Holy
Version:Easy
Source:Saki: Achiga-hen - episode of side-A
Tags:Opening StylipS Cuvelia
BeatmapID:225804
BeatmapSetID:81318

[Difficulty]
HPDrainRate:2
CircleSize:3
OverallDifficulty:2
ApproachRate:3
SliderMultiplier:0.799999999999999
SliderTickRate:2

[Events]
//Background and Video events
0,0,"waa.jpg",1,1
Video,0,"guha.avi"
//Break Periods
//Storyboard Layer 0 (Background)
//Storyboard Layer 1 (Fail)
//Storyboard Layer 2 (Pass)
//Storyboard Layer 3 (Foreground)
//Storyboard Sound Samples
//Background Colour Transformations
3,100,0,0,0

[TimingPoints]
1010,357.142857142857,4,2,1,40,1,0
3867,-100,4,2,1,50,0,0
5653,-100,4,2,1,60,0,0
12260,-100,4,2,1,70,0,0
12706,-100,4,2,2,70,0,0
12885,-100,4,2,1,70,0,0
14135,-100,4,2,2,70,0,0
14313,-100,4,2,1,70,0,0
23153,-100,4,1,1,60,0,0
45831,-100,4,1,1,60,0,0
61009,-100,4,1,1,70,0,1
71724,-100,4,1,1,70,0,0
72438,-100,4,1,1,70,0,1
83867,-100,4,2,1,60,0,0
93867,-100,4,2,1,40,0,0
94938,-100,4,2,1,30,0,0

[Colours]
Combo1 : 142,255,156
Combo2 : 255,250,149
Combo3 : 102,153,255
Combo4 : 255,162,241

[HitObjects]
96,192,652,1,2,0:0:0:0:
176,192,1010,2,0,L|296:192,2,120,2|2|2,0:0|0:0|0:0,0:0:0:0:
124,84,2617,6,0,P|85:193|133:301,1,240
252,316,4224,1,0,0:0:0:0:
300,252,4581,2,0,B|348:280|348:280|404:288|452:272,1,160,2|2,0:0|0:0,0:0:0:0:
364,136,6009,6,0,B|304:84|304:84|264:80|224:108,1,160,4|8,0:0|0:0,0:0:0:0:
140,240,7438,2,0,B|200:292|200:292|240:296|280:268,1,160,0|8,0:0|0:0,0:0:0:0:
432,300,8867,6,0,P|372:356|296:356,1,160,0|8,0:0|0:0,0:0:0:0:
220,340,9938,1,0,0:0:0:0:
248,264,10295,2,0,P|264:184|244:108,1,160,0|8,0:0|0:0,0:0:0:0:
396,60,11724,2,0,L|460:12,1,79.9999999999999,0|0,0:0|0:0,0:0:0:0:
488,88,12438,6,0,B|504:176|432:236,1,160,4|0,0:0|0:0,0:0:0:0:
372,280,13510,1,2,0:0:0:0:
300,244,13867,2,0,P|308:160|284:88,1,160,4|0,0:0|0:0,0:0:0:0:
220,44,14938,1,2,0:0:0:0:
164,100,15295,6,0,L|136:176,1,79.9999999999999,4|0,0:0|0:0,0:0:0:0:
164,252,16010,2,0,P|216:288|276:292,2,120,2|2|2,0:0|0:0|0:0,0:0:0:0:
136,176,17438,2,0,B|92:204|92:204|60:204|60:152|16:132,1,160,0|4,0:0|0:0,0:0:0:0:
164,72,18867,6,0,P|203:78|244:72,2,79.9999999999999,0|8|0,0:0|0:0|0:0,0:0:0:0:
88,44,19938,1,8,0:0:0:0:
80,124,20295,2,0,P|124:188|80:272,1,160,0|2,0:0|0:0,0:0:0:0:
48,196,21367,1,12,0:0:0:0:
0,136,21724,2,0,P|12:76|60:48,1,120,0|4,0:0|0:0,0:0:0:0:
264,192,23152,2,0,L|240:104,1,79.9999999999999,4|4,0:0|0:0,0:0:0:0:
160,116,23867,6,0,P|140:192|160:276,1,160,4|0,0:0|0:0,0:0:0:0:
212,328,24938,1,0,0:0:0:0:
284,292,25295,2,0,B|284:240|284:240|324:200|296:140,2,160,0|0|4,0:0|0:0|0:0,0:0:0:0:
364,308,27081,6,0,L|448:312,1,79.9999999999999,0|8,0:0|0:0,0:0:0:0:
428,232,27795,2,0,L|348:228,1,79.9999999999999,0|8,0:0|0:0,0:0:0:0:
356,148,28509,2,0,L|436:152,1,79.9999999999999,0|8,0:0|0:0,0:0:0:0:
432,72,29224,2,0,L|352:68,1,79.9999999999999,0|8,0:0|0:0,0:0:0:0:
272,72,29938,5,0,0:0:0:0:
236,144,30295,2,0,P|224:184|236:224,1,79.9999999999999,8|0,0:0|0:0,0:0:0:0:
272,292,31009,1,8,0:0:0:0:
352,284,31367,1,0,0:0:0:0:
428,256,31724,2,0,P|416:220|384:188,1,79.9999999999999,8|0,0:0|0:0,0:0:0:0:
312,164,32438,6,0,P|248:124|180:164,2,160
248,212,34224,1,0,0:0:0:0:
180,240,34581,2,0,P|112:200|116:124,1,160,0|4,0:0|0:0,0:0:0:0:
176,72,35652,1,0,0:0:0:0:
244,116,36009,2,0,L|188:172,1,79.9999999999999,8|0,0:0|0:0,0:0:0:0:
256,212,36724,2,0,L|220:284,1,79.9999999999999,8|0,0:0|0:0,0:0:0:0:
140,296,37438,2,0,L|92:228,1,79.9999999999999,0|0,0:0|0:0,0:0:0:0:
52,160,38152,5,8,0:0:0:0:
100,96,38509,1,2,0:0:0:0:
180,96,38867,2,0,L|256:128,1,79.9999999999999,0|0,0:0|0:0,0:0:0:0:
320,172,39581,1,8,0:0:0:0:
292,248,39938,2,0,L|228:200,2,79.9999999999999,0|0|0,0:0|0:0|0:0,0:0:0:0:
356,300,41009,6,0,P|292:336|220:296,1,160
264,232,42081,1,0,0:0:0:0:
276,148,42438,2,0,L|197:163,1,79.9999999999999
124,132,43152,2,0,L|96:208,1,79.9999999999999,2|0,0:0|0:0,0:0:0:0:
168,244,43867,6,0,L|320:300,2,160,8|2|8,0:0|0:0|0:0,0:0:0:0:
104,208,45652,2,0,P|92:128|124:56,1,160,2|0,0:0|0:0,0:0:0:0:
196,88,46724,6,0,L|272:120,3,79.9999999999999,4|0|0|0,0:0|0:0|0:0|0:0,0:0:0:0:
260,200,48152,2,0,L|336:232,3,79.9999999999999,8|0|0|0,0:0|0:0|0:0|0:0,0:0:0:0:
348,152,49581,6,0,L|424:184,3,79.9999999999999,8|0|0|0,0:0|0:0|0:0|0:0,0:0:0:0:
412,264,51009,2,0,L|488:296,3,79.9999999999999,8|0|0|0,0:0|0:0|0:0|0:0,0:0:0:0:
512,216,52438,6,0,P|488:140|416:108,1,160,12|0,0:0|0:0,0:0:0:0:
320,232,53867,2,0,P|260:276|200:232,1,160,12|0,0:0|0:0,0:0:0:0:
160,160,54938,1,4,0:0:0:0:
200,92,55295,6,0,P|272:60|340:96,1,160,8|0,0:0|0:0,0:0:0:0:
272,140,56367,1,0,0:0:0:0:
268,220,56724,2,0,L|280:300,1,79.9999999999999
356,280,57438,2,0,L|340:200,1,79.9999999999999,4|0,0:0|0:0,0:0:0:0:
268,220,58152,5,6,0:0:0:0:
288,340,58688,1,2,0:0:0:0:
172,316,59224,2,0,P|144:244|172:168,1,160,2|0,0:0|0:0,0:0:0:0:
216,104,60295,2,0,L|296:108,1,79.9999999999999
376,112,61009,5,4,0:0:0:0:
296,260,61724,2,0,P|272:184|296:108,1,160,0|4,0:0|0:0,0:0:0:0:
136,120,63152,6,0,P|56:128|20:192,1,160,0|4,0:0|0:0,0:0:0:0:
36,272,64224,1,8,0:0:0:0:
112,244,64581,1,0,0:0:0:0:
180,288,64938,6,0,P|220:268|240:236,1,79.9999999999999,2|0,0:0|0:0,0:0:0:0:
276,168,65652,1,8,0:0:0:0:
352,196,66009,2,0,L|396:128,1,79.9999999999999,2|0,0:0|0:0,0:0:0:0:
456,184,66724,6,0,P|484:256|468:340,1,160,4|0,0:0|0:0,0:0:0:0:
404,288,67795,1,8,0:0:0:0:
328,316,68152,2,0,P|256:344|180:316,1,160,4|0,0:0|0:0,0:0:0:0:
128,252,69224,5,8,0:0:0:0:
64,300,69581,2,0,P|40:224|64:148,2,160
220,288,71724,6,0,P|300:312|372:288,1,160,0|4,0:0|0:0,0:0:0:0:
436,136,73152,2,0,P|360:112|284:136,1,160,0|4,0:0|0:0,0:0:0:0:
128,88,74581,6,0,P|108:168|132:240,1,160,0|0,0:0|0:0,0:0:0:0:
184,300,75652,1,8,0:0:0:0:
220,228,76010,2,0,P|256:156|328:124,1,160,0|4,0:0|0:0,0:0:0:0:
404,100,77081,1,8,0:0:0:0:
444,172,77438,6,0,P|464:252|448:328,1,160,0|0,0:0|0:0,0:0:0:0:
368,332,78510,1,8,0:0:0:0:
292,304,78867,1,0,0:0:0:0:
296,224,79224,6,0,L|380:224,1,79.9999999999999,2|0,0:0|0:0,0:0:0:0:
372,144,79938,1,8,0:0:0:0:
304,104,80295,2,0,L|220:104,1,79.9999999999999,0|2,0:0|0:0,0:0:0:0:
148,64,81010,5,12,0:0:0:0:
116,136,81367,2,0,P|107:176|116:216,1,79.9999999999999,0|2,0:0|0:0,0:0:0:0:
216,152,82260,2,0,P|228:300|340:332,1,280
312,240,83867,6,0,P|356:176|428:192,1,160,4|0,0:0|0:0,0:0:0:0:
392,264,84938,1,8,0:0:0:0:
332,320,85295,2,0,P|252:340|176:324,1,160
108,284,86367,1,12,0:0:0:0:
172,240,86724,6,0,P|180:200|168:164,1,79.9999999999999,12|0,0:0|0:0,0:0:0:0:
88,156,87438,2,0,P|88:92|104:36,1,120,4|4,0:0|0:0,0:0:0:0:
196,116,88510,1,8,0:0:0:0:
264,76,88867,2,0,P|284:156|268:236,1,160,0|4,0:0|0:0,0:0:0:0:
232,300,89938,5,8,0:0:0:0:
164,260,90295,2,0,L|128:236,3,40,4|0|0|4,0:0|0:0|0:0|0:0,0:0:0:0:
256,192,91010,12,0,96724,0:0:0:0:
