osu file format v14

[General]
AudioFilename: HoneyCome.mp3
AudioLeadIn: 0
PreviewTime: 44463
Countdown: 0
SampleSet: Normal
StackLeniency: 0.7
Mode: 1
LetterboxInBreaks: 0
WidescreenStoryboard: 0

[Editor]
DistanceSpacing: 0.6
BeatDivisor: 4
GridSize: 32
TimelineZoom: 3.2

[Metadata]
Title:Honey Come!! (TV size)
TitleUnicode:Honey♥Come!! (TV size)
Artist:Ogura Yui
ArtistUnicode:小倉唯
Creator:toara_fict
Version:Oni
Source:城下町のダンデライオン
Tags:YuiKaori ゆいかおり Kaori Ishihara 石原夏織 lolicon Oomori Shouko 大森祥子 Shunryu 俊龍 Ookuba Kaoru 大久保薫 Hikari Sakurada 櫻田光Castle Town Dandelion Joukamachi no Dandelion TVsize ending Charlotte Nardoxyribonucleic Lundlerol
BeatmapID:745171
BeatmapSetID:336032

[Difficulty]
HPDrainRate:6
CircleSize:6
OverallDifficulty:5
ApproachRate:10
SliderMultiplier:1.4
SliderTickRate:1

[Events]
//Background and Video events
0,0,"BG.jpg",0,30
//Break Periods
//Storyboard Layer 0 (Background)
//Storyboard Layer 1 (Fail)
//Storyboard Layer 2 (Pass)
//Storyboard Layer 3 (Foreground)
//Storyboard Sound Samples

[TimingPoints]
605,326.086956521739,4,1,0,70,1,0
5822,-100,4,1,0,90,0,0
11039,-100,4,1,0,80,0,0
31909,-100,4,1,0,70,0,0
37126,-100,4,1,0,80,0,0
44952,-100,4,1,0,100,0,1
54083,-100,4,1,0,90,0,0
55387,-100,4,1,0,100,0,1
64518,-100,4,1,0,90,0,0
65822,-100,4,1,0,100,0,1
78865,-100,4,1,0,70,0,0

[HitObjects]
320,256,605,5,4,0:0:0:0:
320,128,1257,1,0,0:0:0:0:
192,128,1909,1,8,0:0:0:0:
320,128,2398,1,0,0:0:0:0:
320,128,2561,1,0,0:0:0:0:
192,128,2724,1,8,0:0:0:0:
192,128,2887,1,8,0:0:0:0:
192,128,3050,1,8,0:0:0:0:
320,256,3213,1,4,0:0:0:0:
320,128,4028,1,0,0:0:0:0:
320,128,4110,1,0,0:0:0:0:
320,128,4191,1,0,0:0:0:0:
192,128,4518,1,8,0:0:0:0:
320,128,5170,1,0,0:0:0:0:
192,128,5333,1,8,0:0:0:0:
320,128,5496,1,0,0:0:0:0:
192,128,5659,1,8,0:0:0:0:
320,256,5822,1,4,0:0:0:0:
192,128,6148,1,8,0:0:0:0:
320,256,6474,1,4,0:0:0:0:
192,128,6800,1,8,0:0:0:0:
320,256,7126,1,4,0:0:0:0:
192,128,7452,1,8,0:0:0:0:
320,256,7778,1,4,0:0:0:0:
192,128,8104,1,8,0:0:0:0:
192,128,8186,1,8,0:0:0:0:
192,128,8268,1,8,0:0:0:0:
320,256,8431,1,4,0:0:0:0:
192,128,8594,1,8,0:0:0:0:
320,128,8757,1,0,0:0:0:0:
192,128,8920,1,8,0:0:0:0:
320,128,9083,1,0,0:0:0:0:
192,128,9246,1,8,0:0:0:0:
320,128,9409,1,0,0:0:0:0:
192,128,9572,1,8,0:0:0:0:
192,256,9735,1,12,0:0:0:0:
192,256,10061,1,12,0:0:0:0:
192,256,10387,1,12,0:0:0:0:
320,128,10713,1,0,0:0:0:0:
192,128,10876,1,8,0:0:0:0:
192,128,10958,1,8,0:0:0:0:
320,128,11039,1,0,0:0:0:0:
192,128,11365,1,8,0:0:0:0:
320,128,11691,1,0,0:0:0:0:
320,128,11854,1,0,0:0:0:0:
192,128,12018,1,8,0:0:0:0:
320,128,12181,1,0,0:0:0:0:
192,128,12507,1,8,0:0:0:0:
320,128,12670,1,0,0:0:0:0:
192,128,12833,1,8,0:0:0:0:
320,128,12996,1,0,0:0:0:0:
192,128,13077,1,0,0:0:0:0:
320,128,13159,1,0,0:0:0:0:
192,128,13322,1,8,0:0:0:0:
320,128,13648,1,0,0:0:0:0:
192,128,13974,1,8,0:0:0:0:
320,128,14300,1,0,0:0:0:0:
320,128,14463,1,0,0:0:0:0:
192,128,14626,1,8,0:0:0:0:
320,128,14789,1,0,0:0:0:0:
192,128,15115,1,8,0:0:0:0:
192,128,15278,1,8,0:0:0:0:
320,128,15441,1,0,0:0:0:0:
320,128,15604,1,8,0:0:0:0:
320,128,15768,1,0,0:0:0:0:
320,128,15849,1,0,0:0:0:0:
192,128,15931,1,8,0:0:0:0:
192,128,16094,1,8,0:0:0:0:
320,256,16257,1,4,0:0:0:0:
192,128,16583,1,8,0:0:0:0:
192,128,16746,1,8,0:0:0:0:
320,128,17072,1,0,0:0:0:0:
192,128,17235,1,8,0:0:0:0:
320,128,17561,1,0,0:0:0:0:
320,128,17724,1,0,0:0:0:0:
192,128,17887,1,8,0:0:0:0:
192,128,18050,1,8,0:0:0:0:
320,128,18376,1,0,0:0:0:0:
192,128,18539,1,8,0:0:0:0:
320,128,18865,1,0,0:0:0:0:
192,128,19191,1,8,0:0:0:0:
192,128,19354,1,8,0:0:0:0:
192,128,19518,1,8,0:0:0:0:
320,128,19681,1,0,0:0:0:0:
192,128,19844,1,8,0:0:0:0:
320,256,20170,1,4,0:0:0:0:
320,256,20496,1,4,0:0:0:0:
320,128,20659,1,0,0:0:0:0:
320,128,20740,1,0,0:0:0:0:
192,128,20822,1,8,0:0:0:0:
192,128,20985,1,8,0:0:0:0:
192,128,21066,1,8,0:0:0:0:
320,128,21148,1,0,0:0:0:0:
320,128,21229,1,0,0:0:0:0:
192,128,21311,1,8,0:0:0:0:
192,128,21393,1,8,0:0:0:0:
320,128,21474,1,0,0:0:0:0:
192,128,21800,1,8,0:0:0:0:
320,128,22126,1,0,0:0:0:0:
320,128,22289,1,0,0:0:0:0:
192,128,22452,1,8,0:0:0:0:
320,128,22615,1,0,0:0:0:0:
320,128,22941,1,0,0:0:0:0:
192,128,23104,1,8,0:0:0:0:
192,128,23268,1,8,0:0:0:0:
320,128,23431,1,0,0:0:0:0:
192,128,23512,1,0,0:0:0:0:
320,128,23594,1,0,0:0:0:0:
192,128,23757,1,8,0:0:0:0:
320,128,24083,1,0,0:0:0:0:
192,128,24409,1,8,0:0:0:0:
192,128,24572,1,8,0:0:0:0:
320,128,24735,1,0,0:0:0:0:
320,128,24898,1,0,0:0:0:0:
192,128,24979,1,0,0:0:0:0:
320,128,25061,1,8,0:0:0:0:
192,128,25224,1,8,0:0:0:0:
192,128,25550,1,8,0:0:0:0:
192,128,25713,1,8,0:0:0:0:
320,128,25876,1,0,0:0:0:0:
320,128,26039,1,8,0:0:0:0:
320,128,26202,1,0,0:0:0:0:
320,128,26284,1,0,0:0:0:0:
192,128,26365,1,8,0:0:0:0:
192,128,26447,1,8,0:0:0:0:
320,128,26528,1,0,0:0:0:0:
320,256,26691,1,0,0:0:0:0:
320,128,26854,1,0,0:0:0:0:
192,128,27018,1,8,0:0:0:0:
192,128,27262,1,8,0:0:0:0:
320,128,27344,1,0,0:0:0:0:
320,128,27507,1,0,0:0:0:0:
192,128,27670,1,8,0:0:0:0:
320,128,27996,1,0,0:0:0:0:
320,128,28159,1,0,0:0:0:0:
192,128,28322,1,8,0:0:0:0:
192,128,28566,1,8,0:0:0:0:
320,128,28648,1,0,0:0:0:0:
320,128,28811,1,0,0:0:0:0:
320,128,28893,1,0,0:0:0:0:
192,128,28974,1,8,0:0:0:0:
320,256,29300,1,4,0:0:0:0:
320,128,29626,1,0,0:0:0:0:
192,128,29789,1,8,0:0:0:0:
320,128,29952,1,0,0:0:0:0:
320,128,30115,1,0,0:0:0:0:
192,128,30278,1,8,0:0:0:0:
192,128,30360,1,8,0:0:0:0:
320,128,30441,1,0,0:0:0:0:
192,256,30604,1,12,0:0:0:0:
320,128,30768,1,0,0:0:0:0:
320,128,30931,1,8,0:0:0:0:
320,128,31094,1,8,0:0:0:0:
192,128,31175,1,8,0:0:0:0:
320,128,31257,1,0,0:0:0:0:
192,128,31420,1,8,0:0:0:0:
192,128,31501,1,8,0:0:0:0:
320,128,31583,1,0,0:0:0:0:
320,128,31664,1,0,0:0:0:0:
192,128,31746,1,8,0:0:0:0:
192,128,31827,1,8,0:0:0:0:
320,128,31909,1,0,0:0:0:0:
192,128,32398,1,8,0:0:0:0:
192,128,32479,1,8,0:0:0:0:
192,128,32561,1,8,0:0:0:0:
192,128,32724,1,8,0:0:0:0:
320,128,32887,1,0,0:0:0:0:
320,128,33213,1,0,0:0:0:0:
320,128,33702,1,0,0:0:0:0:
320,128,34028,1,0,0:0:0:0:
192,128,34191,1,8,0:0:0:0:
192,128,34354,1,8,0:0:0:0:
320,256,34518,1,4,0:0:0:0:
192,128,35007,1,8,0:0:0:0:
192,128,35088,1,8,0:0:0:0:
192,128,35170,1,8,0:0:0:0:
192,128,35333,1,8,0:0:0:0:
320,128,35496,1,0,0:0:0:0:
192,128,35659,1,8,0:0:0:0:
320,256,35822,1,4,0:0:0:0:
192,128,36311,1,8,0:0:0:0:
320,256,36474,1,4,0:0:0:0:
320,128,36800,1,8,0:0:0:0:
192,128,36963,1,8,0:0:0:0:
192,128,37045,1,8,0:0:0:0:
320,128,37126,1,0,0:0:0:0:
320,128,37289,1,0,0:0:0:0:
192,128,37452,1,8,0:0:0:0:
320,128,37615,1,0,0:0:0:0:
320,128,37941,1,0,0:0:0:0:
192,128,38104,1,8,0:0:0:0:
192,128,38268,1,8,0:0:0:0:
320,128,38431,1,0,0:0:0:0:
320,128,38512,1,0,0:0:0:0:
320,128,38594,1,0,0:0:0:0:
192,128,38757,1,8,0:0:0:0:
320,128,38920,1,0,0:0:0:0:
320,128,39246,1,0,0:0:0:0:
192,128,39409,1,8,0:0:0:0:
320,128,39572,1,8,0:0:0:0:
320,256,39735,1,0,0:0:0:0:
320,128,39816,1,0,0:0:0:0:
320,128,39898,1,0,0:0:0:0:
192,128,40061,1,8,0:0:0:0:
192,128,40224,1,8,0:0:0:0:
320,128,40387,1,0,0:0:0:0:
320,128,40713,1,0,0:0:0:0:
192,128,40876,1,8,0:0:0:0:
320,128,41039,1,0,0:0:0:0:
320,128,41121,1,0,0:0:0:0:
320,128,41202,1,0,0:0:0:0:
192,128,41365,1,8,0:0:0:0:
320,128,41528,1,0,0:0:0:0:
320,128,41691,1,0,0:0:0:0:
320,128,41773,1,0,0:0:0:0:
320,128,41854,1,0,0:0:0:0:
320,128,41936,1,0,0:0:0:0:
192,128,42018,1,8,0:0:0:0:
192,128,42099,1,8,0:0:0:0:
320,128,42181,1,0,0:0:0:0:
192,256,42344,1,12,0:0:0:0:
192,256,42507,1,12,0:0:0:0:
320,256,42833,1,4,0:0:0:0:
320,256,43159,1,4,0:0:0:0:
320,256,43485,1,4,0:0:0:0:
192,256,43974,1,12,0:0:0:0:
192,128,44463,1,8,0:0:0:0:
192,128,44626,1,8,0:0:0:0:
192,128,44789,1,8,0:0:0:0:
320,256,44952,1,4,0:0:0:0:
320,128,45278,1,0,0:0:0:0:
320,128,45441,1,0,0:0:0:0:
192,128,45604,1,8,0:0:0:0:
192,128,45768,1,8,0:0:0:0:
192,128,45849,1,8,0:0:0:0:
320,128,45931,1,0,0:0:0:0:
192,128,46094,1,8,0:0:0:0:
320,128,46257,1,0,0:0:0:0:
192,128,46420,1,8,0:0:0:0:
320,128,46583,1,0,0:0:0:0:
320,128,46664,1,0,0:0:0:0:
192,128,46746,1,8,0:0:0:0:
320,128,46909,1,0,0:0:0:0:
192,128,47072,1,8,0:0:0:0:
192,128,47235,1,8,0:0:0:0:
192,128,47398,1,8,0:0:0:0:
320,256,47561,1,4,0:0:0:0:
320,128,47887,1,0,0:0:0:0:
320,128,48050,1,0,0:0:0:0:
320,128,48132,1,0,0:0:0:0:
192,128,48213,1,8,0:0:0:0:
320,128,48376,1,0,0:0:0:0:
192,128,48539,1,8,0:0:0:0:
192,128,48702,1,8,0:0:0:0:
320,128,48865,1,0,0:0:0:0:
192,128,49028,1,8,0:0:0:0:
192,128,49110,1,8,0:0:0:0:
320,128,49191,1,0,0:0:0:0:
192,128,49354,1,8,0:0:0:0:
320,128,49518,1,8,0:0:0:0:
320,128,49681,1,0,0:0:0:0:
320,128,49762,1,0,0:0:0:0:
192,128,49844,1,8,0:0:0:0:
192,128,50007,1,8,0:0:0:0:
320,128,50088,1,8,0:0:0:0:
320,128,50170,1,0,0:0:0:0:
320,128,50496,1,0,0:0:0:0:
192,128,50659,1,8,0:0:0:0:
320,128,50822,1,0,0:0:0:0:
192,128,50985,1,8,0:0:0:0:
320,128,51148,1,0,0:0:0:0:
320,128,51229,1,0,0:0:0:0:
320,128,51311,1,0,0:0:0:0:
192,128,51474,1,8,0:0:0:0:
192,128,51800,1,8,0:0:0:0:
192,128,51963,1,8,0:0:0:0:
320,128,52126,1,0,0:0:0:0:
320,128,52208,1,0,0:0:0:0:
192,128,52289,1,8,0:0:0:0:
320,128,52452,1,0,0:0:0:0:
192,128,52615,1,8,0:0:0:0:
192,128,52778,1,8,0:0:0:0:
320,128,52941,1,0,0:0:0:0:
192,128,53104,1,8,0:0:0:0:
320,128,53186,1,0,0:0:0:0:
192,128,53268,1,8,0:0:0:0:
320,128,53431,1,0,0:0:0:0:
320,128,53512,1,0,0:0:0:0:
320,128,53594,1,0,0:0:0:0:
320,128,53675,1,0,0:0:0:0:
192,128,53757,1,8,0:0:0:0:
192,128,53920,1,8,0:0:0:0:
320,256,54083,1,4,0:0:0:0:
320,256,54246,1,4,0:0:0:0:
320,256,54409,1,4,0:0:0:0:
192,256,54572,1,12,0:0:0:0:
192,128,54898,1,8,0:0:0:0:
192,128,55061,1,8,0:0:0:0:
192,128,55224,1,8,0:0:0:0:
320,256,55387,1,4,0:0:0:0:
320,128,55713,1,0,0:0:0:0:
320,128,55876,1,0,0:0:0:0:
192,128,56039,1,8,0:0:0:0:
192,128,56202,1,8,0:0:0:0:
192,128,56284,1,8,0:0:0:0:
320,128,56365,1,0,0:0:0:0:
192,128,56528,1,8,0:0:0:0:
320,128,56691,1,0,0:0:0:0:
192,128,56854,1,8,0:0:0:0:
320,128,57018,1,0,0:0:0:0:
320,128,57099,1,0,0:0:0:0:
192,128,57181,1,8,0:0:0:0:
320,128,57344,1,0,0:0:0:0:
192,128,57507,1,8,0:0:0:0:
192,128,57670,1,8,0:0:0:0:
192,128,57833,1,8,0:0:0:0:
320,256,57996,1,4,0:0:0:0:
320,128,58322,1,0,0:0:0:0:
320,128,58485,1,0,0:0:0:0:
320,128,58566,1,0,0:0:0:0:
192,128,58648,1,8,0:0:0:0:
320,128,58811,1,0,0:0:0:0:
192,128,58974,1,8,0:0:0:0:
192,128,59137,1,8,0:0:0:0:
320,128,59300,1,0,0:0:0:0:
192,128,59463,1,8,0:0:0:0:
192,128,59545,1,8,0:0:0:0:
320,128,59626,1,0,0:0:0:0:
192,128,59789,1,8,0:0:0:0:
320,128,59952,1,8,0:0:0:0:
320,128,60115,1,0,0:0:0:0:
320,128,60197,1,0,0:0:0:0:
192,128,60278,1,8,0:0:0:0:
320,128,60360,1,0,0:0:0:0:
192,128,60441,1,8,0:0:0:0:
192,128,60523,1,8,0:0:0:0:
320,128,60604,1,0,0:0:0:0:
320,128,60931,1,0,0:0:0:0:
192,128,61094,1,8,0:0:0:0:
320,128,61257,1,0,0:0:0:0:
192,128,61420,1,8,0:0:0:0:
320,128,61583,1,0,0:0:0:0:
320,128,61664,1,0,0:0:0:0:
320,128,61746,1,0,0:0:0:0:
192,128,61909,1,8,0:0:0:0:
192,128,62235,1,8,0:0:0:0:
192,128,62398,1,8,0:0:0:0:
320,128,62561,1,0,0:0:0:0:
320,128,62643,1,0,0:0:0:0:
192,128,62724,1,8,0:0:0:0:
192,128,62806,1,8,0:0:0:0:
320,128,62887,1,0,0:0:0:0:
192,128,63050,1,8,0:0:0:0:
192,128,63213,1,8,0:0:0:0:
320,128,63376,1,0,0:0:0:0:
192,128,63539,1,8,0:0:0:0:
320,128,63621,1,0,0:0:0:0:
192,128,63702,1,8,0:0:0:0:
192,128,63865,1,8,0:0:0:0:
192,128,63947,1,8,0:0:0:0:
320,128,64028,1,0,0:0:0:0:
320,128,64110,1,0,0:0:0:0:
192,128,64191,1,8,0:0:0:0:
192,128,64354,1,8,0:0:0:0:
320,256,64518,1,4,0:0:0:0:
320,256,64681,1,4,0:0:0:0:
320,256,64844,1,4,0:0:0:0:
192,256,65007,1,12,0:0:0:0:
192,128,65333,1,8,0:0:0:0:
192,128,65496,1,8,0:0:0:0:
192,128,65659,1,8,0:0:0:0:
320,256,65822,1,4,0:0:0:0:
320,128,66148,1,0,0:0:0:0:
320,128,66311,1,0,0:0:0:0:
192,128,66474,1,8,0:0:0:0:
192,128,66637,1,8,0:0:0:0:
192,128,66719,1,8,0:0:0:0:
320,128,66800,1,0,0:0:0:0:
192,128,66963,1,8,0:0:0:0:
320,128,67126,1,0,0:0:0:0:
192,128,67289,1,8,0:0:0:0:
192,128,67371,1,8,0:0:0:0:
320,128,67452,1,0,0:0:0:0:
320,128,67534,1,0,0:0:0:0:
192,128,67615,1,8,0:0:0:0:
320,128,67778,1,0,0:0:0:0:
192,128,67941,1,8,0:0:0:0:
192,128,68104,1,8,0:0:0:0:
192,128,68268,1,8,0:0:0:0:
320,256,68431,1,4,0:0:0:0:
320,128,68757,1,0,0:0:0:0:
320,128,68920,1,0,0:0:0:0:
192,128,69083,1,8,0:0:0:0:
320,128,69246,1,0,0:0:0:0:
320,128,69327,1,0,0:0:0:0:
192,128,69409,1,8,0:0:0:0:
192,128,69572,1,8,0:0:0:0:
320,128,69735,1,0,0:0:0:0:
192,128,69816,1,8,0:0:0:0:
192,128,69898,1,8,0:0:0:0:
192,128,69979,1,8,0:0:0:0:
320,128,70061,1,0,0:0:0:0:
192,128,70224,1,8,0:0:0:0:
320,128,70387,1,0,0:0:0:0:
320,128,70550,1,0,0:0:0:0:
192,128,70632,1,8,0:0:0:0:
320,128,70713,1,0,0:0:0:0:
192,128,70876,1,8,0:0:0:0:
320,128,71039,1,0,0:0:0:0:
320,128,71202,1,0,0:0:0:0:
192,128,71365,1,8,0:0:0:0:
192,128,71528,1,8,0:0:0:0:
320,128,71610,1,8,0:0:0:0:
320,128,71691,1,0,0:0:0:0:
320,128,71854,1,0,0:0:0:0:
192,128,72018,1,8,0:0:0:0:
192,128,72181,1,8,0:0:0:0:
320,128,72262,1,0,0:0:0:0:
320,128,72344,1,8,0:0:0:0:
320,128,72507,1,0,0:0:0:0:
192,128,72670,1,8,0:0:0:0:
192,128,72833,1,8,0:0:0:0:
320,128,72914,1,8,0:0:0:0:
320,128,72996,1,0,0:0:0:0:
192,128,73077,1,0,0:0:0:0:
320,128,73159,1,8,0:0:0:0:
320,128,73322,1,8,0:0:0:0:
320,128,73403,1,0,0:0:0:0:
192,128,73485,1,8,0:0:0:0:
320,128,73648,1,0,0:0:0:0:
320,128,73811,1,0,0:0:0:0:
192,128,73893,1,8,0:0:0:0:
320,128,73974,1,0,0:0:0:0:
192,128,74137,1,8,0:0:0:0:
320,128,74300,1,0,0:0:0:0:
320,128,74382,1,0,0:0:0:0:
192,128,74463,1,8,0:0:0:0:
320,128,74545,1,0,0:0:0:0:
192,128,74626,1,8,0:0:0:0:
192,128,74708,1,8,0:0:0:0:
320,128,74789,1,0,0:0:0:0:
320,256,74952,1,4,0:0:0:0:
320,128,75115,1,4,0:0:0:0:
192,256,75441,1,12,0:0:0:0:
320,128,75768,1,0,0:0:0:0:
192,128,75931,1,8,0:0:0:0:
192,128,76012,1,8,0:0:0:0:
320,128,76094,1,0,0:0:0:0:
320,128,76257,1,0,0:0:0:0:
320,128,76420,1,0,0:0:0:0:
192,128,76501,1,8,0:0:0:0:
320,128,76583,1,0,0:0:0:0:
192,128,76746,1,8,0:0:0:0:
320,128,76909,1,0,0:0:0:0:
320,128,76990,1,0,0:0:0:0:
192,128,77072,1,8,0:0:0:0:
320,128,77153,1,0,0:0:0:0:
192,128,77235,1,8,0:0:0:0:
192,128,77316,1,8,0:0:0:0:
320,128,77398,1,0,0:0:0:0:
192,256,77561,1,12,0:0:0:0:
192,256,77724,1,12,0:0:0:0:
320,256,78050,1,4,0:0:0:0:
192,128,78376,1,8,0:0:0:0:
192,128,78539,1,8,0:0:0:0:
192,128,78702,1,8,0:0:0:0:
320,256,78865,1,4,0:0:0:0:
192,128,79191,1,8,0:0:0:0:
320,128,79518,1,0,0:0:0:0:
192,128,80170,1,8,0:0:0:0:
320,128,80659,1,0,0:0:0:0:
320,128,80822,1,0,0:0:0:0:
192,128,80985,1,8,0:0:0:0:
192,128,81148,1,8,0:0:0:0:
192,128,81311,1,8,0:0:0:0:
320,256,81474,1,4,0:0:0:0:
192,128,81800,1,8,0:0:0:0:
320,128,82126,1,0,0:0:0:0:
320,128,82289,1,0,0:0:0:0:
320,128,82371,1,0,0:0:0:0:
320,128,82452,1,0,0:0:0:0:
192,128,82778,1,8,0:0:0:0:
192,128,83104,1,8,0:0:0:0:
320,128,83431,1,0,0:0:0:0:
192,128,83594,1,8,0:0:0:0:
320,128,83757,1,0,0:0:0:0:
192,128,83920,1,8,0:0:0:0:
320,256,84083,1,4,0:0:0:0:
192,128,84409,1,8,0:0:0:0:
320,256,84735,1,4,0:0:0:0:
192,128,85061,1,8,0:0:0:0:
320,256,85387,1,4,0:0:0:0:
192,128,85713,1,8,0:0:0:0:
320,256,86039,1,4,0:0:0:0:
192,128,86365,1,8,0:0:0:0:
192,128,86447,1,8,0:0:0:0:
192,128,86528,1,8,0:0:0:0:
320,256,86691,1,4,0:0:0:0:
192,128,86854,1,8,0:0:0:0:
320,128,87018,1,0,0:0:0:0:
192,128,87181,1,8,0:0:0:0:
320,128,87344,1,0,0:0:0:0:
320,128,87425,1,0,0:0:0:0:
320,128,87507,1,0,0:0:0:0:
320,128,87588,1,8,0:0:0:0:
192,128,87670,1,0,0:0:0:0:
192,128,87751,1,0,0:0:0:0:
192,128,87833,1,8,0:0:0:0:
192,256,87996,1,12,0:0:0:0:
192,256,88485,1,12,0:0:0:0:
