osu file format v14

[General]
AudioFilename: HoneyCome.mp3
AudioLeadIn: 0
PreviewTime: 44463
Countdown: 0
SampleSet: Normal
StackLeniency: 0.7
Mode: 1
LetterboxInBreaks: 0
WidescreenStoryboard: 0

[Editor]
DistanceSpacing: 0.6
BeatDivisor: 4
GridSize: 32
TimelineZoom: 1.1

[Metadata]
Title:Honey Come!! (TV size)
TitleUnicode:Honey♥Come!! (TV size)
Artist:Ogura Yui
ArtistUnicode:小倉唯
Creator:toara_fict
Version:Nardo's Futsuu
Source:城下町のダンデライオン
Tags:YuiKaori ゆいかおり Kaori Ishihara 石原夏織 lolicon Oomori Shouko 大森祥子 Shunryu 俊龍 Ookuba Kaoru 大久保薫 Hikari Sakurada 櫻田光Castle Town Dandelion Joukamachi no Dandelion TVsize ending Charlotte Nardoxyribonucleic Lundlerol
BeatmapID:743863
BeatmapSetID:336032

[Difficulty]
HPDrainRate:6
CircleSize:6
OverallDifficulty:4
ApproachRate:10
SliderMultiplier:1.4
SliderTickRate:1

[Events]
//Background and Video events
0,0,"BG.jpg",0,30
//Break Periods
//Storyboard Layer 0 (Background)
//Storyboard Layer 1 (Fail)
//Storyboard Layer 2 (Pass)
//Storyboard Layer 3 (Foreground)
//Storyboard Sound Samples

[TimingPoints]
605,326.086956521739,4,1,0,70,1,0
5822,-100,4,1,0,90,0,0
11039,-100,4,1,0,80,0,0
31909,-100,4,1,0,70,0,0
37126,-100,4,1,0,80,0,0
44952,-100,4,1,0,100,0,1
54083,-100,4,1,0,90,0,0
55387,-100,4,1,0,100,0,1
64518,-100,4,1,0,90,0,0
65822,-100,4,1,0,100,0,1
78865,-100,4,1,0,70,0,0

[HitObjects]
256,192,605,5,4,0:0:0:0:
256,192,1746,1,0,0:0:0:0:
256,192,2235,1,8,0:0:0:0:
256,192,2887,1,8,0:0:0:0:
256,192,3213,1,4,0:0:0:0:
256,192,4354,1,0,0:0:0:0:
256,192,4844,1,8,0:0:0:0:
256,192,5496,1,8,0:0:0:0:
256,192,5822,1,4,0:0:0:0:
256,192,6474,1,8,0:0:0:0:
256,192,7126,1,4,0:0:0:0:
256,192,7778,1,8,0:0:0:0:
256,192,8431,1,0,0:0:0:0:
256,192,8757,1,8,0:0:0:0:
256,192,9083,1,0,0:0:0:0:
256,192,9409,1,8,0:0:0:0:
256,192,9735,1,12,0:0:0:0:
256,192,10061,1,12,0:0:0:0:
256,192,10387,1,12,0:0:0:0:
256,192,11039,1,4,0:0:0:0:
256,192,11365,1,8,0:0:0:0:
256,192,11691,1,8,0:0:0:0:
256,192,12181,1,8,0:0:0:0:
256,192,12507,1,0,0:0:0:0:
256,192,12670,1,8,0:0:0:0:
256,192,12996,1,8,0:0:0:0:
256,192,13322,1,0,0:0:0:0:
256,192,13648,1,0,0:0:0:0:
256,192,13974,1,8,0:0:0:0:
256,192,14300,1,8,0:0:0:0:
256,192,14789,1,8,0:0:0:0:
256,192,15115,1,0,0:0:0:0:
256,192,15278,1,8,0:0:0:0:
256,192,15604,1,8,0:0:0:0:
256,192,15931,1,0,0:0:0:0:
256,192,16583,1,0,0:0:0:0:
256,192,16909,1,0,0:0:0:0:
256,192,17235,1,8,0:0:0:0:
256,192,17887,1,0,0:0:0:0:
256,192,18213,1,0,0:0:0:0:
256,192,18539,1,8,0:0:0:0:
256,192,19191,1,0,0:0:0:0:
256,192,19354,1,0,0:0:0:0:
256,192,19518,1,8,0:0:0:0:
256,192,19844,1,0,0:0:0:0:
256,192,20170,1,12,0:0:0:0:
256,192,20822,1,0,0:0:0:0:
256,192,21474,1,4,0:0:0:0:
256,192,21800,1,8,0:0:0:0:
256,192,22126,1,8,0:0:0:0:
256,192,22615,1,8,0:0:0:0:
256,192,22941,1,0,0:0:0:0:
256,192,23104,1,8,0:0:0:0:
256,192,23431,1,8,0:0:0:0:
256,192,23757,1,0,0:0:0:0:
256,192,24083,1,0,0:0:0:0:
256,192,24409,1,8,0:0:0:0:
256,192,24735,1,8,0:0:0:0:
256,192,25224,1,8,0:0:0:0:
256,192,25550,1,0,0:0:0:0:
256,192,25713,1,8,0:0:0:0:
256,192,26039,1,8,0:0:0:0:
256,192,26365,1,0,0:0:0:0:
256,192,27018,1,0,0:0:0:0:
256,192,27344,1,0,0:0:0:0:
256,192,27670,1,8,0:0:0:0:
256,192,28322,1,8,0:0:0:0:
256,192,28648,1,8,0:0:0:0:
256,192,28974,1,0,0:0:0:0:
256,192,29300,1,4,0:0:0:0:
256,192,29626,1,8,0:0:0:0:
256,192,29952,1,0,0:0:0:0:
256,192,30278,1,8,0:0:0:0:
256,192,30441,1,0,0:0:0:0:
256,192,31257,1,0,0:0:0:0:
256,192,31583,1,8,0:0:0:0:
256,192,31909,1,0,0:0:0:0:
256,192,33213,1,0,0:0:0:0:
256,192,33702,1,0,0:0:0:0:
256,192,34518,1,4,0:0:0:0:
256,192,35170,1,8,0:0:0:0:
256,192,35822,1,4,0:0:0:0:
256,192,36474,1,8,0:0:0:0:
256,192,36800,1,8,0:0:0:0:
256,192,37126,1,4,0:0:0:0:
256,192,37452,1,8,0:0:0:0:
256,192,37941,1,0,0:0:0:0:
256,192,38104,1,8,0:0:0:0:
256,192,38431,1,0,0:0:0:0:
256,192,38757,1,8,0:0:0:0:
256,192,39246,1,0,0:0:0:0:
256,192,39409,1,8,0:0:0:0:
256,192,39735,1,4,0:0:0:0:
256,192,40387,1,8,0:0:0:0:
256,192,40713,1,8,0:0:0:0:
256,192,41039,1,0,0:0:0:0:
256,192,41691,1,8,0:0:0:0:
256,192,42018,1,8,0:0:0:0:
256,192,42344,1,4,0:0:0:0:
256,192,42507,1,4,0:0:0:0:
256,192,42833,1,4,0:0:0:0:
256,192,43159,1,12,0:0:0:0:
256,192,43485,1,4,0:0:0:0:
256,192,43974,1,12,0:0:0:0:
256,192,44952,1,4,0:0:0:0:
256,192,45278,1,8,0:0:0:0:
256,192,45604,1,0,0:0:0:0:
256,192,45931,1,8,0:0:0:0:
256,192,46094,1,8,0:0:0:0:
256,192,46420,1,8,0:0:0:0:
256,192,46746,1,0,0:0:0:0:
256,192,47561,1,0,0:0:0:0:
256,192,47887,1,8,0:0:0:0:
256,192,48213,1,0,0:0:0:0:
256,192,48539,1,8,0:0:0:0:
256,192,48702,1,0,0:0:0:0:
256,192,49028,1,0,0:0:0:0:
256,192,49354,1,8,0:0:0:0:
256,192,50007,1,8,0:0:0:0:
256,192,50170,1,8,0:0:0:0:
256,192,50496,1,8,0:0:0:0:
256,192,50822,1,0,0:0:0:0:
256,192,51148,1,8,0:0:0:0:
256,192,51474,1,0,0:0:0:0:
256,192,52615,1,8,0:0:0:0:
256,192,52778,1,8,0:0:0:0:
256,192,53104,1,8,0:0:0:0:
256,192,53431,1,0,0:0:0:0:
256,192,53594,1,0,0:0:0:0:
256,192,53757,1,8,0:0:0:0:
256,192,54083,1,4,0:0:0:0:
256,192,54409,1,8,0:0:0:0:
256,192,54572,1,8,0:0:0:0:
256,192,54898,1,12,0:0:0:0:
256,192,55387,1,4,0:0:0:0:
256,192,55713,1,8,0:0:0:0:
256,192,56039,1,0,0:0:0:0:
256,192,56365,1,8,0:0:0:0:
256,192,56528,1,8,0:0:0:0:
256,192,56854,1,8,0:0:0:0:
256,192,57181,1,0,0:0:0:0:
256,192,57996,1,0,0:0:0:0:
256,192,58322,1,8,0:0:0:0:
256,192,58648,1,0,0:0:0:0:
256,192,58974,1,8,0:0:0:0:
256,192,59137,1,0,0:0:0:0:
256,192,59463,1,0,0:0:0:0:
256,192,59789,1,8,0:0:0:0:
256,192,60441,1,8,0:0:0:0:
256,192,60604,1,8,0:0:0:0:
256,192,60931,1,8,0:0:0:0:
256,192,61257,1,0,0:0:0:0:
256,192,61583,1,8,0:0:0:0:
256,192,61909,1,0,0:0:0:0:
256,192,63050,1,0,0:0:0:0:
256,192,63213,1,0,0:0:0:0:
256,192,63539,1,8,0:0:0:0:
256,192,63865,1,0,0:0:0:0:
256,192,64028,1,0,0:0:0:0:
256,192,64191,1,8,0:0:0:0:
256,192,64518,1,4,0:0:0:0:
256,192,64844,1,8,0:0:0:0:
256,192,65007,1,8,0:0:0:0:
256,192,65333,1,12,0:0:0:0:
256,192,65822,1,4,0:0:0:0:
256,192,66148,1,8,0:0:0:0:
256,192,66474,1,0,0:0:0:0:
256,192,66800,1,8,0:0:0:0:
256,192,66963,1,8,0:0:0:0:
256,192,67289,1,8,0:0:0:0:
256,192,67615,1,0,0:0:0:0:
256,192,68431,1,0,0:0:0:0:
256,192,68757,1,8,0:0:0:0:
256,192,69083,1,0,0:0:0:0:
256,192,69409,1,8,0:0:0:0:
256,192,69572,1,0,0:0:0:0:
256,192,69898,1,0,0:0:0:0:
256,192,70224,1,8,0:0:0:0:
256,192,70876,1,8,0:0:0:0:
256,192,71039,1,8,0:0:0:0:
256,192,71365,1,0,0:0:0:0:
256,192,71691,1,8,0:0:0:0:
256,192,72018,1,0,0:0:0:0:
256,192,72344,1,8,0:0:0:0:
256,192,72507,1,0,0:0:0:0:
256,192,72670,1,8,0:0:0:0:
256,192,72996,1,0,0:0:0:0:
256,192,73648,1,4,0:0:0:0:
256,192,73974,1,8,0:0:0:0:
256,192,74300,1,0,0:0:0:0:
256,192,74463,1,0,0:0:0:0:
256,192,74626,1,8,0:0:0:0:
256,192,74952,1,4,0:0:0:0:
256,192,75441,1,12,0:0:0:0:
256,192,76257,1,4,0:0:0:0:
256,192,76583,1,8,0:0:0:0:
256,192,76909,1,0,0:0:0:0:
256,192,77072,1,0,0:0:0:0:
256,192,77235,1,8,0:0:0:0:
256,192,77561,1,4,0:0:0:0:
256,192,78050,1,12,0:0:0:0:
256,192,78865,1,4,0:0:0:0:
256,192,80007,1,0,0:0:0:0:
256,192,80496,1,8,0:0:0:0:
256,192,81148,1,8,0:0:0:0:
256,192,81474,1,4,0:0:0:0:
256,192,82615,1,0,0:0:0:0:
256,192,83104,1,8,0:0:0:0:
256,192,83757,1,8,0:0:0:0:
256,192,84083,1,4,0:0:0:0:
256,192,84735,1,8,0:0:0:0:
256,192,85387,1,4,0:0:0:0:
256,192,86039,1,8,0:0:0:0:
256,192,86691,1,0,0:0:0:0:
256,192,87018,1,8,0:0:0:0:
256,192,87344,1,0,0:0:0:0:
256,192,87670,1,0,0:0:0:0:
256,192,87996,1,12,0:0:0:0:
256,192,88485,1,12,0:0:0:0:
